<?xml version="1.0" standalone="no"?>
<!DOCTYPE svg PUBLIC "-//W3C//DTD SVG 1.1//EN" "http://www.w3.org/Graphics/SVG/1.1/DTD/svg11.dtd" >
<svg>
<metadata>
Created by FontForge 20090622 at Tue Sep 29 12:32:55 2015
 By deploy user
&#194;&#169;1993-94 Apple Computer, Inc.
</metadata>
<defs>
<font id="Skia" horiz-adv-x="586" >
  <font-face 
    font-family="Skia"
    font-weight="400"
    font-stretch="normal"
    units-per-em="1000"
    panose-1="2 0 5 3 2 0 0 2 0 4"
    ascent="800"
    descent="-200"
    x-height="489"
    cap-height="654"
    bbox="-500 -392 1350 926"
    underline-thickness="0"
    underline-position="10"
    unicode-range="U+0009-U+FB02"
  />
<missing-glyph horiz-adv-x="0" 
 />
    <glyph glyph-name=".notdef" horiz-adv-x="0" 
 />
    <glyph glyph-name=".null" horiz-adv-x="0" 
 />
    <glyph glyph-name="uni000D" horiz-adv-x="250" 
 />
    <glyph glyph-name="space" unicode=" " horiz-adv-x="500" 
 />
    <glyph glyph-name="uni0009" unicode="&#x9;" horiz-adv-x="250" 
 />
    <glyph glyph-name="exclam" unicode="!" horiz-adv-x="464" 
d="M279 654h-84q2 -130 3 -214t2 -126q3 -81 3 -99h68q0 9 0.5 33.5t1.5 65.5q3 83 6 340zM284 0v98h-94v-98h94z" />
    <glyph glyph-name="quotedbl" unicode="&#x22;" horiz-adv-x="371" 
d="M302 694h-73l8 -242h56zM143 694h-73l8 -242h56z" />
    <glyph glyph-name="numbersign" unicode="#" horiz-adv-x="690" 
d="M597 308v51h-113l15.5 48l13.5 40.5l10 28.5t4 13l-44 16q-1 -2 -4.5 -15.5t-11.5 -36.5l-15.5 -46.5l-15.5 -47.5h-109l15.5 48l13.5 40.5l10 28.5t4 13l-44 16q-1 -2 -5 -15.5t-12 -36.5t-15 -46.5t-15 -47.5h-130v-51h113l-10.5 -31.5t-8.5 -27l-8.5 -27.5l-10.5 -32
h-130v-50h113l-16.5 -49l-13 -41t-9.5 -29.5l-5 -14.5l44 -18q1 3 4.5 16.5t11.5 37.5l16 49l16 49h109l-15.5 -49l-13.5 -41l-10 -29.5l-5 -14.5l44 -18q1 3 4.5 16.5t11.5 37.5q8 25 16.5 49t16.5 49h130v50h-114q8 23 18 54.5l20 63.5h130zM419 308l-9 -31.5t-8.5 -27
l-9.5 -27.5l-11 -32h-110q9 23 19 54.5l20 63.5h109z" />
    <glyph glyph-name="dollar" unicode="$" horiz-adv-x="420" 
d="M363 143q0 38 -19.5 64.5t-47.5 44.5q-27 18 -60 31.5t-56 28.5q-15 9 -25.5 23t-10.5 30q0 13 10 29t31 27q16 8 35.5 11t39.5 3q34 0 56 -1t27 -2v12q0 11 -1 31t-1 42v47q0 21 0.5 48t1.5 52h-60l2 -166h-21q-45 0 -79 -9t-58 -25q-29 -19 -43.5 -46.5t-14.5 -56.5
q0 -36 16 -62.5t49 -46.5q12 -7 26.5 -14.5t30.5 -14.5t30.5 -14.5t26.5 -14.5q19 -12 28.5 -25.5t9.5 -31.5q0 -27 -15.5 -42t-37.5 -24q-12 -5 -26 -7.5t-26.5 -3.5t-22.5 -1h-14h-22t-27 1q-14 1 -24 1t-15 1q0 -2 0.5 -13t0.5 -30q0 -18 0.5 -41.5t0.5 -49.5v-20
q0 -13 -1 -30v-30q0 -14 -1 -25h60l-2 173h27q87 0 149 31q33 18 53 47.5t20 68.5z" />
    <glyph glyph-name="percent" unicode="%" horiz-adv-x="987" 
d="M414 459q0 42 -14.5 77t-38.5 59q-23 24 -57 38.5t-76 14.5t-77.5 -15t-58.5 -40q-24 -26 -37 -59.5t-13 -73.5q0 -84 55 -139q23 -23 57 -36.5t73 -13.5q42 0 73.5 12.5t56.5 37.5q28 26 42.5 62t14.5 76zM722 626l-50 35l-54.5 -87l-60.5 -94l-58.5 -90.5l-51.5 -79.5
l-75.5 -116l-67.5 -104l-50 -76.5t-23 -34.5l50 -35l22.5 36l48.5 79l67 106l75 116l52.5 79.5l58.5 90.5l61 91.5zM923 173q0 42 -14 77t-38 59q-23 24 -57.5 38.5t-76.5 14.5t-77 -15t-58 -40q-24 -25 -37.5 -59t-13.5 -74q0 -42 14.5 -77t40.5 -61q24 -24 57.5 -37.5
t72.5 -13.5q43 0 74 13t57 38q28 25 42 61.5t14 75.5zM344 455q0 -32 -10 -56t-29 -44q-14 -13 -35.5 -21t-42.5 -8q-46 0 -77 29q-21 20 -30.5 46.5t-9.5 57.5q0 29 10.5 57t27.5 44q31 31 80 31q47 0 79 -32q37 -36 37 -104zM854 169q0 -62 -40 -99q-13 -14 -34.5 -22
t-43.5 -8q-21 0 -41 7.5t-35 22.5q-40 39 -40 103q0 29 10.5 57t27.5 44q31 31 79 31q50 0 79 -32q20 -18 29 -44.5t9 -59.5z" />
    <glyph glyph-name="ampersand" unicode="&#x26;" horiz-adv-x="731" 
d="M714 47l-163 121v1q36 46 87 120l41 58t19 27l-60 39q-2 -3 -13.5 -21.5l-32.5 -52.5q-20 -34 -43 -67l-48 -67h-1l-54 42l-37.5 30l-33.5 27v1q66 55 95.5 103t29.5 100q0 37 -14 67.5t-39.5 52t-61 33t-78.5 11.5q-75 0 -136 -47q-60 -47 -60 -118q0 -81 75 -140v-1
q-51 -38 -84.5 -89.5t-33.5 -108.5q0 -84 59 -134q59 -49 150 -49q63 0 117 29.5t116 99.5h1l161 -123zM423 500q0 -40 -20 -77.5t-72 -82.5h-1q-72 55 -107 92.5t-35 74.5q0 46 33.5 74.5t84.5 28.5q54 0 85.5 -29.5t31.5 -80.5zM460 149q-39 -45 -81.5 -72.5t-99.5 -27.5
q-27 0 -51 8.5t-41.5 24t-28 37.5t-10.5 49q0 40 15 76q8 18 25 39.5t43 46.5h1l126 -100.5l102 -79.5v-1z" />
    <glyph glyph-name="quotesingle" unicode="'" horiz-adv-x="210" 
d="M142 694h-73l8 -242h56z" />
    <glyph glyph-name="parenleft" unicode="(" horiz-adv-x="415" 
d="M403 -157q-24 8 -50 21t-50.5 30t-47 37t-39.5 41q-38 48 -60.5 110t-22.5 134q0 66 19.5 128t52.5 111q36 54 87 98.5t111 72.5l-26 51q-56 -25 -122 -78q-32 -26 -58.5 -54t-48.5 -60q-40 -60 -64 -129.5t-24 -144.5q0 -82 27.5 -152t72.5 -125q21 -27 47.5 -50
t55 -41.5t58 -32t56.5 -20.5z" />
    <glyph glyph-name="parenright" unicode=")" horiz-adv-x="415" 
d="M355 254q0 85 -27 153t-73 125q-21 27 -47.5 50t-55 41.5t-58 32t-56.5 21.5l-26 -54q49 -17 101 -51t86 -78q38 -48 60.5 -110t22.5 -134q0 -129 -72 -239q-34 -54 -87.5 -99t-110.5 -72l26 -51q29 12 60 31.5t61 44t57.5 54t50.5 61.5q39 57 63.5 129t24.5 145z" />
    <glyph glyph-name="asterisk" unicode="*" horiz-adv-x="363" 
d="M219 672h-74l7 -109h59zM332 487v72l-108 -8v-57zM140 494v57l-109 8v-72zM219 373l-8 109h-59l-7 -109h74z" />
    <glyph glyph-name="plus" unicode="+" horiz-adv-x="690" 
d="M580 221v54h-208v206h-54v-206h-208v-54h208v-208h54v208h208z" />
    <glyph glyph-name="comma" unicode="," horiz-adv-x="260" 
d="M204 98l-68 31q-18 -47 -36 -89l-35 -80q-35 -77 -39 -84l51 -23l127 241v4z" />
    <glyph glyph-name="hyphen" unicode="-" horiz-adv-x="341" 
d="M303 250v66h-265v-66h265z" />
    <glyph glyph-name="hyphen" unicode="&#xad;" horiz-adv-x="341" 
d="M303 250v66h-265v-66h265z" />
    <glyph glyph-name="period" unicode="." horiz-adv-x="260" 
d="M179 0v104h-98v-104h98z" />
    <glyph glyph-name="slash" unicode="/" horiz-adv-x="333" 
d="M350 654l-62 23l-36 -100.5l-41 -112.5l-40.5 -111.5l-34.5 -96.5l-57 -156.5l-50 -136.5q-47 -128 -54 -150l62 -22l15.5 46l35.5 103l49.5 140l57.5 158l33 91.5l42 114.5l43 115.5z" />
    <glyph glyph-name="zero" unicode="0" horiz-adv-x="621" 
d="M566 246q0 60 -18.5 106t-52.5 82q-33 34 -80 53.5t-104 19.5t-106 -20.5t-81 -55.5q-33 -35 -51 -81t-18 -103q0 -60 19.5 -108t55.5 -84q34 -34 80 -52t100 -18t100 18t81 52q35 33 55 83t20 108zM487 241q0 -92 -60 -149q-22 -21 -52 -33t-66 -12q-35 0 -64.5 12
t-50.5 33q-60 59 -60 155q0 43 15.5 83.5t40.5 65.5q21 21 50 35t71 14q37 0 67.5 -13t52.5 -36q27 -27 41.5 -67t14.5 -88z" />
    <glyph glyph-name="one" unicode="1" horiz-adv-x="381" 
d="M275 0q-1 8 -1 32t-1 66v140v87q1 37 1 73q0 37 1 72l-56 39q-5 -4 -23.5 -17l-51.5 -36l-63.5 -44.5l-60.5 -41.5l28 -43l89 55t63 38h1q1 -12 1 -29v-38v-64q0 -130 -1.5 -201.5t-1.5 -87.5h76z" />
    <glyph glyph-name="two" unicode="2" horiz-adv-x="512" 
d="M500 1v67h-24t-57 -1t-71 -1q-33 0 -64 -1q-31 0 -62 -1.5t-52 -3.5l-1 3q43 20 87 49t75 59q30 29 50 66t20 82q0 54 -25 90.5t-70 58.5q-35 17 -76.5 24.5t-95.5 7.5q-18 0 -34.5 -0.5t-24.5 -1.5l-7 -65q12 1 29 1.5t30 0.5q38 0 72 -5.5t60 -18.5q29 -15 45 -39.5
t16 -60.5q0 -46 -25 -79.5t-74 -70.5q-30 -23 -85 -55l-51 -27.5l-44 -22.5l18 -55h85h139h125h92z" />
    <glyph glyph-name="three" unicode="3" horiz-adv-x="461" 
d="M408 46q0 63 -41 98t-111 48v2q49 19 82.5 58.5t33.5 90.5q0 48 -24 79.5t-63 49.5q-42 19 -84.5 24t-94.5 5h-24l-13 -65q4 0 17.5 0.5t25.5 0.5q30 0 60 -4t53 -13q31 -13 48.5 -35t17.5 -58q0 -51 -47.5 -81.5t-140.5 -39.5l9 -60q7 0 16 0.5t20 0.5q29 0 50 -2t38 -7
q40 -12 65.5 -36t25.5 -60q0 -40 -24.5 -65.5t-69.5 -40.5q-31 -10 -73 -15t-84 -5h-49l9 -64q6 -1 18 -1h24q77 0 127.5 10.5t95.5 31.5q54 26 80.5 65.5t26.5 87.5z" />
    <glyph glyph-name="four" unicode="4" horiz-adv-x="587" 
d="M580 79v64q-39 0 -67 -0.5t-49 -1t-36 -0.5h-26v129q1 120 3 205l-57 33q-5 -6 -32 -36.5l-75 -87.5l-103 -117l-118 -130l31 -58l280 2q-1 -43 -1 -81t-1 -71t-1 -53v-29h75q0 16 -1 77t0 157q35 0 76.5 -0.5t101.5 -1.5zM332 405q-1 -42 -1 -77v-62v-125h-122h-105
l-1 1l228 264z" />
    <glyph glyph-name="five" unicode="5" horiz-adv-x="479" 
d="M438 418v69h-18t-49 -1h-109h-109q-28 1 -43 1h-16v-63v-92v-98v-63h27q46 -2 80.5 -6.5t56.5 -13.5q45 -16 65 -42t20 -60t-16.5 -59.5t-53.5 -43.5q-30 -14 -77.5 -21.5t-101.5 -7.5h-26l9 -65h34q66 0 116.5 11t88.5 29q51 25 79.5 68.5t28.5 91.5t-23 85.5t-71 60.5
q-30 15 -71.5 25t-93.5 14v183h100q47 0 88 -1t62 -1h23z" />
    <glyph glyph-name="six" unicode="6" horiz-adv-x="575" 
d="M522 208q0 58 -30 104.5t-87 78.5q-36 20 -77 31.5t-72 15.5v1l93 96l52.5 53l40.5 42l-56 46l-99.5 -108l-119.5 -133q-64 -75 -85 -129q-20 -52 -20 -104q0 -51 17 -89t45 -64q35 -34 78 -49t91 -15q51 0 90 16.5t72 47.5q29 28 48 71t19 88zM443 203q0 -33 -11 -63
t-33 -52q-17 -18 -45 -29.5t-61 -11.5q-32 0 -58 9.5t-47 30.5q-21 19 -34 49.5t-13 67.5q0 48 20.5 95t53.5 81q10 0 25.5 -2.5t32 -6.5t33.5 -10t32 -13q49 -24 77 -62t28 -83z" />
    <glyph glyph-name="seven" unicode="7" horiz-adv-x="484" 
d="M466 435l-34 52h-25q-20 0 -57 -1h-128h-133q-31 1 -48 1h-19v-69h25q23 0 65 1t85.5 1.5t88.5 0.5h91l1 -1q-11 -23 -96 -186l-90 -170l-102 -186l63 -30q5 11 30.5 59l70.5 133l98.5 183.5z" />
    <glyph glyph-name="eight" unicode="8" horiz-adv-x="578" 
d="M514 171q0 58 -31.5 94.5t-83.5 60.5v1q40 28 69 69.5t29 89.5q0 73 -58 118q-59 45 -149 45q-82 0 -144 -47q-61 -46 -61 -120q0 -54 25 -87.5t70 -57.5v-1q-57 -42 -86.5 -82t-29.5 -88q0 -83 64 -132t162 -49q94 0 158 52q66 52 66 134zM417 471q0 -36 -21 -66.5
t-58 -55.5q-28 9 -58.5 20.5t-50.5 22.5q-28 15 -46 36t-18 53q0 49 35 77.5t90 28.5q57 0 92 -31t35 -85zM435 164q0 -57 -40 -87t-107 -30q-61 0 -102 34q-42 34 -42 86q0 45 27.5 82.5t67.5 63.5q31 -10 66 -23.5t56 -24.5q38 -19 56 -44.5t18 -56.5z" />
    <glyph glyph-name="nine" unicode="9" horiz-adv-x="575" 
d="M513 291q0 54 -16.5 90.5t-43.5 63.5q-32 32 -74.5 47t-93.5 15t-94.5 -18t-73.5 -50q-29 -30 -46.5 -67.5t-17.5 -85.5q0 -60 25 -101t67 -69q37 -26 83.5 -41t89.5 -21l1 -1l-84.5 -84l-99.5 -99l57 -47q11 11 36.5 38.5l67.5 70.5t74.5 80t57.5 69q44 56 64.5 103.5
t20.5 106.5zM434 288q0 -54 -19.5 -96t-54.5 -81q-37 4 -68.5 12.5t-61.5 23.5q-98 51 -98 144q0 31 11.5 61t31.5 50q20 19 47.5 31t60.5 12q30 0 58 -11t47 -30q21 -21 33.5 -51t12.5 -65z" />
    <glyph glyph-name="colon" unicode=":" horiz-adv-x="320" 
d="M209 389v104h-98v-104h98zM209 0v104h-98v-104h98z" />
    <glyph glyph-name="semicolon" unicode=";" horiz-adv-x="320" 
d="M214 389v104h-98v-104h98zM223 98l-68 31l-33.5 -81.5l-32.5 -73.5l-25.5 -55.5t-12.5 -25.5l52 -23l120 224v4z" />
    <glyph glyph-name="semicolon" unicode="&#x37e;" horiz-adv-x="320" 
d="M214 389v104h-98v-104h98zM223 98l-68 31l-33.5 -81.5l-32.5 -73.5l-25.5 -55.5t-12.5 -25.5l52 -23l120 224v4z" />
    <glyph glyph-name="less" unicode="&#x3c;" horiz-adv-x="690" 
d="M555 82l-360 165v2l360 166l-27 51l-408 -194v-49l408 -192z" />
    <glyph glyph-name="equal" unicode="=" horiz-adv-x="690" 
d="M563 307v53h-436v-53h436zM563 139v53h-436v-53h436z" />
    <glyph glyph-name="greater" unicode="&#x3e;" horiz-adv-x="690" 
d="M570 223v49l-407 194l-28 -51l360 -166v-2l-360 -165l28 -51z" />
    <glyph glyph-name="question" unicode="?" horiz-adv-x="558" 
d="M476 478q0 57 -28.5 93.5t-74.5 58.5q-37 17 -74.5 23t-83.5 6h-52l-9 -70q36 0 72 -1t70 -9q46 -11 72.5 -35.5t26.5 -70.5q0 -33 -16.5 -58t-52.5 -53q-12 -8 -28.5 -17.5t-37.5 -19.5q-20 -10 -37 -17.5l-30 -13.5v-132h72l-1 93l67 37t71 46q34 26 54 60.5t20 79.5z
M281 0v98h-94v-98h94z" />
    <glyph glyph-name="at" unicode="@" horiz-adv-x="899" 
d="M840 280q0 158 -108 250q-108 93 -279 93q-163 0 -278 -107q-113 -107 -113 -269q0 -179 122 -295q122 -115 322 -130l6 57q-168 13 -278 111q-108 97 -108 252q0 132 90 227q91 94 238 94q146 0 235 -78t89 -203q0 -84 -44 -146q-43 -60 -110 -72v83v106q0 57 -12 91
t-37 57q-27 24 -64.5 34.5t-88.5 10.5q-32 0 -52 -1.5t-26 -1.5l-7 -61q23 1 38 2t32 1q31 0 52.5 -3t40.5 -11q25 -11 39 -30t16 -50q-19 -2 -40 -4t-46 -6t-46.5 -9.5t-40.5 -13.5q-42 -18 -68 -45.5t-26 -72.5q0 -40 22.5 -67t54.5 -42q25 -11 77 -19q26 -4 49 -5.5
t43 -1.5q140 0 222 79q84 79 84 196zM556 153q0 -36 -0.5 -61t-0.5 -32q-6 -1 -21 -1h-23q-25 0 -48.5 3.5t-46.5 11.5q-25 8 -40 25t-15 45q0 25 19 42t38 24q16 6 35 10.5t37.5 7.5t35.5 5t29 2q1 -27 1 -48v-34z" />
    <glyph glyph-name="A" unicode="A" horiz-adv-x="663" 
d="M657 26q-2 4 -26 57l-72 156l-95.5 208.5l-96.5 215.5h-63l-97.5 -214l-93.5 -204l-72 -155t-33 -68l65 -35l31 69l79 177h292l75 -174l22 -52t9 -20zM447 295h-237l26 57l32 71l32 73l28 60h2l61.5 -136.5z" />
    <glyph glyph-name="B" unicode="B" horiz-adv-x="639" 
d="M578 192q0 37 -11 62.5t-32 46.5q-24 24 -55.5 37t-65.5 16v5q41 14 73 53q32 40 32 89q0 48 -25 81t-70 50q-61 25 -165 25q-22 0 -45 -0.5t-46 -1.5t-36.5 -1.5t-17.5 -0.5q0 -4 1 -87t1 -228q0 -75 -0.5 -158.5t-1.5 -177.5q3 0 17 -0.5l40 -1.5t50 -1h49
q66 0 116.5 10t92.5 32q48 24 73.5 63.5t25.5 87.5zM494 190q0 -33 -15 -57.5t-42 -39.5q-33 -18 -81 -24t-105 -6q-15 0 -31 0.5t-26 1.5v25q0 23 -1 65q-1 43 -1 85v84v116q1 41 1 79t1 73q6 0 25 0.5t42 0.5q36 0 67 -5t53 -15q25 -13 40 -34.5t15 -51.5
q0 -29 -13.5 -51.5t-33.5 -37.5q-43 -30 -113 -31l8 -58q5 0 22 0.5t44 0.5q34 0 63 -10.5t46 -27.5q35 -35 35 -82z" />
    <glyph glyph-name="C" unicode="C" horiz-adv-x="577" 
d="M547 60h-23q-66 0 -130 13.5t-118 43.5q-64 37 -94 91t-30 120q0 63 33.5 118t94.5 90q48 27 112.5 40.5t127.5 13.5h16q-2 22 -3.5 41.5t-1.5 28.5h-22q-110 0 -203 -34q-95 -33 -151 -89q-38 -39 -62 -91.5t-24 -116.5q0 -72 24 -126.5t66 -94.5q60 -57 152 -87
t212 -30h17q2 24 4 44.5t3 24.5z" />
    <glyph glyph-name="D" unicode="D" horiz-adv-x="731" 
d="M661 323q0 85 -34 148t-106 109q-63 39 -140.5 57t-179.5 18h-13q-10 0 -30 -1h-44q2 -118 2 -199v-135v-101t-1 -108q-1 -55 -1 -83v-29h10q9 0 26 -1t33 -1h34q91 0 162.5 18t129.5 53q69 39 110.5 103.5t41.5 151.5zM578 324q0 -72 -33.5 -122.5t-90.5 -83.5
q-22 -13 -49.5 -23.5t-58.5 -17.5t-63.5 -11t-63.5 -4h-25q-1 141 -1 219v100v80q0 51 1 129h26q27 0 57 -3.5t64 -10.5q67 -14 123 -48q60 -37 87 -89t27 -115z" />
    <glyph glyph-name="E" unicode="E" horiz-adv-x="604" 
d="M529 1v68q-6 0 -55.5 -0.5t-121.5 -0.5h-89t-70 1q0 36 -0.5 90.5t-0.5 146.5h25t29 0.5t29 0.5h27h67t73 -1t58 -1h23v68h-20t-52 -1t-73 -1h-81q-23 0 -53 0.5t-52 0.5q0 48 1 103t1 110q20 0 55.5 0.5t71.5 0.5q42 0 78 -0.5t62 -0.5q27 0 43 -0.5t19 -0.5v68
q-5 0 -63.5 -0.5t-151.5 -0.5q-57 0 -108.5 0.5t-85.5 0.5q1 -49 1 -96v-92q1 -45 1 -82v-64v-99t-1 -96v-78t-1 -44q35 0 86 0.5t114 0.5h82q38 0 68 -1h65z" />
    <glyph glyph-name="F" unicode="F" horiz-adv-x="570" 
d="M514 584v68q-8 0 -63.5 -0.5t-140.5 -0.5q-58 0 -109.5 0.5t-86.5 0.5q1 -48 1 -95v-92q1 -45 1 -81v-64q0 -141 -0.5 -216t-1.5 -104h80q0 48 -1 124t-1 163h34q14 1 26 1h22h68t77 -1t63 -1h27v68h-24t-55 -1t-73 -1h-78h-26t-26.5 0.5t-22.5 0.5h-12q0 24 0.5 53
t0.5 59q0 31 0.5 62t0.5 58q22 0 52.5 0.5t66.5 0.5q41 0 76 -0.5t61 -0.5q27 0 43.5 -0.5t20.5 -0.5z" />
    <glyph glyph-name="G" unicode="G" horiz-adv-x="688" 
d="M597 336h-80l1.5 -200t0.5 -75q-63 0 -121 11t-112 37q-60 31 -97 84.5t-37 134.5q0 66 36 122.5t99 89.5q46 24 108 37t137 13q9 0 22.5 -0.5t15.5 -0.5l-6 71h-42q-78 0 -148.5 -15t-127.5 -44q-84 -43 -130.5 -112.5t-46.5 -159.5q0 -72 24 -128.5t66 -94.5
q65 -62 154 -87t206 -25q12 0 24.5 0.5t23.5 1.5t19 1.5t10 0.5v20q0 17 -1 47q-1 31 -1 58v53v35q0 20 1 43t1 44t1 38z" />
    <glyph glyph-name="H" unicode="H" horiz-adv-x="781" 
d="M667 0q0 29 -1 105.5t-1 220.5v157q1 49 1 91q0 43 1 80h-81q0 -75 1 -145.5t1 -136.5h-79h-127h-126h-64q0 66 1 136.5t1 145.5h-80q1 -91 1.5 -167.5t0.5 -130.5v-152q0 -62 -1 -100t-1 -64v-40h80v39t-1 60t-1 86v120h73h117h119h87q0 -118 -0.5 -197t-1.5 -108h81z
" />
    <glyph glyph-name="I" unicode="I" horiz-adv-x="310" 
d="M195 0q0 29 -1 110.5t-1 229.5v151q1 47 1 87q0 41 1 76h-80q1 -49 1 -96v-92q1 -45 1 -82v-64q0 -140 -1 -215.5t-1 -104.5h80z" />
    <glyph glyph-name="J" unicode="J" horiz-adv-x="376" 
d="M275 654h-80v-42q0 -21 1 -45q1 -23 1 -61v-90v-191q0 -46 -9.5 -75t-30.5 -49q-22 -21 -54 -30t-86 -15l10 -67q78 7 126 29t75 52q25 30 35.5 66.5t10.5 78.5v217v138q1 23 1 43v41z" />
    <glyph glyph-name="K" unicode="K" horiz-adv-x="631" 
d="M194 0q0 29 -1 105.5t-1 216.5v163q1 48 1 89q0 42 1 80h-80q1 -78 1.5 -153t0.5 -132v-130q0 -59 -1 -110v-83t-1 -46h80zM618 45l-115 104l-95 86q-86 79 -96 90v1l111 114l88 88.5l85 83.5l-55 49l-199 -211q-99 -103 -130 -133v-2l39 -35l85 -78l111 -101.5
l115 -109.5z" />
    <glyph glyph-name="L" unicode="L" horiz-adv-x="539" 
d="M514 1v68h-20q-17 0 -49 -1t-70 -1h-82q-23 0 -51.5 0.5t-48.5 0.5v25t-1 66v214v135q1 42 1 78t1 68h-80q0 -15 0.5 -39.5t0.5 -62.5t0.5 -90.5t0.5 -121.5q0 -84 -0.5 -169t-1.5 -170q35 0 86.5 0.5t109.5 0.5q87 0 142.5 -0.5t61.5 -0.5z" />
    <glyph glyph-name="M" unicode="M" horiz-adv-x="947" 
d="M903 10l-45.5 222l-41.5 209q-20 103 -29.5 156t-10.5 58l-74 6q-2 -3 -21 -46.5l-56 -128.5l-72 -164.5l-69 -154.5h-3l-81 180l-70 157l-49.5 112.5t-19.5 44.5l-77 -11q-2 -9 -13.5 -65l-33.5 -160l-43.5 -206.5l-47.5 -209.5l75 -14l34 183t36 177q38 175 39 187h1
q7 -13 27.5 -58.5l55.5 -123.5l67 -150.5l61 -139.5h68l63 145l64 144l54 117.5t31 65.5h1l100 -548z" />
    <glyph glyph-name="N" unicode="N" horiz-adv-x="790" 
d="M676 654h-76q0 -43 0.5 -108.5t1.5 -155.5t1.5 -152.5t0.5 -100.5l-1 -1l-128.5 160l-136.5 172l-108 137.5t-42 52.5l-74 -35q1 -100 1.5 -187t0.5 -141q0 -134 -1 -208.5t-1 -86.5h76q-1 28 -3 220q-1 96 -1 176v146h1l47 -59l101 -127l132.5 -170l143.5 -189l65 32
q0 3 -0.5 25t-0.5 62t-0.5 95.5t-0.5 124.5v142q1 50 1 94t1 82z" />
    <glyph glyph-name="O" unicode="O" horiz-adv-x="756" 
d="M693 327q0 75 -24.5 141t-72.5 115q-42 42 -98 65.5t-122 23.5q-64 0 -123 -25t-101 -71q-46 -51 -69 -112t-23 -136q0 -85 29 -152.5t77 -112.5q42 -42 96 -62t114 -20q63 0 117 21.5t102 69.5q45 43 71.5 109.5t26.5 145.5zM609 319q0 -67 -23 -121t-60 -90
q-31 -29 -69 -45t-81 -16t-81.5 16.5t-65.5 42.5q-42 39 -63.5 94t-21.5 127q0 63 21.5 120t60.5 96q63 63 150 63q45 0 81.5 -15.5t65.5 -44.5q45 -42 65.5 -103t20.5 -124z" />
    <glyph glyph-name="P" unicode="P" horiz-adv-x="565" 
d="M523 430q0 60 -23 104.5t-68 72.5q-42 26 -100.5 36.5t-143.5 10.5h-74q1 -94 1.5 -170t0.5 -130v-145t-1 -101t-1 -67v-41h80l-1 207q49 0 88 3.5t73 12.5q76 21 123 78q46 58 46 129zM439 430q0 -52 -24 -86.5t-70 -54.5q-26 -12 -63 -16t-70 -4h-19v16q0 14 -1 39v86
v46q0 27 1 61t1 52v22h18q37 0 71 -3.5t63 -15.5q48 -21 70.5 -56t22.5 -86z" />
    <glyph glyph-name="Q" unicode="Q" horiz-adv-x="756" 
d="M376 -19q45 0 92 14.5t95 52.5q61 49 96 126q34 77 34 153q0 75 -24.5 141t-72.5 115q-42 42 -98 65.5t-122 23.5q-64 0 -123 -25t-101 -71q-46 -51 -69 -112t-23 -136q0 -85 29 -152.5t77 -112.5q42 -39 96 -60.5t114 -21.5zM609 319q0 -63 -23 -121.5t-65 -97.5
q-36 -33 -76 -43t-69 -10q-43 0 -81.5 16.5t-65.5 42.5q-42 39 -63.5 94t-21.5 127q0 63 21.5 120t60.5 96q63 63 150 63q45 0 81.5 -15.5t65.5 -44.5q45 -42 65.5 -103t20.5 -124zM376 208l38 -42.5l63 -70.5l83 -91.5l98 -106.5l47 43l-90.5 101.5l-80.5 94.5l-62.5 75.5
l-35.5 43.5z" />
    <glyph glyph-name="R" unicode="R" horiz-adv-x="634" 
d="M618 39q-7 6 -86 89l-76 82l-70 80v2q19 11 39 28t41 40q43 46 43 116q0 54 -28 93.5t-77 60.5q-38 16 -78 21t-82 5h-39t-42 -1t-35 -1h-14q1 -88 1.5 -148t0.5 -93v-90q0 -126 -1 -210t-1 -113h80v50t-1 94t-1 103v79q0 29 0.5 100t1.5 163q4 0 13.5 0.5t26.5 0.5
q27 0 58 -2.5t60 -12.5q34 -13 54 -40t20 -65q0 -42 -13.5 -66t-31.5 -40q-11 -9 -24.5 -18.5t-27.5 -17t-27 -13t-22 -8.5l-1 -4l118.5 -134.5l83.5 -94.5l52 -58.5t24 -26.5z" />
    <glyph glyph-name="S" unicode="S" horiz-adv-x="504" 
d="M441 184q0 95 -98 151q-32 19 -65 35t-53 28q-39 23 -53.5 45.5t-14.5 46.5q0 27 13.5 47t33.5 31q22 13 51 19t56 6q46 0 77 -3t36 -4l-7 71q-2 0 -11.5 1t-23.5 1.5t-30.5 1t-31.5 0.5q-55 0 -100 -11.5t-76 -35.5q-31 -23 -50.5 -56t-19.5 -78t21 -80.5t72 -65.5
q29 -18 65.5 -35t59.5 -31q36 -21 51 -43.5t15 -55.5q0 -31 -15 -51t-44 -34q-23 -11 -63 -18q-41 -6 -67 -6q-43 0 -74 2.5t-38 3.5l4 -70q4 -1 38 -3q17 -1 33.5 -1.5t32.5 -0.5q115 0 189 44q40 23 63.5 60.5t23.5 88.5z" />
    <glyph glyph-name="T" unicode="T" horiz-adv-x="570" 
d="M565 584v68h-25q-21 0 -61 -1h-197q-82 0 -153.5 0.5t-122.5 0.5v-68q6 0 70.5 1t169.5 0q1 -52 1 -91v-63v-135v-87t-1 -90v-75t-1 -44h80v43q0 30 -1 75t-1 88v86v141q1 26 1 63q0 38 1 89q117 0 174.5 -0.5t65.5 -0.5z" />
    <glyph glyph-name="U" unicode="U" horiz-adv-x="755" 
d="M646 654h-80v-24t1 -57t1 -84v-105q0 -35 -0.5 -73t-0.5 -77q0 -94 -46.5 -138t-142.5 -44q-88 0 -139 46t-51 136v150q0 117 0.5 187.5t0.5 82.5h-80q0 -94 1 -155t1 -107q0 -57 -0.5 -95.5t-0.5 -67.5q0 -57 17 -100t51 -75q35 -33 84.5 -51t115.5 -18t115.5 18
t83.5 51q34 32 51 75t17 100v163q0 46 0.5 107t0.5 155z" />
    <glyph glyph-name="V" unicode="V" horiz-adv-x="663" 
d="M655 631l-67 35q-2 -3 -24 -53l-65 -147l-84.5 -189l-81.5 -180h-1l-80.5 176.5l-83.5 187.5l-64.5 148l-23.5 56l-76 -38q2 -5 26 -57.5l70 -153.5l95 -206l99 -220h65l93.5 205l98.5 213l76.5 164.5t27.5 58.5z" />
    <glyph glyph-name="W" unicode="W" horiz-adv-x="1045" 
d="M1006 639l-73 25q-1 -6 -56 -169q-26 -81 -59 -173.5l-72 -199.5h-1l-117 333q-58 172 -59 179h-76q-1 -4 -15.5 -45.5l-42.5 -120.5l-60.5 -165l-70.5 -181h-1l-67.5 195l-59.5 175q-56 166 -57 172l-80 -31l88.5 -244.5t68.5 -200.5l45 -136.5t18 -54.5h69q2 5 18 49
l46 126l132 345h1l74.5 -200l57.5 -165q52 -148 53 -155h68q2 5 20.5 58.5l53.5 158.5l73.5 210.5z" />
    <glyph glyph-name="X" unicode="X" horiz-adv-x="614" 
d="M591 42l-78 96l-76.5 95.5l-82.5 103.5v1l60 74.5l77 96.5l66 82.5t25 31.5l-58 43q-5 -6 -75 -96l-69 -88.5l-68 -88.5h-1l-77 99.5l-66 85.5q-60 78 -67 88l-64 -48l25 -31.5l61 -77.5l138 -177v-1l-180 -222q-56 -69 -58 -71l59 -49q2 3 20 26l52 68l72 92.5l80 101.5
h1l156.5 -205l63.5 -84z" />
    <glyph glyph-name="Y" unicode="Y" horiz-adv-x="579" 
d="M574 622l-57 43q-2 -2 -22 -28l-58 -75l-73.5 -95.5l-70.5 -91.5h-1l-70.5 93l-70.5 94l-54 73.5t-23 29.5l-64 -49q4 -4 27 -33.5l67 -86.5l81.5 -103l66.5 -87v-84t-1 -94t-1 -82v-46h80q0 14 -0.5 45.5t-1.5 80.5q-2 97 0 186l66 83l83 105l71 89.5t26 32.5z" />
    <glyph glyph-name="Z" unicode="Z" horiz-adv-x="597" 
d="M573 1v72h-23t-59 -1t-84 -1h-98q-54 0 -96 0.5t-73 0.5v1l146.5 187l125.5 158l94.5 118.5l52.5 65.5l-24 50h-25t-57 -1h-175q-67 0 -123.5 0.5t-95.5 0.5v-68h25q21 0 56 1q36 1 77 1h88h61t82 -1v-1l-115.5 -150l-116.5 -149l-106 -132l-82 -101l22 -51h82q38 1 84 1
h101q51 0 111 -0.5t145 -0.5z" />
    <glyph glyph-name="bracketleft" unicode="[" horiz-adv-x="415" 
d="M380 -197v57h-213v57t-0.5 78.5t-0.5 104.5v134v165q0 94 1 215h213v58h-283q1 -60 1 -120v-123q1 -62 1 -112v-88q0 -201 -1 -305t-1 -121h283z" />
    <glyph glyph-name="backslash" unicode="\" horiz-adv-x="333" 
d="M354 -187l-18 48.5l-37 101.5l-49.5 136.5l-56.5 156.5l-35.5 96.5l-40.5 111.5q-44 118 -75 213l-63 -23l36.5 -94.5l42.5 -115.5l42.5 -114.5l33.5 -91.5l57 -158l49 -140l36 -103l16 -46z" />
    <glyph glyph-name="bracketright" unicode="]" horiz-adv-x="415" 
d="M318 -197v46t-1 107t-1 136v137v198q1 63 1 124t1 121h-283v-58h213q1 -51 1 -103v-105q1 -54 1 -97v-75q0 -129 -1 -225.5t-1 -148.5h-213v-57h283z" />
    <glyph glyph-name="asciicircum" unicode="^" horiz-adv-x="690" 
d="M562 229l-193 397h-49l-191 -397l51 -27l164 349h2l165 -349z" />
    <glyph glyph-name="underscore" unicode="_" horiz-adv-x="500" 
d="M500 -131v54h-500v-54h500z" />
    <glyph glyph-name="grave" unicode="`" horiz-adv-x="391" 
d="M274 598l-210 123l-35 -55l215 -114z" />
    <glyph glyph-name="a" unicode="a" horiz-adv-x="514" 
d="M429 278q0 36 -3.5 62.5t-11 46.5t-18 35t-23.5 27q-30 27 -75.5 39t-102.5 12q-38 0 -59.5 -1t-29.5 -2l-7 -65q26 2 41.5 3t37.5 1q69 0 109 -17q61 -24 67 -99q-69 -6 -121.5 -16.5t-84.5 -23.5q-51 -21 -79.5 -55t-28.5 -80q0 -45 24 -75.5t63 -48.5
q30 -14 70.5 -21.5t80.5 -7.5q64 0 104.5 3.5t45.5 3.5v24q0 22 0.5 58.5t0.5 86.5v110zM354 161v-110q-16 -1 -30 -1.5t-24 -0.5q-32 0 -61.5 4t-52.5 12q-32 11 -50 31t-18 53q0 31 21.5 51.5t48.5 30.5q37 13 90 21q54 8 76 9v-100z" />
    <glyph glyph-name="b" unicode="b" horiz-adv-x="554" 
d="M511 251q0 57 -21.5 101.5t-63.5 74.5q-40 29 -100.5 46t-160.5 18l2 225h-78q1 -87 1.5 -169t0.5 -170v-135q0 -62 -0.5 -111.5t-1 -85t-0.5 -53.5h44q78 0 133 8.5t100 26.5q67 29 106 86t39 138zM433 249q0 -113 -93 -162q-32 -17 -76 -25t-98 -8v34t-1 34v115v111v78
h24q69 0 124 -20q54 -18 87 -57.5t33 -99.5z" />
    <glyph glyph-name="c" unicode="c" horiz-adv-x="454" 
d="M415 63h-31q-48 0 -91 7.5t-77 24.5q-45 21 -71 59.5t-26 95.5q0 48 28.5 90t76.5 62q36 15 74.5 21.5t92.5 6.5h15l-4 66h-20q-66 0 -126.5 -15t-105.5 -43q-48 -32 -78.5 -81t-30.5 -107q0 -66 33 -119t93 -86q43 -23 97.5 -35t117.5 -12h27z" />
    <glyph glyph-name="d" unicode="d" horiz-adv-x="554" 
d="M465 -8q-1 60 -1.5 143.5t-0.5 186.5v129q0 64 1 128t1 98v39h-77l1 -225q-52 0 -105.5 -10t-95.5 -30q-70 -32 -108 -89t-38 -132q0 -63 33.5 -115t99.5 -83q51 -25 102 -32q26 -4 62 -6t82 -2h44zM389 335q0 -141 -0.5 -209t-0.5 -72h-13q-46 0 -88 9t-76 27
q-39 20 -64.5 56t-25.5 87q0 57 26.5 98.5t75.5 63.5q31 14 74 22.5t92 8.5v-91z" />
    <glyph glyph-name="e" unicode="e" horiz-adv-x="510" 
d="M470 265q0 64 -15.5 109.5t-43.5 77.5q-53 55 -142 55q-46 0 -88.5 -18t-71.5 -51q-33 -39 -50 -83.5t-17 -101.5t22.5 -103t54.5 -76q37 -35 94.5 -55.5t136.5 -20.5q29 0 51 1t26 2l9 65q-5 -1 -28.5 -2t-51.5 -1q-51 0 -87 9t-64 27q-45 28 -66 71t-22 95h353z
M395 320h-272q14 60 50.5 94.5t91.5 34.5t88.5 -34.5t41.5 -94.5z" />
    <glyph glyph-name="f" unicode="f" horiz-adv-x="367" 
d="M372 654l-9 62h-27q-60 0 -100 -16t-64 -41q-28 -30 -39.5 -64t-11.5 -77v-24h-96v-57h96v-160q0 -74 -1 -140q-1 -65 -1 -99v-38h77v39q0 36 -1 104v294h166v57h-166v22q0 33 8.5 59.5t24.5 41.5q21 20 47.5 28.5t72.5 8.5h24z" />
    <glyph glyph-name="g" unicode="g" horiz-adv-x="551" 
d="M463 499h-56q-75 0 -128 -9t-98 -31q-63 -30 -101 -82t-38 -121t27 -115t70 -75q45 -30 106 -44t119 -14h23q-1 -51 -23.5 -86.5t-79.5 -56.5q-37 -14 -82.5 -19t-102.5 -6l8 -62q85 0 144.5 12.5t101.5 33.5q52 29 80.5 76t28.5 131q0 45 -0.5 100t-0.5 107v80t1 84
t1 67v30zM388 239v-63t-0.5 -52.5t-0.5 -37.5v-17h-18q-45 0 -83.5 9t-68.5 23q-45 21 -70.5 59t-25.5 92q0 52 25.5 93.5t76.5 63.5q38 16 72 22t79 6h13q1 -58 1 -111v-87z" />
    <glyph glyph-name="h" unicode="h" horiz-adv-x="581" 
d="M495 0q-1 11 -1 30q0 20 -1 49t-1 54v48q0 28 1 72t1 107q0 69 -38 108t-101 39q-31 0 -75.5 -15t-114.5 -54l2 278h-78q2 -112 2 -198v-143v-99t-1 -123v-105t-1 -48h78l-2 375q48 29 91.5 46t71.5 17q49 0 69 -24t21 -81q1 -11 1 -30v-43v-75v-36q0 -24 -1 -61v-59
q0 -21 -1 -29h78z" />
    <glyph glyph-name="i" unicode="i" horiz-adv-x="266" 
d="M176 589v84h-86v-84h86zM172 0q0 1 -0.5 19.5t-1 51.5t-1 79t-0.5 103q0 48 1 109.5t2 131.5h-77q1 -81 1.5 -141t0.5 -111v-65t-1 -81t-1 -69v-27h77z" />
    <glyph glyph-name="j" unicode="j" horiz-adv-x="270" 
d="M187 589v84h-86v-84h86zM182 3q0 55 -0.5 122.5t-0.5 128.5v164q1 35 1 53v23h-77v-47q0 -44 1 -132t1 -162v-135q0 -54 -10 -84.5t-32 -50.5q-20 -18 -54.5 -29t-82.5 -16l16 -60q69 7 110.5 24.5t69.5 42.5q31 30 44.5 71t13.5 87z" />
    <glyph glyph-name="k" unicode="k" horiz-adv-x="525" 
d="M167 0v45q0 42 -1 123t-1 133v78v136q0 57 0.5 107t1.5 94h-78q2 -109 2 -193v-139v-128q0 -62 -1 -124v-95q0 -32 -1 -37h78zM516 10l-166 175l-53 56.5l-18 18.5v1l27.5 27l51.5 50l62.5 61.5l59.5 57.5l-47 49l-147 -153l-71.5 -72.5l-30.5 -30.5v-1q4 -5 27 -27
l66 -64l91 -88.5l102 -102.5z" />
    <glyph glyph-name="l" unicode="l" horiz-adv-x="267" 
d="M172 0v31t-1 85t-1 120v139v167q1 50 1 93t1 81h-77q1 -112 1.5 -200t0.5 -146v-102q0 -56 -1 -125t-1 -105v-38h77z" />
    <glyph glyph-name="m" unicode="m" horiz-adv-x="876" 
d="M790 0q0 2 -0.5 18t-1 42.5t-1 62t-0.5 76.5q0 40 1 75.5t1 86.5q0 67 -38 106.5t-105 39.5q-34 0 -80.5 -18t-103.5 -53h-1q-14 31 -46 51t-80 20q-37 0 -88 -23q-25 -11 -45 -23t-36 -23h-1l1 56h-77q2 -87 2 -155v-107q0 -61 -0.5 -104.5t-0.5 -71.5q0 -27 -0.5 -40.5
t-0.5 -15.5h78q0 2 -0.5 23.5l-1.5 62.5t-1 76v64v88q1 27 1 42v20q48 30 84.5 46t63.5 16q30 0 46 -8t26 -23q10 -13 13 -33t4 -41v-73q1 -25 1 -44v-30v-69q0 -31 -1 -58t-1 -42v-17h77q0 3 -0.5 18.5t-0.5 41.5t-0.5 60.5t-0.5 75.5q0 37 0.5 78t0.5 80q0 12 -0.5 19.5
t-0.5 9.5q91 55 147 55q45 0 67 -22.5t23 -81.5q1 -13 1 -32v-43v-72v-58q0 -29 -1 -61q0 -65 -1 -68h78z" />
    <glyph glyph-name="n" unicode="n" horiz-adv-x="581" 
d="M495 0q0 2 -0.5 19l-1.5 51t-1 61v50q0 28 1 72t1 107q0 69 -38 108t-101 39q-30 0 -75 -15.5t-114 -54.5l-1 1l1 56h-77q2 -78 2 -147v-119q0 -112 -1 -168.5t-1 -59.5h78q0 2 -0.5 23l-1.5 61t-1 74v63v96q1 26 1 41v17q45 27 89 45t74 18q49 0 69 -24t21 -81
q1 -11 1 -30v-43v-75v-33t-1 -62v-61q0 -22 -1 -29h78z" />
    <glyph glyph-name="o" unicode="o" horiz-adv-x="569" 
d="M523 247q0 116 -73 192q-65 68 -165 68q-49 0 -92.5 -18.5t-75.5 -52.5q-72 -75 -72 -188q0 -58 20.5 -110.5t57.5 -87.5q66 -63 161 -63q51 0 90 16.5t71 46.5q38 37 58 88.5t20 108.5zM445 244q0 -45 -14.5 -84.5t-42.5 -68.5q-42 -42 -104 -42q-58 0 -96 35
q-34 31 -49 72t-15 92q0 45 14.5 85.5t40.5 66.5q22 23 47 34t59 11q28 0 54 -10t45 -29q32 -30 46.5 -73t14.5 -89z" />
    <glyph glyph-name="p" unicode="p" horiz-adv-x="555" 
d="M512 262q0 63 -27.5 111t-78.5 77q-48 28 -103 38q-58 11 -159 11h-24q-15 0 -31 -1q1 -99 1.5 -183t0.5 -148v-127t-1 -127q0 -130 -1 -135h78l-2 224q54 0 113 10.5t110 37.5q57 31 90.5 84t33.5 128zM434 260q0 -60 -26 -100.5t-75 -64.5q-30 -15 -76 -23.5t-92 -8.5
v73v72v170q1 25 1 39v20h22q99 0 165 -36q36 -21 58.5 -57t22.5 -84z" />
    <glyph glyph-name="q" unicode="q" horiz-adv-x="553" 
d="M466 -222v43t-1 110t-1 133v113v123q1 51 1 100q0 50 1 99h-49q-45 0 -81 -2.5t-64 -7.5q-57 -11 -105 -37q-58 -32 -91.5 -84.5t-33.5 -113.5q0 -81 37.5 -135.5t109.5 -84.5q37 -16 86 -24.5t115 -8.5l-2 -223h78zM391 206q0 -42 -0.5 -79.5t-0.5 -63.5h-15
q-49 0 -85.5 7t-67.5 22q-49 23 -75 63t-26 97q0 49 23.5 88.5t65.5 60.5t83.5 28.5t95.5 7.5q0 -6 1 -60t1 -171z" />
    <glyph glyph-name="r" unicode="r" horiz-adv-x="385" 
d="M375 437l-15 68q-16 -4 -38 -12t-47.5 -19t-53.5 -25t-55 -30l-1 1v74h-76q1 -36 1 -74v-80q1 -41 1 -73v-54v-97q0 -39 -1 -62t-1 -37v-17h78q0 5 -0.5 26.5l-1.5 61.5t-1 74v63v81q1 22 1 34v15q72 34 127.5 54.5t82.5 27.5z" />
    <glyph glyph-name="s" unicode="s" horiz-adv-x="407" 
d="M358 143q0 36 -18 62.5t-52 47.5q-8 5 -21 11.5l-30 14.5t-30.5 15t-23.5 13q-17 10 -29.5 24t-12.5 34q0 14 9 29t30 26q14 7 34 11t43 4q32 0 58.5 -2t29.5 -2l-5 65q-3 0 -22 1t-49 1q-33 0 -67.5 -5t-63.5 -21q-34 -17 -53.5 -46t-19.5 -65t17.5 -63.5t49.5 -47.5
q12 -7 27 -14l30 -14.5l29.5 -14.5t24.5 -14q18 -11 28 -23.5t10 -32.5q0 -45 -48 -64q-17 -8 -44 -11t-44 -3q-15 0 -30 0.5t-28.5 1.5t-22.5 2t-12 1l3 -64q2 0 10 -1t19.5 -1.5t24.5 -1.5t25 -1q49 0 90 9.5t70 28.5q29 17 46.5 45.5t17.5 64.5z" />
    <glyph glyph-name="t" unicode="t" horiz-adv-x="392" 
d="M358 61q-4 0 -16 -0.5t-21 -0.5q-72 0 -105.5 28t-33.5 92v121v75q1 26 1 41v20h175v57h-175v116h-71v-116h-86v-57h82q0 -46 -0.5 -84t-0.5 -70t-0.5 -60.5t-0.5 -55.5q0 -87 51.5 -128.5t151.5 -41.5q10 0 23.5 0.5t16.5 1.5z" />
    <glyph glyph-name="u" unicode="u" horiz-adv-x="581" 
d="M492 0q-1 61 -1 103q0 43 -1 66v111q0 57 0.5 96t0.5 63q0 25 0.5 38t0.5 17h-77v-23q0 -19 1 -55q1 -35 1 -66v-57q0 -71 -0.5 -119.5t-0.5 -53.5q-25 -19 -76 -42q-54 -23 -96 -23t-61 27t-20 85v28q0 18 -1 43v84v44q0 26 1 58t1 49v21h-78v-23q0 -18 1 -51
q1 -32 1.5 -59.5t0.5 -49.5v-32q0 -19 -1 -46t-1 -50v-43q0 -73 38.5 -113t105.5 -40q49 0 100 24q26 12 47.5 23.5t38.5 22.5v-57h75z" />
    <glyph glyph-name="v" unicode="v" horiz-adv-x="533" 
d="M505 475l-67 27l-167 -406l-172 407l-72 -33l71 -156.5l69 -154.5q69 -153 72 -159h57q1 2 19.5 44l53.5 123l70 158.5z" />
    <glyph glyph-name="w" unicode="w" horiz-adv-x="803" 
d="M776 475l-67 27l-138 -398h-1l-131 382h-61l-143 -382h-1l-134 400l-72 -32l65 -169.5l55 -149.5l38 -108t15 -45h60q1 2 13 33.5l35 93.5l46.5 125.5l48.5 127.5h1l51.5 -143.5l42.5 -121.5l28.5 -84.5t10.5 -30.5h60q1 4 57 159l58 156.5z" />
    <glyph glyph-name="x" unicode="x" horiz-adv-x="502" 
d="M471 34q-2 2 -15.5 19l-39.5 49l-56.5 70.5l-66.5 83.5v1l42.5 52l41 49l41.5 49.5l45 54.5l-55 42l-80.5 -108.5l-73.5 -94.5h-1l-80.5 105l-73.5 99l-58 -45l85.5 -107.5l82.5 -105.5v-1l-120 -147l-40.5 -48t-18.5 -20l55 -44q2 2 15 20l36 50l113 146h1l114 -150
l34.5 -47t12.5 -18z" />
    <glyph glyph-name="y" unicode="y" horiz-adv-x="535" 
d="M507 474l-67 27l-60 -144.5l-55 -131.5l-40 -95.5t-15 -34.5h-1q-2 4 -16.5 38.5l-42.5 100.5l-55.5 133.5l-53.5 135.5l-74 -32l76.5 -171.5l63.5 -145.5l44.5 -102.5t17.5 -40.5l-102 -209l68 -25q4 8 31.5 70.5l80.5 180.5l102.5 229z" />
    <glyph glyph-name="z" unicode="z" horiz-adv-x="477" 
d="M445 3v63q-3 0 -48 -1t-144 -1q-34 0 -64 0.5t-49 0.5v1l36 47.5l76 99.5l93.5 120.5l86.5 109.5l-25 46h-78h-106h-93h-79v-61h21t55 1q37 1 67 1h53q20 0 41.5 -0.5t42.5 -0.5l1 -1l-165 -213l-73 -93.5l-56 -72.5l16 -46h73h118h117h83z" />
    <glyph glyph-name="braceleft" unicode="{" horiz-adv-x="415" 
d="M397 -151q-75 0 -117 33t-42 94v99q0 67 -28.5 105.5t-79.5 50.5v2q48 11 78 49t30 108v56v43q0 61 42 93.5t117 32.5l-3 60q-94 0 -159 -47t-65 -139v-86q0 -44 -8 -68.5t-27 -41.5q-20 -16 -47 -22t-72 -12v-53q42 -5 71.5 -12t47.5 -22t26.5 -40.5t8.5 -70.5v-85
q0 -92 65 -139t159 -47z" />
    <glyph glyph-name="bar" unicode="|" horiz-adv-x="293" 
d="M175 -223v939h-56v-939h56z" />
    <glyph glyph-name="braceright" unicode="}" horiz-adv-x="415" 
d="M399 206v53q-40 5 -70 12.5t-49 21.5q-19 16 -27 40.5t-8 69.5v86q0 89 -63 137q-61 49 -161 49l-3 -60q75 0 117 -31.5t42 -94.5v-99q0 -66 29.5 -106.5t78.5 -50.5v-2q-57 -17 -82.5 -55t-25.5 -101v-57v-42q0 -63 -42 -95t-117 -32l3 -59q49 0 90.5 12t71 36t46 58.5
t16.5 79.5v85q0 43 8.5 69.5t26.5 41.5q19 15 47.5 22t71.5 12z" />
    <glyph glyph-name="asciitilde" unicode="~" horiz-adv-x="690" 
d="M598 330l-56 9q-10 -46 -33.5 -76.5t-61.5 -30.5q-18 0 -30 5t-24 14l-29.5 22.5l-31.5 23.5t-33.5 18t-47.5 8q-60 0 -101.5 -42.5t-57.5 -112.5l55 -9q26 107 95 107q16 0 29 -5t26 -14l31 -24t30 -22q17 -13 35.5 -19.5t44.5 -6.5q30 0 56 11.5t47 32t35.5 49
t21.5 62.5z" />
    <glyph glyph-name="uni007F" horiz-adv-x="0" 
 />
    <glyph glyph-name="quotesinglbase" unicode="&#x201a;" horiz-adv-x="210" 
d="M186 95l-64 29l-97 -223l54 -24z" />
    <glyph glyph-name="florin" unicode="&#x192;" horiz-adv-x="484" 
d="M512 585l-9 64q-5 0 -14.5 0.5t-16.5 0.5q-60 0 -103 -16.5t-70 -41.5q-32 -30 -47.5 -67.5t-22.5 -82.5q-2 -13 -5 -27.5t-5 -31.5q-5 -34 -6 -38l-115 1v-57h107q0 -2 -2.5 -21.5l-7.5 -56.5l-10 -73t-12 -72q-7 -40 -18.5 -69t-31.5 -46q-42 -36 -125 -36
q-7 0 -19.5 0.5t-18.5 0.5l9 -64h31q63 0 104 15.5t70 41.5q26 24 43 57t28 91q9 55 21 141q12 89 13 91h156v57l-148 -1q1 2 2 11.5t3 25.5t5 31t5 29q7 36 18.5 64t31.5 45q21 17 48.5 26t73.5 9h18q13 0 20 -1z" />
    <glyph glyph-name="quotedblbase" unicode="&#x201e;" horiz-adv-x="371" 
d="M347 95l-64 29l-97 -223l54 -24zM186 95l-64 29l-97 -223l54 -24z" />
    <glyph glyph-name="ellipsis" unicode="&#x2026;" horiz-adv-x="1000" 
d="M882 0v104h-98v-104h98zM549 0v104h-98v-104h98zM216 0v104h-98v-104h98z" />
    <glyph glyph-name="dagger" unicode="&#x2020;" horiz-adv-x="363" 
d="M219 672h-74l7 -109h59zM332 487v72l-108 -8v-57zM140 494v57l-109 8v-72zM211 0v22t-1 60t-1 79v82v98q1 26 1 60q0 35 1 80h-59q2 -70 2 -133v-110v-77t-1 -79t-1 -60v-22h59z" />
    <glyph glyph-name="daggerdbl" unicode="&#x2021;" horiz-adv-x="363" 
d="M219 672h-74l7 -109h59zM332 487v72l-108 -8v-57zM140 494v57l-109 8v-72zM210 191v11q0 10 -1 26q-1 17 -1 47v75q0 48 1 86t1 45h-57q0 -7 1 -45t1 -86q0 -42 -0.5 -71.5t-0.5 -48.5q0 -18 -0.5 -27t-0.5 -12h57zM332 113v72l-108 -7v-57zM140 121v57l-109 7v-72z
M219 0l-8 108h-59l-7 -108h74z" />
    <glyph glyph-name="circumflex" unicode="&#x2c6;" horiz-adv-x="391" 
d="M353 575l-128 141h-60l-127 -141l43 -33l114 125h1l114 -125z" />
    <glyph glyph-name="perthousand" unicode="&#x2030;" horiz-adv-x="1392" 
d="M414 459q0 42 -14.5 77t-38.5 59q-23 24 -57 38.5t-76 14.5t-77.5 -15t-58.5 -40q-24 -26 -37 -59.5t-13 -73.5q0 -84 55 -139q23 -23 57 -36.5t73 -13.5q42 0 73.5 12.5t56.5 37.5q28 26 42.5 62t14.5 76zM1350 173q0 42 -14 77t-38 59q-23 24 -57.5 38.5t-76.5 14.5
t-77 -15t-59 -40t-37 -59t-13 -74q0 -85 55 -138q24 -24 57.5 -37.5t72.5 -13.5q43 0 74 13t57 38q28 25 42 61.5t14 75.5zM923 173q0 42 -14 77t-38 59q-23 24 -57.5 38.5t-76.5 14.5t-77 -15t-58 -40q-24 -25 -37.5 -59t-13.5 -74q0 -42 14.5 -77t40.5 -61
q24 -24 57.5 -37.5t72.5 -13.5q43 0 74 13t57 38q28 25 42 61.5t14 75.5zM344 455q0 -32 -10 -56t-29 -44q-14 -13 -35.5 -21t-42.5 -8q-46 0 -77 29q-21 20 -30.5 46.5t-9.5 57.5q0 29 10.5 57t27.5 44q31 31 80 31q47 0 79 -32q37 -36 37 -104zM1281 169q0 -62 -40 -99
q-13 -14 -34.5 -22t-43.5 -8q-21 0 -41 7.5t-35 22.5q-40 39 -40 103q0 29 10.5 57t26.5 44q33 31 80 31q50 0 79 -32q20 -18 29 -44.5t9 -59.5zM854 169q0 -62 -40 -99q-13 -14 -34.5 -22t-43.5 -8q-21 0 -41 7.5t-35 22.5q-40 39 -40 103q0 29 10.5 57t27.5 44
q31 31 79 31q50 0 79 -32q20 -18 29 -44.5t9 -59.5zM722 626l-50 35l-54.5 -87l-60.5 -94l-58.5 -90.5l-51.5 -79.5l-75.5 -116l-67.5 -104l-50 -76.5t-23 -34.5l50 -35l22.5 36l48.5 79l67 106l75 116l52.5 79.5l58.5 90.5l61 91.5z" />
    <glyph glyph-name="guilsinglleft" unicode="&#x2039;" horiz-adv-x="332" 
d="M283 95l-170 171l170 170l-38 38l-202 -207v-3l202 -207z" />
    <glyph glyph-name="OE" unicode="&#x152;" horiz-adv-x="991" 
d="M916 1v68q-6 0 -52 -0.5t-121 -0.5h-89q-40 0 -69 1q-1 36 -1.5 90.5t-0.5 146.5q22 0 50 0.5t51 0.5h83t70 -1t50 -1h23v68h-25t-54 -1h-152h-96q0 49 1 103.5t1 109.5q21 0 56 0.5t72 0.5q85 0 138 -1t59 -1v68h-17t-30 -1h-130h-63t-61 1q-29 1 -49 1h-27
q-116 0 -195.5 -18t-138.5 -56q-66 -42 -103 -107t-37 -149q0 -81 38 -146t113 -110q57 -33 130 -50t158 -17h21q22 0 67 1t80 1h64q93 0 136 -0.5t50 -0.5zM507 381v-100t-1 -216q-76 0 -134 13t-106 40q-60 35 -91.5 89t-31.5 117t27 116t84 90q46 31 105 44.5t131 13.5
h16q1 -64 1 -120v-87z" />
    <glyph glyph-name="quoteleft" unicode="&#x2018;" horiz-adv-x="210" 
d="M156 474l-97 223l-64 -29l107 -218z" />
    <glyph glyph-name="quoteright" unicode="&#x2019;" horiz-adv-x="210" 
d="M215 668l-64 29l-97 -223l54 -24z" />
    <glyph glyph-name="quotedblleft" unicode="&#x201c;" horiz-adv-x="371" 
d="M317 474l-97 223l-64 -29l107 -218zM156 474l-97 223l-64 -29l107 -218z" />
    <glyph glyph-name="quotedblright" unicode="&#x201d;" horiz-adv-x="371" 
d="M376 668l-63 29l-98 -223l55 -24zM215 668l-64 29l-97 -223l54 -24z" />
    <glyph glyph-name="bullet" unicode="&#x2022;" horiz-adv-x="556" 
d="M423 247q0 60 -43 102q-42 42 -101 42t-102 -43q-43 -42 -43 -101t42 -102t102 -43q59 0 102 43t43 102z" />
    <glyph glyph-name="endash" unicode="&#x2013;" horiz-adv-x="500" 
d="M500 250v59h-500v-59h500z" />
    <glyph glyph-name="emdash" unicode="&#x2014;" horiz-adv-x="1000" 
d="M880 250v59h-760v-59h760z" />
    <glyph glyph-name="tilde" unicode="&#x2dc;" horiz-adv-x="391" 
d="M359 693l-49 10q-7 -30 -20 -48.5t-31 -18.5q-19 0 -30 10q-7 5 -16.5 12.5l-17.5 13.5q-25 19 -54 19q-42 0 -70.5 -29.5t-38.5 -80.5l49 -10q8 32 20.5 50t30.5 18t31 -11q11 -8 17.5 -13.5l15.5 -12.5q11 -8 23.5 -13.5t29.5 -5.5q42 0 70.5 28t39.5 82z" />
    <glyph glyph-name="trademark" unicode="&#x2122;" horiz-adv-x="593" 
d="M250 617v37h-238v-37q4 0 30 0.5t71 0.5v-100q0 -51 -0.5 -80.5t-0.5 -33.5h43q0 4 -0.5 34.5t-0.5 78.5q0 19 0.5 42.5t0.5 58.5q45 0 68.5 -0.5t26.5 -0.5zM589 407l-26.5 124l-15.5 72t-7 36t-3 15l-37 3q-2 -3 -8.5 -17.5l-18.5 -40.5l-54 -117h-2l-60 126.5
t-23 48.5l-37 -6q-1 -2 -5.5 -22.5t-13.5 -58.5l-18.5 -78.5l-20.5 -84.5l41 -7q14 76 23.5 120t16.5 69h3l30.5 -64.5l46.5 -100.5h30q29 66 47.5 104l29.5 61h3l37 -189z" />
    <glyph glyph-name="guilsinglright" unicode="&#x203a;" horiz-adv-x="332" 
d="M289 264v3l-202 207l-38 -38l170 -170l-170 -171l38 -38z" />
    <glyph glyph-name="oe" unicode="&#x153;" horiz-adv-x="900" 
d="M861 265q0 126 -58 187q-52 55 -141 55q-58 0 -110 -30q-51 -29 -74 -77h-2q-31 51 -81 79t-113 28q-48 0 -90.5 -18.5t-75.5 -52.5q-71 -77 -71 -189q0 -60 20.5 -111t58.5 -87q32 -30 71 -46t87 -16q67 0 120 32.5t82 89.5h1q81 -111 261 -111q25 0 43 1t24 2l9 65
q-5 -1 -27 -2t-43 -1q-98 0 -152 35q-45 28 -65 70.5t-21 96.5h347zM786 320h-270q14 60 50.5 94.5t91.5 34.5q57 0 88 -33t40 -96zM443 242q0 -45 -15.5 -85.5t-41.5 -67.5q-20 -21 -46.5 -30.5t-57.5 -9.5q-55 0 -94 35q-35 31 -49.5 71.5t-14.5 91.5q0 42 14 83.5
t41 69.5q22 23 46 34t57 11q29 0 55 -10.5t45 -28.5q32 -31 46.5 -73.5t14.5 -90.5z" />
    <glyph glyph-name="Ydieresis" unicode="&#x178;" horiz-adv-x="579" 
d="M574 622l-57 43q-2 -2 -22 -28l-58 -75l-73.5 -95.5l-70.5 -91.5h-1l-70.5 93l-70.5 94l-54 73.5t-23 29.5l-64 -49q4 -4 27 -33.5l67 -86.5l81.5 -103l66.5 -87v-84t-1 -94t-1 -82v-46h80q0 14 -0.5 45.5t-1.5 80.5q-2 97 0 186l66 83l83 105l71 89.5t26 32.5zM452 713
v90h-93v-90h93zM227 713v90h-93v-90h93z" />
    <glyph glyph-name="nonbreakingspace" unicode="&#xa0;" horiz-adv-x="125" 
 />
    <glyph glyph-name="exclamdown" unicode="&#xa1;" horiz-adv-x="464" 
d="M274 556v98h-94v-98h94zM269 0q-3 250 -6 335q-1 43 -1.5 69t-0.5 35h-68q-2 -18 -3 -105q-1 -44 -2 -126.5t-3 -207.5h84z" />
    <glyph glyph-name="cent" unicode="&#xa2;" horiz-adv-x="458" 
d="M432 -178q0 15 -0.5 37t-0.5 53v87q1 28 1 42v17h-31q-48 0 -94.5 8.5t-83.5 29.5q-38 22 -62 59t-24 91q0 52 27.5 92t69.5 60q72 34 188 34q0 3 -1 37.5t-1 82.5q0 21 0.5 50.5t1.5 61.5h-62l2 -171q-66 -4 -120 -22t-93 -48q-40 -31 -64.5 -77.5t-24.5 -101.5
q0 -49 18.5 -90t46.5 -68q45 -45 106.5 -65.5t140.5 -26.5l-2 -172h62z" />
    <glyph glyph-name="sterling" unicode="&#xa3;" horiz-adv-x="484" 
d="M500 1v65h-20q-17 0 -50 -1t-71 -1h-82h-85l32 225h171v57l-163 -1q1 4 4.5 27t11.5 71q6 35 17.5 63.5t30.5 44.5q21 17 49 26t74 9h19t20 -1l-10 64q-5 0 -14.5 0.5t-16.5 0.5q-60 0 -103 -16.5t-69 -41.5q-30 -27 -46 -63.5t-23 -75.5q-2 -14 -5 -30t-6 -35
q-6 -38 -6 -43l-101 1v-57h92l-31 -224h-59v-64q57 0 120 0.5t114 0.5h80q38 0 65 -0.5t43 -0.5h18z" />
    <glyph glyph-name="currency" unicode="&#xa4;" 
d="M530 506l-38 36l-92 -92q-25 19 -50.5 26.5t-57.5 7.5q-58 0 -105 -35l-92 93l-38 -35l94 -94q-35 -49 -35 -105q0 -57 35 -106l-94 -93l38 -35l92 92q47 -35 105 -35q34 0 58 8t51 27l91 -92l38 36l-93 93q16 22 25 49t9 56q0 57 -33 107zM420 309q0 -53 -37 -90
q-38 -38 -90 -38q-51 0 -89 38q-37 37 -37 90q0 51 37 88q38 38 89 38q52 0 90 -38q37 -37 37 -88z" />
    <glyph glyph-name="yen" unicode="&#xa5;" horiz-adv-x="579" 
d="M551 591l-54 41l-25.5 -34l-51.5 -71l-63.5 -88l-63.5 -85h-1l-70.5 98l-61.5 86l-44.5 64l-21.5 30l-61 -47l222 -293v-45l-176 1v-53l176 1v-56q0 -29 -1 -63t-1 -53v-24h74v24t-1 53t-1 63v56l176 -1v53l-176 -1v51z" />
    <glyph glyph-name="section" unicode="&#xa7;" horiz-adv-x="454" 
d="M406 244q0 42 -19 69.5t-61 48.5q-38 21 -64 32l-28 13l-32 15q-31 16 -46.5 33.5t-15.5 40.5q0 19 11 36t37 31q16 9 46.5 16.5t65.5 10.5q48 3 69 3h25l-5 61q-3 0 -25 -1t-53 -3q-42 -3 -85 -11.5t-76 -27.5q-37 -21 -60.5 -52t-23.5 -73q0 -34 19 -62.5t50 -47.5
l12 -7t15 -8v-1q-52 -25 -82.5 -63t-30.5 -83q0 -37 17 -64t62 -54q12 -7 28 -15l33 -16l33.5 -15.5l29.5 -13.5q31 -16 47 -34t16 -41q0 -19 -10.5 -34.5t-38.5 -32.5q-14 -8 -46 -16t-66 -10q-46 -3 -68.5 -3.5t-24.5 -0.5l5 -61q3 0 19.5 1t58.5 3q43 3 84.5 12t76.5 28
q39 21 61.5 53t22.5 72q0 34 -19 62.5t-51 47.5q-4 2 -11.5 6.5t-14.5 7.5v1q51 26 82 64t31 83zM333 230q0 -26 -10.5 -44t-36.5 -37q-15 -10 -26 -16.5t-23 -11.5q-9 4 -21.5 10.5t-22.5 10.5q-40 21 -55.5 39.5t-15.5 46.5q0 30 13.5 48t33.5 33q12 8 26 16t23 11
q8 -3 20.5 -9.5l22.5 -11.5q45 -22 58.5 -41.5t13.5 -43.5z" />
    <glyph glyph-name="dieresis" unicode="&#xa8;" horiz-adv-x="391" 
d="M342 589v83h-83v-83h83zM131 589v83h-83v-83h83z" />
    <glyph glyph-name="copyright" unicode="&#xa9;" horiz-adv-x="941" 
d="M849 240q0 157 -113 270t-269 113q-155 0 -270 -113q-114 -113 -114 -270t113 -270t271 -113q156 0 269 113t113 270zM818 240q0 -145 -104 -249t-247 -104q-145 0 -249 104q-103 103 -103 249q0 145 103 248q104 104 249 104q143 0 247 -104t104 -248zM594 83
q-3 0 -13 -0.5t-17 -0.5q-42 0 -80 6.5t-66 19.5q-37 19 -59.5 52t-22.5 82q0 42 24.5 77.5t64.5 52.5q36 16 67 19q14 2 33.5 3t44.5 1h16l-3 64q-3 0 -9 0.5t-12 0.5q-55 0 -110.5 -12.5t-93.5 -37.5q-43 -28 -70 -71.5t-27 -97.5q0 -58 29 -105.5t83 -76.5
q75 -41 189 -41q5 0 14.5 0.5t12.5 0.5z" />
    <glyph glyph-name="ordfeminine" unicode="&#xaa;" horiz-adv-x="410" 
d="M336 440q0 45 -10.5 69t-29.5 41q-21 17 -54.5 24.5t-75.5 7.5q-25 0 -42 -0.5t-22 -0.5l-7 -53q22 1 34 2t25 1q27 0 46.5 -2.5t31.5 -6.5q38 -12 43 -56q-43 -2 -80.5 -6.5t-62.5 -14.5q-34 -13 -55.5 -34t-21.5 -54q0 -31 18 -51t45 -31q22 -8 51.5 -13t58.5 -5
q45 0 73 2t35 3v178zM346 98v48h-282v-48h282zM276 365q0 -23 -0.5 -38t-0.5 -22q-9 -1 -18 -1h-14q-16 0 -37 1t-44 7q-18 5 -30.5 16.5t-12.5 31.5q0 15 15 27.5t29 17.5q30 11 62 11.5t50 1.5q1 -17 1 -30v-23z" />
    <glyph glyph-name="guillemotleft" unicode="&#xab;" horiz-adv-x="512" 
d="M283 95l-170 171l170 170l-38 38l-202 -207v-3l202 -207zM463 95l-170 171l170 170l-38 38l-202 -207v-3l202 -207z" />
    <glyph glyph-name="logicalnot" unicode="&#xac;" horiz-adv-x="690" 
d="M564 8v278h-447v-53h389v-225h58z" />
    <glyph glyph-name="registered" unicode="&#xae;" horiz-adv-x="941" 
d="M849 240q0 157 -113 270t-269 113q-155 0 -270 -113q-114 -113 -114 -270t113 -270t271 -113q156 0 269 113t113 270zM818 240q0 -145 -104 -249t-247 -104q-145 0 -249 104q-103 103 -103 249q0 145 103 248q104 104 249 104q143 0 247 -104t104 -248zM694 61l-15 14.5
l-37 35.5q-47 46 -96 102v5q39 25 57 53.5t18 61.5q0 37 -20 63t-54 41q-23 10 -51.5 13.5t-54.5 3.5h-26q-15 0 -36 -1h-44q1 -51 1 -88v-61q1 -24 1 -41v-26v-65q0 -32 -1 -67q-1 -34 -1 -53v-22h69v24t-1 59v126v63v48t1 46q3 0 14 0.5t17 0.5q20 0 38 -2t34 -8
q20 -8 32 -22.5t12 -34.5q0 -26 -7.5 -38.5t-19.5 -23.5q-13 -12 -33 -21.5t-35 -13.5v-10l70 -79l60 -65q55 -59 59 -62z" />
    <glyph glyph-name="macron" unicode="&#xaf;" horiz-adv-x="391" 
d="M355 605v55h-18q-15 0 -44 -1h-99h-95q-28 1 -44 1h-19v-55h63h98h96h62z" />
    <glyph glyph-name="macron" unicode="&#x2c9;" horiz-adv-x="391" 
d="M355 605v55h-18q-15 0 -44 -1h-99h-95q-28 1 -44 1h-19v-55h63h98h96h62z" />
    <glyph glyph-name="degree" unicode="&#xb0;" horiz-adv-x="408" 
d="M355 497q0 62 -45 106q-44 45 -106 45q-60 0 -106 -44q-45 -44 -45 -107q0 -64 43 -107q44 -44 107 -44t107 44q45 43 45 107zM303 498q0 -21 -7.5 -39t-20.5 -32t-31 -22t-39 -8t-39 8t-31.5 21.5t-21.5 32t-8 39.5q0 42 29 70.5t71 28.5t70 -28.5t28 -70.5z" />
    <glyph glyph-name="plusminus" unicode="&#xb1;" horiz-adv-x="690" 
d="M569 56v53h-198v178h198v53h-198v187h-53v-187h-196v-53h196v-178h-196v-53h447z" />
    <glyph glyph-name="acute" unicode="&#xb4;" horiz-adv-x="391" 
d="M361 666l-34 55l-209 -123l29 -46z" />
    <glyph glyph-name="mu" unicode="&#xb5;" horiz-adv-x="609" 
d="M606 61q-65 0 -90 20q-23 21 -23 89v72v68v97t1 51t1 23v13h-78v-23q0 -19 1 -55q1 -35 1.5 -66t0.5 -57v-113v-60q-24 -27 -55.5 -41.5t-70.5 -14.5t-72.5 16t-56.5 34v112t1 126t1 102v40h-78q0 -9 1 -92.5t1 -243.5q0 -99 -0.5 -199t-1.5 -181h78v37q0 31 -1 88t-1 93
v51q36 -28 67.5 -39t63.5 -11q40 0 73 16t66 52h1q13 -20 28 -33t34 -20.5t43.5 -10.5t57.5 -3z" />
    <glyph glyph-name="mu" unicode="&#x3bc;" horiz-adv-x="609" 
d="M606 61q-65 0 -90 20q-23 21 -23 89v72v68v97t1 51t1 23v13h-78v-23q0 -19 1 -55q1 -35 1.5 -66t0.5 -57v-113v-60q-24 -27 -55.5 -41.5t-70.5 -14.5t-72.5 16t-56.5 34v112t1 126t1 102v40h-78q0 -9 1 -92.5t1 -243.5q0 -99 -0.5 -199t-1.5 -181h78v37q0 31 -1 88t-1 93
v51q36 -28 67.5 -39t63.5 -11q40 0 73 16t66 52h1q13 -20 28 -33t34 -20.5t43.5 -10.5t57.5 -3z" />
    <glyph glyph-name="paragraph" unicode="&#xb6;" horiz-adv-x="555" 
d="M476 -222v57q0 51 -1 151t-1 183v154q0 75 0.5 154.5t1.5 176.5h-50q-91 0 -151 -12t-105 -38q-54 -32 -84.5 -80t-30.5 -106q0 -72 35 -125t99 -86q46 -25 103.5 -36t114.5 -11l-2 -382h71z" />
    <glyph glyph-name="periodcentered" unicode="&#xb7;" horiz-adv-x="260" 
d="M179 196v104h-98v-104h98z" />
    <glyph glyph-name="cedilla" unicode="&#xb8;" horiz-adv-x="391" 
d="M309 12h-58v-11q0 -39 -8 -55t-21 -29q-11 -11 -34.5 -19.5t-60.5 -10.5l9 -53q32 2 60 11t43 18q37 20 53.5 58.5t16.5 90.5z" />
    <glyph glyph-name="ordmasculine" unicode="&#xba;" horiz-adv-x="410" 
d="M375 420q0 37 -12.5 68t-39.5 55q-46 43 -117 43q-37 0 -67 -11.5t-53 -32.5q-50 -50 -50 -121q0 -38 14 -71t41 -56q22 -19 51.5 -29.5t62.5 -10.5t61 9.5t53 30.5q26 23 41 57t15 69zM346 98v48h-282v-48h282zM311 418q0 -52 -38 -87q-12 -12 -30.5 -19t-37.5 -7
q-17 0 -34 5t-29 16q-42 34 -42 95q0 24 9 48.5t27 40.5q29 26 70 26q39 0 65 -23q21 -18 30.5 -42.5t9.5 -52.5z" />
    <glyph glyph-name="guillemotright" unicode="&#xbb;" horiz-adv-x="512" 
d="M469 264v3l-202 207l-38 -38l169 -170l-169 -171l38 -38zM289 264v3l-203 207l-38 -38l170 -170l-170 -171l38 -38z" />
    <glyph glyph-name="questiondown" unicode="&#xbf;" horiz-adv-x="558" 
d="M371 556v98h-94v-98h94zM404 65h-44t-35 1t-31 3t-33 6q-45 10 -71.5 35t-26.5 71q0 34 20 62.5t49 48.5q27 19 65 37l68 31v132h-73l1 -93q-11 -7 -27 -16l-37 -20t-39.5 -22.5t-34.5 -24.5q-40 -33 -56.5 -67.5t-16.5 -72.5q0 -105 103 -152q34 -16 74.5 -22.5
t83.5 -6.5h52z" />
    <glyph glyph-name="Agrave" unicode="&#xc0;" horiz-adv-x="663" 
d="M657 26q-2 4 -26 57l-72 156l-95.5 208.5l-96.5 215.5h-63l-97.5 -214l-93.5 -204l-72 -155t-33 -68l65 -35l31 69l79 177h292l75 -174l22 -52t9 -20zM447 295h-237l26 57l32 71l32 73l28 60h2l61.5 -136.5zM421 750l-231 100l-28 -58l234 -91z" />
    <glyph glyph-name="Aacute" unicode="&#xc1;" horiz-adv-x="663" 
d="M657 26q-2 4 -26 57l-72 156l-95.5 208.5l-96.5 215.5h-63l-97.5 -214l-93.5 -204l-72 -155t-33 -68l65 -35l31 69l79 177h292l75 -174l22 -52t9 -20zM447 295h-237l26 57l32 71l32 73l28 60h2l61.5 -136.5zM508 792l-28 58l-231 -100l24 -49z" />
    <glyph glyph-name="Acircumflex" unicode="&#xc2;" horiz-adv-x="663" 
d="M657 26q-2 4 -26 57l-72 156l-95.5 208.5l-96.5 215.5h-63l-97.5 -214l-93.5 -204l-72 -155t-33 -68l65 -35l31 69l79 177h292l75 -174l22 -52t9 -20zM447 295h-237l26 57l32 71l32 73l28 60h2l61.5 -136.5zM493 724l-125 115h-67l-126 -110l45 -35l114 98h1l115 -104z
" />
    <glyph glyph-name="Atilde" unicode="&#xc3;" horiz-adv-x="663" 
d="M657 26q-2 4 -26 57l-72 156l-95.5 208.5l-96.5 215.5h-63l-97.5 -214l-93.5 -204l-72 -155t-33 -68l65 -35l31 69l79 177h292l75 -174l22 -52t9 -20zM447 295h-237l26 57l32 71l32 73l28 60h2l61.5 -136.5zM522 818l-52 10q-7 -32 -21 -50.5t-33 -18.5q-20 0 -33 10
q-7 5 -17 14t-21 16q-9 7 -24 12.5t-33 5.5q-48 0 -79 -36q-30 -36 -36 -76l51 -10q8 31 21.5 50t32.5 19q20 0 33 -10q10 -7 19.5 -15.5t18.5 -14.5q7 -5 23 -11.5t33 -6.5q51 0 80 35q30 36 37 77z" />
    <glyph glyph-name="Adieresis" unicode="&#xc4;" horiz-adv-x="663" 
d="M657 26q-2 4 -26 57l-72 156l-95.5 208.5l-96.5 215.5h-63l-97.5 -214l-93.5 -204l-72 -155t-33 -68l65 -35l31 69l79 177h292l75 -174l22 -52t9 -20zM447 295h-237l26 57l32 71l32 73l28 60h2l61.5 -136.5zM494 713v90h-93v-90h93zM269 713v90h-93v-90h93z" />
    <glyph glyph-name="Aring" unicode="&#xc5;" horiz-adv-x="663" 
d="M657 26q-2 4 -26 57l-72 156l-95.5 208.5l-96.5 215.5h-63l-97.5 -214l-93.5 -204l-72 -155t-33 -68l65 -35l31 69l79 177h292l75 -174l22 -52t9 -20zM447 295h-237l26 57l32 71l32 73l28 60h2l61.5 -136.5zM438 780q0 21 -8 40t-22.5 32.5t-33 21.5t-39.5 8t-39.5 -7.5
t-33 -21t-22.5 -32.5t-8 -41t8 -41t22 -32.5t32.5 -21t39.5 -7.5q22 0 41 8t33 21.5t22 32.5t8 40zM391 780q0 -24 -15.5 -40.5t-39.5 -16.5t-40 16.5t-16 40.5q0 25 16 41t40 16t39.5 -16t15.5 -41z" />
    <glyph glyph-name="AE" unicode="&#xc6;" horiz-adv-x="663" 
d="M657 26q-2 4 -26 57l-72 156l-95.5 208.5l-96.5 215.5h-63l-97.5 -214l-93.5 -204l-72 -155t-33 -68l65 -35l31 69l79 177h292l75 -174l22 -52t9 -20zM447 295h-237l26 57l32 71l32 73l28 60h2l61.5 -136.5zM489 823l-53 18q-4 -13 -12.5 -30t-19.5 -31
q-11 -13 -28.5 -24.5t-41.5 -11.5q-26 0 -41 10t-29 27q-11 14 -19.5 31.5t-12.5 28.5l-52 -17q3 -12 12.5 -33.5t27.5 -43.5q18 -21 46 -36.5t68 -15.5q43 0 69 15t45 37q17 18 27.5 41.5t13.5 34.5z" />
    <glyph glyph-name="Ccedilla" unicode="&#xc7;" horiz-adv-x="577" 
d="M550 -9v70h-19q-55 0 -128 14q-68 13 -122 44q-66 36 -97.5 89.5t-31.5 119.5q0 63 33.5 118t94.5 90q48 27 112.5 40.5t127.5 13.5h16q-2 22 -3.5 41.5t-1.5 28.5h-22q-110 0 -203 -34q-95 -33 -151 -89q-38 -39 -62 -91.5t-24 -116.5q0 -72 25 -126t67 -94
q108 -103 327 -117q0 -38 -7 -57.5t-22 -34.5q-10 -10 -35 -19.5t-76 -11.5l8 -56h6q29 0 55 6t62 24q71 41 71 148z" />
    <glyph glyph-name="Egrave" unicode="&#xc8;" horiz-adv-x="604" 
d="M529 1v68q-6 0 -55.5 -0.5t-121.5 -0.5h-89t-70 1q0 36 -0.5 90.5t-0.5 146.5h25t29 0.5t29 0.5h27h67t73 -1t58 -1h23v68h-20t-52 -1t-73 -1h-81q-23 0 -53 0.5t-52 0.5q0 48 1 103t1 110q20 0 55.5 0.5t71.5 0.5q42 0 78 -0.5t62 -0.5q27 0 43 -0.5t19 -0.5v68
q-5 0 -63.5 -0.5t-151.5 -0.5q-57 0 -108.5 0.5t-85.5 0.5q1 -49 1 -96v-92q1 -45 1 -82v-64v-99t-1 -96v-78t-1 -44q35 0 86 0.5t114 0.5h82q38 0 68 -1h65zM442 750l-231 100l-28 -58l234 -91z" />
    <glyph glyph-name="Eacute" unicode="&#xc9;" horiz-adv-x="604" 
d="M529 1v68q-6 0 -55.5 -0.5t-121.5 -0.5h-89t-70 1q0 36 -0.5 90.5t-0.5 146.5h25t29 0.5t29 0.5h27h67t73 -1t58 -1h23v68h-20t-52 -1t-73 -1h-81q-23 0 -53 0.5t-52 0.5q0 48 1 103t1 110q20 0 55.5 0.5t71.5 0.5q42 0 78 -0.5t62 -0.5q27 0 43 -0.5t19 -0.5v68
q-5 0 -63.5 -0.5t-151.5 -0.5q-57 0 -108.5 0.5t-85.5 0.5q1 -49 1 -96v-92q1 -45 1 -82v-64v-99t-1 -96v-78t-1 -44q35 0 86 0.5t114 0.5h82q38 0 68 -1h65zM478 792l-28 58l-231 -100l24 -49z" />
    <glyph glyph-name="Ecircumflex" unicode="&#xca;" horiz-adv-x="604" 
d="M529 1v68q-6 0 -55.5 -0.5t-121.5 -0.5h-89t-70 1q0 36 -0.5 90.5t-0.5 146.5h25t29 0.5t29 0.5h27h67t73 -1t58 -1h23v68h-20t-52 -1t-73 -1h-81q-23 0 -53 0.5t-52 0.5q0 48 1 103t1 110q20 0 55.5 0.5t71.5 0.5q42 0 78 -0.5t62 -0.5q27 0 43 -0.5t19 -0.5v68
q-5 0 -63.5 -0.5t-151.5 -0.5q-57 0 -108.5 0.5t-85.5 0.5q1 -49 1 -96v-92q1 -45 1 -82v-64v-99t-1 -96v-78t-1 -44q35 0 86 0.5t114 0.5h82q38 0 68 -1h65zM480 726l-125 115h-67l-126 -110l45 -35l114 98h1l115 -104z" />
    <glyph glyph-name="Edieresis" unicode="&#xcb;" horiz-adv-x="604" 
d="M529 1v68q-6 0 -55.5 -0.5t-121.5 -0.5h-89t-70 1q0 36 -0.5 90.5t-0.5 146.5h25t29 0.5t29 0.5h27h67t73 -1t58 -1h23v68h-20t-52 -1t-73 -1h-81q-23 0 -53 0.5t-52 0.5q0 48 1 103t1 110q20 0 55.5 0.5t71.5 0.5q42 0 78 -0.5t62 -0.5q27 0 43 -0.5t19 -0.5v68
q-5 0 -63.5 -0.5t-151.5 -0.5q-57 0 -108.5 0.5t-85.5 0.5q1 -49 1 -96v-92q1 -45 1 -82v-64v-99t-1 -96v-78t-1 -44q35 0 86 0.5t114 0.5h82q38 0 68 -1h65zM483 713v90h-93v-90h93zM258 713v90h-93v-90h93z" />
    <glyph glyph-name="Igrave" unicode="&#xcc;" horiz-adv-x="310" 
d="M241 750l-211 100l-28 -58l215 -91zM195 0q0 29 -1 110.5t-1 229.5v151q1 47 1 87q0 41 1 76h-80q1 -49 1 -96v-92q1 -45 1 -82v-64q0 -140 -1 -215.5t-1 -104.5h80z" />
    <glyph glyph-name="Iacute" unicode="&#xcd;" horiz-adv-x="310" 
d="M308 792l-28 58l-211 -100l24 -49zM195 0q0 29 -1 110.5t-1 229.5v151q1 47 1 87q0 41 1 76h-80q1 -49 1 -96v-92q1 -45 1 -82v-64q0 -140 -1 -215.5t-1 -104.5h80z" />
    <glyph glyph-name="Icircumflex" unicode="&#xce;" horiz-adv-x="310" 
d="M299 723l-111 116h-67l-111 -110l45 -35l99 98h1l100 -104zM195 0q0 29 -1 110.5t-1 229.5v151q1 47 1 87q0 41 1 76h-80q1 -49 1 -96v-92q1 -45 1 -82v-64q0 -140 -1 -215.5t-1 -104.5h80z" />
    <glyph glyph-name="Idieresis" unicode="&#xcf;" horiz-adv-x="310" 
d="M295 713v90h-93v-90h93zM108 713v90h-93v-90h93zM195 0q0 29 -1 110.5t-1 229.5v151q1 47 1 87q0 41 1 76h-80q1 -49 1 -96v-92q1 -45 1 -82v-64q0 -140 -1 -215.5t-1 -104.5h80z" />
    <glyph glyph-name="Ntilde" unicode="&#xd1;" horiz-adv-x="790" 
d="M676 654h-76q0 -43 0.5 -108.5t1.5 -155.5t1.5 -152.5t0.5 -100.5l-1 -1l-128.5 160l-136.5 172l-108 137.5t-42 52.5l-74 -35q1 -100 1.5 -187t0.5 -141q0 -134 -1 -208.5t-1 -86.5h76q-1 28 -3 220q-1 96 -1 176v146h1l47 -59l101 -127l132.5 -170l143.5 -189l65 32
q0 3 -0.5 25t-0.5 62t-0.5 95.5t-0.5 124.5v142q1 50 1 94t1 82zM586 818l-52 10q-7 -32 -21 -50.5t-33 -18.5q-20 0 -33 10q-7 5 -17 14t-21 16q-9 7 -24 12.5t-33 5.5q-48 0 -79 -36q-30 -36 -36 -76l51 -10q8 31 21.5 50t32.5 19q20 0 33 -10q10 -7 19.5 -15.5
t18.5 -14.5q7 -5 23 -11.5t33 -6.5q51 0 80 35q30 36 37 77z" />
    <glyph glyph-name="Ograve" unicode="&#xd2;" horiz-adv-x="756" 
d="M693 327q0 75 -24.5 141t-72.5 115q-42 42 -98 65.5t-122 23.5q-64 0 -123 -25t-101 -71q-46 -51 -69 -112t-23 -136q0 -85 29 -152.5t77 -112.5q42 -42 96 -62t114 -20q63 0 117 21.5t102 69.5q45 43 71.5 109.5t26.5 145.5zM609 319q0 -67 -23 -121t-60 -90
q-31 -29 -69 -45t-81 -16t-81.5 16.5t-65.5 42.5q-42 39 -63.5 94t-21.5 127q0 63 21.5 120t60.5 96q63 63 150 63q45 0 81.5 -15.5t65.5 -44.5q45 -42 65.5 -103t20.5 -124zM481 750l-231 100l-28 -58l234 -91z" />
    <glyph glyph-name="Oacute" unicode="&#xd3;" horiz-adv-x="756" 
d="M693 327q0 75 -24.5 141t-72.5 115q-42 42 -98 65.5t-122 23.5q-64 0 -123 -25t-101 -71q-46 -51 -69 -112t-23 -136q0 -85 29 -152.5t77 -112.5q42 -42 96 -62t114 -20q63 0 117 21.5t102 69.5q45 43 71.5 109.5t26.5 145.5zM609 319q0 -67 -23 -121t-60 -90
q-31 -29 -69 -45t-81 -16t-81.5 16.5t-65.5 42.5q-42 39 -63.5 94t-21.5 127q0 63 21.5 120t60.5 96q63 63 150 63q45 0 81.5 -15.5t65.5 -44.5q45 -42 65.5 -103t20.5 -124zM532 792l-28 58l-231 -100l24 -49z" />
    <glyph glyph-name="Ocircumflex" unicode="&#xd4;" horiz-adv-x="756" 
d="M693 327q0 75 -24.5 141t-72.5 115q-42 42 -98 65.5t-122 23.5q-64 0 -123 -25t-101 -71q-46 -51 -69 -112t-23 -136q0 -85 29 -152.5t77 -112.5q42 -42 96 -62t114 -20q63 0 117 21.5t102 69.5q45 43 71.5 109.5t26.5 145.5zM609 319q0 -67 -23 -121t-60 -90
q-31 -29 -69 -45t-81 -16t-81.5 16.5t-65.5 42.5q-42 39 -63.5 94t-21.5 127q0 63 21.5 120t60.5 96q63 63 150 63q45 0 81.5 -15.5t65.5 -44.5q45 -42 65.5 -103t20.5 -124zM535 724l-125 115h-67l-126 -110l45 -35l114 98h1l115 -104z" />
    <glyph glyph-name="Otilde" unicode="&#xd5;" horiz-adv-x="756" 
d="M693 327q0 75 -24.5 141t-72.5 115q-42 42 -98 65.5t-122 23.5q-64 0 -123 -25t-101 -71q-46 -51 -69 -112t-23 -136q0 -85 29 -152.5t77 -112.5q42 -42 96 -62t114 -20q63 0 117 21.5t102 69.5q45 43 71.5 109.5t26.5 145.5zM609 319q0 -67 -23 -121t-60 -90
q-31 -29 -69 -45t-81 -16t-81.5 16.5t-65.5 42.5q-42 39 -63.5 94t-21.5 127q0 63 21.5 120t60.5 96q63 63 150 63q45 0 81.5 -15.5t65.5 -44.5q45 -42 65.5 -103t20.5 -124zM552 818l-52 10q-7 -32 -21 -50.5t-33 -18.5q-20 0 -33 10q-7 5 -17 14t-21 16q-9 7 -24 12.5
t-33 5.5q-48 0 -79 -36q-30 -36 -36 -76l51 -10q8 31 21.5 50t32.5 19q20 0 33 -10q10 -7 19.5 -15.5t18.5 -14.5q7 -5 23 -11.5t33 -6.5q51 0 80 35q30 36 37 77z" />
    <glyph glyph-name="Odieresis" unicode="&#xd6;" horiz-adv-x="756" 
d="M693 327q0 75 -24.5 141t-72.5 115q-42 42 -98 65.5t-122 23.5q-64 0 -123 -25t-101 -71q-46 -51 -69 -112t-23 -136q0 -85 29 -152.5t77 -112.5q42 -42 96 -62t114 -20q63 0 117 21.5t102 69.5q45 43 71.5 109.5t26.5 145.5zM609 319q0 -67 -23 -121t-60 -90
q-31 -29 -69 -45t-81 -16t-81.5 16.5t-65.5 42.5q-42 39 -63.5 94t-21.5 127q0 63 21.5 120t60.5 96q63 63 150 63q45 0 81.5 -15.5t65.5 -44.5q45 -42 65.5 -103t20.5 -124zM536 713v90h-93v-90h93zM311 713v90h-93v-90h93z" />
    <glyph glyph-name="Oslash" unicode="&#xd8;" horiz-adv-x="504" 
d="M441 184q0 95 -98 151q-32 19 -65 35t-53 28q-39 23 -53.5 45.5t-14.5 46.5q0 27 13.5 47t33.5 31q22 13 51 19t56 6q46 0 77 -3t36 -4l-7 71q-2 0 -11.5 1t-23.5 1.5t-30.5 1t-31.5 0.5q-55 0 -100 -11.5t-76 -35.5q-31 -23 -50.5 -56t-19.5 -78t21 -80.5t72 -65.5
q29 -18 65.5 -35t59.5 -31q36 -21 51 -43.5t15 -55.5q0 -31 -15 -51t-44 -34q-23 -11 -63 -18q-41 -6 -67 -6q-43 0 -74 2.5t-38 3.5l4 -70q4 -1 38 -3q17 -1 33.5 -1.5t32.5 -0.5q115 0 189 44q40 23 63.5 60.5t23.5 88.5zM316 -78l-43 48l-165 -143l36 -39z" />
    <glyph glyph-name="Ugrave" unicode="&#xd9;" horiz-adv-x="755" 
d="M646 654h-80v-24t1 -57t1 -84v-105q0 -35 -0.5 -73t-0.5 -77q0 -94 -46.5 -138t-142.5 -44q-88 0 -139 46t-51 136v150q0 117 0.5 187.5t0.5 82.5h-80q0 -94 1 -155t1 -107q0 -57 -0.5 -95.5t-0.5 -67.5q0 -57 17 -100t51 -75q35 -33 84.5 -51t115.5 -18t115.5 18
t83.5 51q34 32 51 75t17 100v163q0 46 0.5 107t0.5 155zM479 750l-231 100l-28 -58l234 -91z" />
    <glyph glyph-name="Uacute" unicode="&#xda;" horiz-adv-x="755" 
d="M646 654h-80v-24t1 -57t1 -84v-105q0 -35 -0.5 -73t-0.5 -77q0 -94 -46.5 -138t-142.5 -44q-88 0 -139 46t-51 136v150q0 117 0.5 187.5t0.5 82.5h-80q0 -94 1 -155t1 -107q0 -57 -0.5 -95.5t-0.5 -67.5q0 -57 17 -100t51 -75q35 -33 84.5 -51t115.5 -18t115.5 18
t83.5 51q34 32 51 75t17 100v163q0 46 0.5 107t0.5 155zM535 792l-28 58l-231 -100l24 -49z" />
    <glyph glyph-name="Ucircumflex" unicode="&#xdb;" horiz-adv-x="755" 
d="M646 654h-80v-24t1 -57t1 -84v-105q0 -35 -0.5 -73t-0.5 -77q0 -94 -46.5 -138t-142.5 -44q-88 0 -139 46t-51 136v150q0 117 0.5 187.5t0.5 82.5h-80q0 -94 1 -155t1 -107q0 -57 -0.5 -95.5t-0.5 -67.5q0 -57 17 -100t51 -75q35 -33 84.5 -51t115.5 -18t115.5 18
t83.5 51q34 32 51 75t17 100v163q0 46 0.5 107t0.5 155zM537 724l-125 115h-67l-126 -110l45 -35l114 98h1l115 -104z" />
    <glyph glyph-name="Udieresis" unicode="&#xdc;" horiz-adv-x="755" 
d="M646 654h-80v-24t1 -57t1 -84v-105q0 -35 -0.5 -73t-0.5 -77q0 -94 -46.5 -138t-142.5 -44q-88 0 -139 46t-51 136v150q0 117 0.5 187.5t0.5 82.5h-80q0 -94 1 -155t1 -107q0 -57 -0.5 -95.5t-0.5 -67.5q0 -57 17 -100t51 -75q35 -33 84.5 -51t115.5 -18t115.5 18
t83.5 51q34 32 51 75t17 100v163q0 46 0.5 107t0.5 155zM537 713v90h-93v-90h93zM312 713v90h-93v-90h93z" />
    <glyph glyph-name="germandbls" unicode="&#xdf;" horiz-adv-x="600" 
d="M551 143q0 42 -20.5 67.5t-49.5 43.5q-22 14 -50 27t-45 24q-15 8 -28 22.5t-13 34.5q0 17 8 32t30 26q11 6 21.5 9t23 4.5t27.5 2t36 0.5h16q7 0 13 -1v27t-1 53q-2 42 -16.5 78.5t-41.5 63.5q-31 31 -68.5 45t-85.5 14q-55 0 -95 -17.5t-64 -42.5q-27 -27 -42 -67
t-15 -97v-127v-108v-73q0 -39 -1 -85t-1 -71v-28h78v28q0 25 -1 71t-1 85v73v48v53q0 29 0.5 62t0.5 75q0 48 10.5 77.5t27.5 45.5q18 18 43 29t55 11q35 0 60 -9.5t44 -27.5q16 -15 32 -44t18 -80q-29 -1 -59 -5.5t-56 -18.5q-34 -18 -53 -46.5t-19 -66.5q0 -33 14 -60
t39 -44t57.5 -31.5t56.5 -30.5q18 -12 28.5 -24.5t10.5 -32.5q0 -42 -48 -64q-9 -4 -21 -7t-24.5 -4.5t-23.5 -2t-17 -0.5q-28 0 -55 2t-36 2l5 -63q8 -2 32 -3q13 -1 22.5 -1.5t17.5 -0.5q100 0 161 38q28 17 45.5 45.5t17.5 64.5z" />
    <glyph glyph-name="agrave" unicode="&#xe0;" horiz-adv-x="514" 
d="M429 278q0 36 -3.5 62.5t-11 46.5t-18 35t-23.5 27q-30 27 -75.5 39t-102.5 12q-38 0 -59.5 -1t-29.5 -2l-7 -65q26 2 41.5 3t37.5 1q69 0 109 -17q61 -24 67 -99q-69 -6 -121.5 -16.5t-84.5 -23.5q-51 -21 -79.5 -55t-28.5 -80q0 -45 24 -75.5t63 -48.5
q30 -14 70.5 -21.5t80.5 -7.5q64 0 104.5 3.5t45.5 3.5v24q0 22 0.5 58.5t0.5 86.5v110zM354 161v-110q-16 -1 -30 -1.5t-24 -0.5q-32 0 -61.5 4t-52.5 12q-32 11 -50 31t-18 53q0 31 21.5 51.5t48.5 30.5q37 13 90 21q54 8 76 9v-100zM315 598l-210 123l-35 -55l215 -114z
" />
    <glyph glyph-name="aacute" unicode="&#xe1;" horiz-adv-x="514" 
d="M429 278q0 36 -3.5 62.5t-11 46.5t-18 35t-23.5 27q-30 27 -75.5 39t-102.5 12q-38 0 -59.5 -1t-29.5 -2l-7 -65q26 2 41.5 3t37.5 1q69 0 109 -17q61 -24 67 -99q-69 -6 -121.5 -16.5t-84.5 -23.5q-51 -21 -79.5 -55t-28.5 -80q0 -45 24 -75.5t63 -48.5
q30 -14 70.5 -21.5t80.5 -7.5q64 0 104.5 3.5t45.5 3.5v24q0 22 0.5 58.5t0.5 86.5v110zM354 161v-110q-16 -1 -30 -1.5t-24 -0.5q-32 0 -61.5 4t-52.5 12q-32 11 -50 31t-18 53q0 31 21.5 51.5t48.5 30.5q37 13 90 21q54 8 76 9v-100zM401 666l-34 55l-209 -123l29 -46z
" />
    <glyph glyph-name="acircumflex" unicode="&#xe2;" horiz-adv-x="514" 
d="M429 278q0 36 -3.5 62.5t-11 46.5t-18 35t-23.5 27q-30 27 -75.5 39t-102.5 12q-38 0 -59.5 -1t-29.5 -2l-7 -65q26 2 41.5 3t37.5 1q69 0 109 -17q61 -24 67 -99q-69 -6 -121.5 -16.5t-84.5 -23.5q-51 -21 -79.5 -55t-28.5 -80q0 -45 24 -75.5t63 -48.5
q30 -14 70.5 -21.5t80.5 -7.5q64 0 104.5 3.5t45.5 3.5v24q0 22 0.5 58.5t0.5 86.5v110zM354 161v-110q-16 -1 -30 -1.5t-24 -0.5q-32 0 -61.5 4t-52.5 12q-32 11 -50 31t-18 53q0 31 21.5 51.5t48.5 30.5q37 13 90 21q54 8 76 9v-100zM395 575l-128 141h-60l-127 -141
l43 -33l114 125h1l114 -125z" />
    <glyph glyph-name="atilde" unicode="&#xe3;" horiz-adv-x="514" 
d="M429 278q0 36 -3.5 62.5t-11 46.5t-18 35t-23.5 27q-30 27 -75.5 39t-102.5 12q-38 0 -59.5 -1t-29.5 -2l-7 -65q26 2 41.5 3t37.5 1q69 0 109 -17q61 -24 67 -99q-69 -6 -121.5 -16.5t-84.5 -23.5q-51 -21 -79.5 -55t-28.5 -80q0 -45 24 -75.5t63 -48.5
q30 -14 70.5 -21.5t80.5 -7.5q64 0 104.5 3.5t45.5 3.5v24q0 22 0.5 58.5t0.5 86.5v110zM354 161v-110q-16 -1 -30 -1.5t-24 -0.5q-32 0 -61.5 4t-52.5 12q-32 11 -50 31t-18 53q0 31 21.5 51.5t48.5 30.5q37 13 90 21q54 8 76 9v-100zM414 693l-49 10q-7 -30 -20 -48.5
t-31 -18.5q-19 0 -30 10q-7 5 -16.5 12.5l-17.5 13.5q-25 19 -54 19q-42 0 -70.5 -29.5t-38.5 -80.5l49 -10q8 32 20.5 50t30.5 18t31 -11q11 -8 17.5 -13.5l15.5 -12.5q11 -8 23.5 -13.5t29.5 -5.5q42 0 70.5 28t39.5 82z" />
    <glyph glyph-name="adieresis" unicode="&#xe4;" horiz-adv-x="514" 
d="M429 278q0 36 -3.5 62.5t-11 46.5t-18 35t-23.5 27q-30 27 -75.5 39t-102.5 12q-38 0 -59.5 -1t-29.5 -2l-7 -65q26 2 41.5 3t37.5 1q69 0 109 -17q61 -24 67 -99q-69 -6 -121.5 -16.5t-84.5 -23.5q-51 -21 -79.5 -55t-28.5 -80q0 -45 24 -75.5t63 -48.5
q30 -14 70.5 -21.5t80.5 -7.5q64 0 104.5 3.5t45.5 3.5v24q0 22 0.5 58.5t0.5 86.5v110zM354 161v-110q-16 -1 -30 -1.5t-24 -0.5q-32 0 -61.5 4t-52.5 12q-32 11 -50 31t-18 53q0 31 21.5 51.5t48.5 30.5q37 13 90 21q54 8 76 9v-100zM392 589v83h-83v-83h83zM181 589v83
h-83v-83h83z" />
    <glyph glyph-name="aring" unicode="&#xe5;" horiz-adv-x="514" 
d="M429 278q0 36 -3.5 62.5t-11 46.5t-18 35t-23.5 27q-30 27 -75.5 39t-102.5 12q-38 0 -59.5 -1t-29.5 -2l-7 -65q26 2 41.5 3t37.5 1q69 0 109 -17q61 -24 67 -99q-69 -6 -121.5 -16.5t-84.5 -23.5q-51 -21 -79.5 -55t-28.5 -80q0 -45 24 -75.5t63 -48.5
q30 -14 70.5 -21.5t80.5 -7.5q64 0 104.5 3.5t45.5 3.5v24q0 22 0.5 58.5t0.5 86.5v110zM354 161v-110q-16 -1 -30 -1.5t-24 -0.5q-32 0 -61.5 4t-52.5 12q-32 11 -50 31t-18 53q0 31 21.5 51.5t48.5 30.5q37 13 90 21q54 8 76 9v-100zM346 629q0 20 -7.5 37t-20.5 29.5
t-30 19.5t-36 7t-36 -7t-30 -19.5t-20.5 -29.5t-7.5 -37q0 -39 27 -65.5t66 -26.5q19 0 36.5 7t30.5 19.5t20.5 29.5t7.5 36zM303 630q0 -22 -14.5 -37t-36.5 -15q-21 0 -36 14.5t-15 37.5q0 22 14.5 36.5t36.5 14.5t36.5 -14.5t14.5 -36.5z" />
    <glyph glyph-name="ae" unicode="&#xe6;" horiz-adv-x="514" 
d="M429 278q0 36 -3.5 62.5t-11 46.5t-18 35t-23.5 27q-30 27 -75.5 39t-102.5 12q-38 0 -59.5 -1t-29.5 -2l-7 -65q26 2 41.5 3t37.5 1q69 0 109 -17q61 -24 67 -99q-69 -6 -121.5 -16.5t-84.5 -23.5q-51 -21 -79.5 -55t-28.5 -80q0 -45 24 -75.5t63 -48.5
q30 -14 70.5 -21.5t80.5 -7.5q64 0 104.5 3.5t45.5 3.5v24q0 22 0.5 58.5t0.5 86.5v110zM354 161v-110q-16 -1 -30 -1.5t-24 -0.5q-32 0 -61.5 4t-52.5 12q-32 11 -50 31t-18 53q0 31 21.5 51.5t48.5 30.5q37 13 90 21q54 8 76 9v-100zM408 697l-51 20q-20 -63 -46 -88.5
t-60 -25.5q-35 0 -60.5 25.5t-46.5 88.5l-51 -20q15 -61 55 -101.5t103 -40.5t103 40.5t54 101.5z" />
    <glyph glyph-name="ccedilla" unicode="&#xe7;" horiz-adv-x="454" 
d="M414 12v51h-25q-48 0 -93 7.5t-79 24.5q-45 21 -71.5 59.5t-26.5 95.5q0 48 28.5 90t76.5 62q36 15 74.5 21.5t92.5 6.5h15l-4 66h-20q-66 0 -126.5 -15t-105.5 -43q-48 -32 -78.5 -81t-30.5 -107q0 -66 33 -119t93 -86q42 -22 89.5 -32t99.5 -12q0 -36 -7 -52.5
t-22 -31.5q-11 -11 -34.5 -19.5t-60.5 -10.5l9 -53q32 2 60 11t43 18q70 39 70 149z" />
    <glyph glyph-name="egrave" unicode="&#xe8;" horiz-adv-x="510" 
d="M470 265q0 64 -15.5 109.5t-43.5 77.5q-53 55 -142 55q-46 0 -88.5 -18t-71.5 -51q-33 -39 -50 -83.5t-17 -101.5t22.5 -103t54.5 -76q37 -35 94.5 -55.5t136.5 -20.5q29 0 51 1t26 2l9 65q-5 -1 -28.5 -2t-51.5 -1q-51 0 -87 9t-64 27q-45 28 -66 71t-22 95h353z
M395 320h-272q14 60 50.5 94.5t91.5 34.5t88.5 -34.5t41.5 -94.5zM348 598l-210 123l-35 -55l215 -114z" />
    <glyph glyph-name="eacute" unicode="&#xe9;" horiz-adv-x="510" 
d="M470 265q0 64 -15.5 109.5t-43.5 77.5q-53 55 -142 55q-46 0 -88.5 -18t-71.5 -51q-33 -39 -50 -83.5t-17 -101.5t22.5 -103t54.5 -76q37 -35 94.5 -55.5t136.5 -20.5q29 0 51 1t26 2l9 65q-5 -1 -28.5 -2t-51.5 -1q-51 0 -87 9t-64 27q-45 28 -66 71t-22 95h353z
M395 320h-272q14 60 50.5 94.5t91.5 34.5t88.5 -34.5t41.5 -94.5zM435 666l-34 55l-209 -123l29 -46z" />
    <glyph glyph-name="ecircumflex" unicode="&#xea;" horiz-adv-x="510" 
d="M470 265q0 64 -15.5 109.5t-43.5 77.5q-53 55 -142 55q-46 0 -88.5 -18t-71.5 -51q-33 -39 -50 -83.5t-17 -101.5t22.5 -103t54.5 -76q37 -35 94.5 -55.5t136.5 -20.5q29 0 51 1t26 2l9 65q-5 -1 -28.5 -2t-51.5 -1q-51 0 -87 9t-64 27q-45 28 -66 71t-22 95h353z
M395 320h-272q14 60 50.5 94.5t91.5 34.5t88.5 -34.5t41.5 -94.5zM424 575l-128 141h-60l-127 -141l43 -33l114 125h1l114 -125z" />
    <glyph glyph-name="edieresis" unicode="&#xeb;" horiz-adv-x="510" 
d="M470 265q0 64 -15.5 109.5t-43.5 77.5q-53 55 -142 55q-46 0 -88.5 -18t-71.5 -51q-33 -39 -50 -83.5t-17 -101.5t22.5 -103t54.5 -76q37 -35 94.5 -55.5t136.5 -20.5q29 0 51 1t26 2l9 65q-5 -1 -28.5 -2t-51.5 -1q-51 0 -87 9t-64 27q-45 28 -66 71t-22 95h353z
M395 320h-272q14 60 50.5 94.5t91.5 34.5t88.5 -34.5t41.5 -94.5zM416 589v83h-83v-83h83zM205 589v83h-83v-83h83z" />
    <glyph glyph-name="igrave" unicode="&#xec;" horiz-adv-x="266" 
d="M213 596l-175 125l-38 -54l183 -116zM172 0q0 1 -0.5 19.5t-1 51.5t-1 79t-0.5 103q0 48 1 109.5t2 131.5h-77q1 -81 1.5 -141t0.5 -111v-65t-1 -81t-1 -69v-27h77z" />
    <glyph glyph-name="iacute" unicode="&#xed;" horiz-adv-x="266" 
d="M267 667l-38 54l-175 -125l30 -45zM172 0q0 1 -0.5 19.5t-1 51.5t-1 79t-0.5 103q0 48 1 109.5t2 131.5h-77q1 -81 1.5 -141t0.5 -111v-65t-1 -81t-1 -69v-27h77z" />
    <glyph glyph-name="icircumflex" unicode="&#xee;" horiz-adv-x="266" 
d="M271 570l-109 146h-57l-108 -146l44 -31l92 126h1l93 -126zM172 0q0 1 -0.5 19.5t-1 51.5t-1 79t-0.5 103q0 48 1 109.5t2 131.5h-77q1 -81 1.5 -141t0.5 -111v-65t-1 -81t-1 -69v-27h77z" />
    <glyph glyph-name="idieresis" unicode="&#xef;" horiz-adv-x="266" 
d="M258 589v83h-82v-83h82zM91 589v83h-83v-83h83zM172 0q0 1 -0.5 19.5t-1 51.5t-1 79t-0.5 103q0 48 1 109.5t2 131.5h-77q1 -81 1.5 -141t0.5 -111v-65t-1 -81t-1 -69v-27h77z" />
    <glyph glyph-name="ntilde" unicode="&#xf1;" horiz-adv-x="581" 
d="M495 0q0 2 -0.5 19l-1.5 51t-1 61v50q0 28 1 72t1 107q0 69 -38 108t-101 39q-30 0 -75 -15.5t-114 -54.5l-1 1l1 56h-77q2 -78 2 -147v-119q0 -112 -1 -168.5t-1 -59.5h78q0 2 -0.5 23l-1.5 61t-1 74v63v96q1 26 1 41v17q45 27 89 45t74 18q49 0 69 -24t21 -81
q1 -11 1 -30v-43v-75v-33t-1 -62v-61q0 -22 -1 -29h78zM459 693l-49 10q-7 -30 -20 -48.5t-31 -18.5q-19 0 -30 10q-7 5 -16.5 12.5l-17.5 13.5q-25 19 -54 19q-42 0 -70.5 -29.5t-38.5 -80.5l49 -10q8 32 20.5 50t30.5 18t31 -11q11 -8 17.5 -13.5l15.5 -12.5
q11 -8 23.5 -13.5t29.5 -5.5q42 0 70.5 28t39.5 82z" />
    <glyph glyph-name="ograve" unicode="&#xf2;" horiz-adv-x="569" 
d="M523 247q0 116 -73 192q-65 68 -165 68q-49 0 -92.5 -18.5t-75.5 -52.5q-72 -75 -72 -188q0 -58 20.5 -110.5t57.5 -87.5q66 -63 161 -63q51 0 90 16.5t71 46.5q38 37 58 88.5t20 108.5zM445 244q0 -45 -14.5 -84.5t-42.5 -68.5q-42 -42 -104 -42q-58 0 -96 35
q-34 31 -49 72t-15 92q0 45 14.5 85.5t40.5 66.5q22 23 47 34t59 11q28 0 54 -10t45 -29q32 -30 46.5 -73t14.5 -89zM363 598l-210 123l-35 -55l215 -114z" />
    <glyph glyph-name="oacute" unicode="&#xf3;" horiz-adv-x="569" 
d="M523 247q0 116 -73 192q-65 68 -165 68q-49 0 -92.5 -18.5t-75.5 -52.5q-72 -75 -72 -188q0 -58 20.5 -110.5t57.5 -87.5q66 -63 161 -63q51 0 90 16.5t71 46.5q38 37 58 88.5t20 108.5zM445 244q0 -45 -14.5 -84.5t-42.5 -68.5q-42 -42 -104 -42q-58 0 -96 35
q-34 31 -49 72t-15 92q0 45 14.5 85.5t40.5 66.5q22 23 47 34t59 11q28 0 54 -10t45 -29q32 -30 46.5 -73t14.5 -89zM450 666l-34 55l-209 -123l29 -46z" />
    <glyph glyph-name="ocircumflex" unicode="&#xf4;" horiz-adv-x="569" 
d="M523 247q0 116 -73 192q-65 68 -165 68q-49 0 -92.5 -18.5t-75.5 -52.5q-72 -75 -72 -188q0 -58 20.5 -110.5t57.5 -87.5q66 -63 161 -63q51 0 90 16.5t71 46.5q38 37 58 88.5t20 108.5zM445 244q0 -45 -14.5 -84.5t-42.5 -68.5q-42 -42 -104 -42q-58 0 -96 35
q-34 31 -49 72t-15 92q0 45 14.5 85.5t40.5 66.5q22 23 47 34t59 11q28 0 54 -10t45 -29q32 -30 46.5 -73t14.5 -89zM442 575l-128 141h-60l-127 -141l43 -33l114 125h1l114 -125z" />
    <glyph glyph-name="otilde" unicode="&#xf5;" horiz-adv-x="569" 
d="M523 247q0 116 -73 192q-65 68 -165 68q-49 0 -92.5 -18.5t-75.5 -52.5q-72 -75 -72 -188q0 -58 20.5 -110.5t57.5 -87.5q66 -63 161 -63q51 0 90 16.5t71 46.5q38 37 58 88.5t20 108.5zM445 244q0 -45 -14.5 -84.5t-42.5 -68.5q-42 -42 -104 -42q-58 0 -96 35
q-34 31 -49 72t-15 92q0 45 14.5 85.5t40.5 66.5q22 23 47 34t59 11q28 0 54 -10t45 -29q32 -30 46.5 -73t14.5 -89zM448 693l-49 10q-7 -30 -20 -48.5t-31 -18.5q-19 0 -30 10q-7 5 -16.5 12.5l-17.5 13.5q-25 19 -54 19q-42 0 -70.5 -29.5t-38.5 -80.5l49 -10
q8 32 20.5 50t30.5 18t31 -11q11 -8 17.5 -13.5l15.5 -12.5q11 -8 23.5 -13.5t29.5 -5.5q42 0 70.5 28t39.5 82z" />
    <glyph glyph-name="odieresis" unicode="&#xf6;" horiz-adv-x="569" 
d="M523 247q0 116 -73 192q-65 68 -165 68q-49 0 -92.5 -18.5t-75.5 -52.5q-72 -75 -72 -188q0 -58 20.5 -110.5t57.5 -87.5q66 -63 161 -63q51 0 90 16.5t71 46.5q38 37 58 88.5t20 108.5zM445 244q0 -45 -14.5 -84.5t-42.5 -68.5q-42 -42 -104 -42q-58 0 -96 35
q-34 31 -49 72t-15 92q0 45 14.5 85.5t40.5 66.5q22 23 47 34t59 11q28 0 54 -10t45 -29q32 -30 46.5 -73t14.5 -89zM431 589v83h-83v-83h83zM220 589v83h-83v-83h83z" />
    <glyph glyph-name="divide" unicode="&#xf7;" horiz-adv-x="690" 
d="M393 368v101h-96v-101h96zM574 221v53h-457v-53h457zM393 27v101h-96v-101h96z" />
    <glyph glyph-name="oslash" unicode="&#xf8;" horiz-adv-x="407" 
d="M358 143q0 36 -18 62.5t-52 47.5q-8 5 -21 11.5l-30 14.5t-30.5 15t-23.5 13q-17 10 -29.5 24t-12.5 34q0 14 9 29t30 26q14 7 34 11t43 4q32 0 58.5 -2t29.5 -2l-5 65q-3 0 -22 1t-49 1q-33 0 -67.5 -5t-63.5 -21q-34 -17 -53.5 -46t-19.5 -65t17.5 -63.5t49.5 -47.5
q12 -7 27 -14l30 -14.5l29.5 -14.5t24.5 -14q18 -11 28 -23.5t10 -32.5q0 -45 -48 -64q-17 -8 -44 -11t-44 -3q-15 0 -30 0.5t-28.5 1.5t-22.5 2t-12 1l3 -64q2 0 10 -1t19.5 -1.5t24.5 -1.5t25 -1q49 0 90 9.5t70 28.5q29 17 46.5 45.5t17.5 64.5zM301 -78l-43 48
l-165 -143l36 -39z" />
    <glyph glyph-name="ugrave" unicode="&#xf9;" horiz-adv-x="581" 
d="M492 0q-1 61 -1 103q0 43 -1 66v111q0 57 0.5 96t0.5 63q0 25 0.5 38t0.5 17h-77v-23q0 -19 1 -55q1 -35 1 -66v-57q0 -71 -0.5 -119.5t-0.5 -53.5q-25 -19 -76 -42q-54 -23 -96 -23t-61 27t-20 85v28q0 18 -1 43v84v44q0 26 1 58t1 49v21h-78v-23q0 -18 1 -51
q1 -32 1.5 -59.5t0.5 -49.5v-32q0 -19 -1 -46t-1 -50v-43q0 -73 38.5 -113t105.5 -40q49 0 100 24q26 12 47.5 23.5t38.5 22.5v-57h75zM368 598l-210 123l-35 -55l215 -114z" />
    <glyph glyph-name="uacute" unicode="&#xfa;" horiz-adv-x="581" 
d="M492 0q-1 61 -1 103q0 43 -1 66v111q0 57 0.5 96t0.5 63q0 25 0.5 38t0.5 17h-77v-23q0 -19 1 -55q1 -35 1 -66v-57q0 -71 -0.5 -119.5t-0.5 -53.5q-25 -19 -76 -42q-54 -23 -96 -23t-61 27t-20 85v28q0 18 -1 43v84v44q0 26 1 58t1 49v21h-78v-23q0 -18 1 -51
q1 -32 1.5 -59.5t0.5 -49.5v-32q0 -19 -1 -46t-1 -50v-43q0 -73 38.5 -113t105.5 -40q49 0 100 24q26 12 47.5 23.5t38.5 22.5v-57h75zM455 666l-34 55l-209 -123l29 -46z" />
    <glyph glyph-name="ucircumflex" unicode="&#xfb;" horiz-adv-x="581" 
d="M492 0q-1 61 -1 103q0 43 -1 66v111q0 57 0.5 96t0.5 63q0 25 0.5 38t0.5 17h-77v-23q0 -19 1 -55q1 -35 1 -66v-57q0 -71 -0.5 -119.5t-0.5 -53.5q-25 -19 -76 -42q-54 -23 -96 -23t-61 27t-20 85v28q0 18 -1 43v84v44q0 26 1 58t1 49v21h-78v-23q0 -18 1 -51
q1 -32 1.5 -59.5t0.5 -49.5v-32q0 -19 -1 -46t-1 -50v-43q0 -73 38.5 -113t105.5 -40q49 0 100 24q26 12 47.5 23.5t38.5 22.5v-57h75zM448 575l-128 141h-60l-127 -141l43 -33l114 125h1l114 -125z" />
    <glyph glyph-name="udieresis" unicode="&#xfc;" horiz-adv-x="581" 
d="M492 0q-1 61 -1 103q0 43 -1 66v111q0 57 0.5 96t0.5 63q0 25 0.5 38t0.5 17h-77v-23q0 -19 1 -55q1 -35 1 -66v-57q0 -71 -0.5 -119.5t-0.5 -53.5q-25 -19 -76 -42q-54 -23 -96 -23t-61 27t-20 85v28q0 18 -1 43v84v44q0 26 1 58t1 49v21h-78v-23q0 -18 1 -51
q1 -32 1.5 -59.5t0.5 -49.5v-32q0 -19 -1 -46t-1 -50v-43q0 -73 38.5 -113t105.5 -40q49 0 100 24q26 12 47.5 23.5t38.5 22.5v-57h75zM436 589v83h-83v-83h83zM225 589v83h-83v-83h83z" />
    <glyph glyph-name="ydieresis" unicode="&#xff;" horiz-adv-x="535" 
d="M507 474l-67 27l-60 -144.5l-55 -131.5l-40 -95.5t-15 -34.5h-1q-2 4 -16.5 38.5l-42.5 100.5l-55.5 133.5l-53.5 135.5l-74 -32l76.5 -171.5l63.5 -145.5l44.5 -102.5t17.5 -40.5l-102 -209l68 -25q4 8 31.5 70.5l80.5 180.5l102.5 229zM422 589v83h-83v-83h83zM211 589
v83h-83v-83h83z" />
    <glyph glyph-name="breve" unicode="&#x2d8;" horiz-adv-x="391" 
d="M352 697l-51 20q-20 -63 -46 -88.5t-60 -25.5q-35 0 -60.5 25.5t-46.5 88.5l-51 -20q15 -61 55 -101.5t103 -40.5t103 40.5t54 101.5z" />
    <glyph glyph-name="dotaccent" unicode="&#x2d9;" horiz-adv-x="391" 
d="M237 589v83h-84v-83h84z" />
    <glyph glyph-name="hungarumlaut" unicode="&#x2dd;" horiz-adv-x="391" 
d="M271 683l-48 40l-130 -141l38 -32zM421 682l-47 39l-130 -140l38 -33z" />
    <glyph glyph-name="ogonek" unicode="&#x2db;" horiz-adv-x="391" 
d="M386 -110q-39 0 -61.5 7t-31.5 18q-8 9 -11 19.5t-3 27.5q0 6 1.5 20t4.5 30h-57q-3 -14 -5.5 -29.5t-2.5 -27.5q0 -27 8.5 -52t34.5 -41q14 -9 40.5 -17.5t61.5 -8.5z" />
    <glyph glyph-name="caron" unicode="&#x2c7;" horiz-adv-x="391" 
d="M354 683l-43 33l-114 -126h-1l-114 126l-43 -33l127 -141h60z" />
    <glyph glyph-name="dotlessi" unicode="&#x131;" horiz-adv-x="266" 
d="M172 0q0 1 -0.5 19.5t-1 51.5t-1 79t-0.5 103q0 48 1 109.5t2 131.5h-77q1 -81 1.5 -141t0.5 -111v-65t-1 -81t-1 -69v-27h77z" />
    <glyph glyph-name="fi" unicode="&#xfb01;" horiz-adv-x="570" 
d="M565 584v68h-25q-21 0 -61 -1h-197q-82 0 -153.5 0.5t-122.5 0.5v-68q6 0 70.5 1t169.5 0q1 -52 1 -91v-63v-135v-87t-1 -90v-75t-1 -44h80v43q0 30 -1 75t-1 88v86v141q1 26 1 63q0 38 1 89q117 0 174.5 -0.5t65.5 -0.5zM355 -78l-43 48l-165 -143l36 -39z" />
    <glyph glyph-name="fl" unicode="&#xfb02;" horiz-adv-x="392" 
d="M358 61q-4 0 -16 -0.5t-21 -0.5q-72 0 -105.5 28t-33.5 92v121v75q1 26 1 41v20h175v57h-175v116h-71v-116h-86v-57h82q0 -46 -0.5 -84t-0.5 -70t-0.5 -60.5t-0.5 -55.5q0 -87 51.5 -128.5t151.5 -41.5q10 0 23.5 0.5t16.5 1.5zM345 -78l-43 48l-165 -143l36 -39z" />
    <glyph glyph-name="glyph211" horiz-adv-x="0" 
 />
    <glyph glyph-name="glyph212" horiz-adv-x="0" 
 />
    <glyph glyph-name="glyph213" horiz-adv-x="0" 
 />
    <glyph glyph-name="glyph214" horiz-adv-x="0" 
 />
    <glyph glyph-name="glyph215" horiz-adv-x="0" 
 />
    <glyph glyph-name="glyph216" horiz-adv-x="0" 
 />
    <glyph glyph-name="glyph217" horiz-adv-x="0" 
 />
    <glyph glyph-name="glyph218" horiz-adv-x="0" 
 />
    <glyph glyph-name="glyph219" horiz-adv-x="0" 
 />
    <glyph glyph-name="glyph220" horiz-adv-x="0" 
 />
    <glyph glyph-name="glyph221" horiz-adv-x="0" 
 />
    <glyph glyph-name="glyph222" horiz-adv-x="0" 
 />
    <glyph glyph-name="glyph223" horiz-adv-x="0" 
 />
    <glyph glyph-name="glyph224" horiz-adv-x="0" 
 />
    <glyph glyph-name="glyph225" horiz-adv-x="0" 
 />
    <glyph glyph-name="glyph226" horiz-adv-x="0" 
 />
    <glyph glyph-name="glyph227" horiz-adv-x="0" 
 />
    <glyph glyph-name="glyph228" horiz-adv-x="0" 
 />
    <glyph glyph-name="glyph229" horiz-adv-x="0" 
 />
    <glyph glyph-name="glyph230" horiz-adv-x="0" 
 />
    <glyph glyph-name="glyph231" horiz-adv-x="0" 
 />
    <glyph glyph-name="glyph232" horiz-adv-x="0" 
 />
    <glyph glyph-name="glyph233" horiz-adv-x="0" 
 />
    <glyph glyph-name="glyph234" horiz-adv-x="0" 
 />
    <glyph glyph-name="glyph235" horiz-adv-x="0" 
 />
    <glyph glyph-name="glyph236" horiz-adv-x="0" 
 />
    <glyph glyph-name="glyph237" horiz-adv-x="0" 
 />
    <glyph glyph-name="glyph238" horiz-adv-x="0" 
 />
    <glyph glyph-name="glyph239" horiz-adv-x="250" 
 />
    <glyph glyph-name="notequal" unicode="&#x2260;" horiz-adv-x="690" 
d="M563 140v52h-212l17.5 52.5l19.5 62.5h175v52h-158l15.5 47l14.5 41q7 20 10 30t4 12l-45 16q-1 -2 -5 -15t-12 -36t-15.5 -47l-15.5 -48h-229v-52h212l-9 -31.5t-8.5 -26l-9 -26l-10.5 -31.5h-175v-52h157l-15.5 -49l-13.5 -41l-10 -29.5l-5 -14.5l45 -18l5.5 16l11 33
l15 46.5l17.5 56.5h229z" />
    <glyph glyph-name="glyph241" horiz-adv-x="911" 
d="M854 1v68q-6 0 -39.5 -0.5t-109.5 -0.5h-92l-30 90.5l-46 136.5h1q13 0 36.5 0.5t42.5 0.5q91 0 144.5 -1t57.5 -1v66q-4 0 -60.5 -0.5t-146.5 -0.5h-96l-19.5 57t-17.5 52l-17.5 54l-20.5 63h116q29 1 51 1h38q85 0 131 -1t51 -1v68q-3 0 -51.5 -0.5t-144.5 -0.5h-149
q-61 1 -93 1h-33l-139.5 -239l-119.5 -200l-84 -138.5t-33 -52.5l64 -35q4 5 58 100l58 99.5l64 108.5h230l70 -216t26 -78q3 0 34.5 0.5t77.5 0.5q91 0 138 -0.5t53 -0.5zM434 358v-1h-172l-1 1l69 118.5l42 70.5h1q4 -11 10 -31.5t16 -50.5l18.5 -57t16.5 -50z" />
    <glyph glyph-name="glyph242" horiz-adv-x="756" 
d="M693 327q0 78 -27.5 148.5t-82.5 118.5l32 46.5t28 39.5l-38 25l-27.5 -41.5t-28.5 -43.5q-73 52 -173 52q-64 0 -123 -25t-101 -71q-46 -51 -69 -112t-23 -136q0 -88 31.5 -157t80.5 -112q-29 -45 -46.5 -70l-21.5 -31l36 -25l18.5 27.5l47.5 72.5q73 -52 170 -52
q63 0 117 21.5t102 69.5q45 43 71.5 109.5t26.5 145.5zM557 557l-35 23l-47 -71l-47 -70l-40.5 -60.5l-30.5 -45.5l-34 -52l-46 -68l-45.5 -67l-33.5 -49l33 -25l79 118l83 124l29 43l40 60l46.5 70zM609 319q0 -67 -23 -121t-60 -90q-31 -29 -69 -45t-81 -16t-81.5 16.5
t-65.5 42.5q-42 39 -63.5 94t-21.5 127q0 63 21.5 120t60.5 96q63 63 150 63q45 0 81.5 -15.5t65.5 -44.5q45 -42 65.5 -103t20.5 -124z" />
    <glyph glyph-name="infinity" unicode="&#x221e;" horiz-adv-x="879" 
d="M770 250q0 86 -50 145t-123 59q-52 0 -90 -26.5t-59 -74.5h-2q-11 21 -28 40t-39 32.5t-47 21.5t-52 8q-74 0 -124 -59q-48 -59 -48 -148q0 -83 50 -144q49 -60 124 -60q55 0 92 28t58 74h2q10 -22 27 -41t39 -32.5t47 -21.5t52 -8q77 0 124 60q47 61 47 147zM421 287
l-10.5 -31.5t-9 -24.5t-9.5 -21l-11 -22q-21 -42 -44.5 -58.5t-53.5 -16.5q-54 0 -82.5 38t-28.5 98q0 64 33.5 101t87.5 37q21 0 41 -8.5t36.5 -22t29.5 -32t21 -37.5zM707 250q0 -64 -32.5 -101.5t-90.5 -37.5q-42 0 -77 32q-33 30 -49 68q8 26 17.5 51.5t22.5 48.5
q19 38 42 56t56 18q51 0 81 -37t30 -98z" />
    <glyph glyph-name="lessequal" unicode="&#x2264;" horiz-adv-x="690" 
d="M562 214l-358 134v5l358 133l-24 53l-415 -164v-50l415 -162zM564 56v53h-440v-53h440z" />
    <glyph glyph-name="greaterequal" unicode="&#x2265;" horiz-adv-x="690" 
d="M567 325v50l-415 164l-24 -53l358 -133v-5l-358 -134l24 -51zM566 56v53h-440v-53h440z" />
    <glyph glyph-name="partialdiff" unicode="&#x2202;" horiz-adv-x="609" 
d="M539 495q0 111 -50 166t-140 55q-60 0 -116.5 -25t-101.5 -65l38 -49q95 76 171 76q34 0 58 -12.5t41 -40.5q14 -22 20 -58t6 -82q0 -12 -0.5 -31t-1.5 -29l-3 -1q-26 14 -60.5 25t-91.5 11q-99 0 -170 -74q-69 -74 -69 -184q0 -85 48.5 -137.5t139.5 -52.5
q54 0 100.5 26.5t80.5 78.5q44 66 73 177q28 108 28 226zM451 330q-7 -52 -24 -102t-37 -87q-24 -46 -59 -69t-73 -23q-51 0 -81 32t-30 90q0 84 47 143q48 59 115 59q57 0 91 -14.5t51 -28.5z" />
    <glyph glyph-name="summation" unicode="&#x2211;" horiz-adv-x="879" 
d="M743 -97v73h-25t-59 -1t-83 -1h-97h-57h-57t-54 0.5t-45 0.5l-1 1l201 234l63 70t28 32v12l-67.5 78l-71.5 83l-70 84.5l-64 78.5l1 1h100h101q97 0 155.5 -0.5t66.5 -0.5v68q-31 -1 -65 -1h-71h-122h-172q-35 1 -57 1h-28l-24 -51q5 -7 32.5 -39.5l76.5 -91.5
l94.5 -112.5l87.5 -105.5v-3l-78 -93.5l-85 -98.5l-79.5 -92l-64.5 -75l22 -51h25q21 0 58 1h184h137t164 -1z" />
    <glyph glyph-name="product" unicode="&#x220f;" horiz-adv-x="879" 
d="M807 648v67h-38q-34 0 -101 -1h-216h-194q-57 1 -103 1h-83v-67h42h64q1 -103 1.5 -185t0.5 -146v-144q0 -68 -1 -134t-1 -99v-38h80v42t-1 112q-1 75 -1 140v123v72t1 88t1 90v80h196h167v-85t1 -96t1 -93v-76v-125q0 -63 -1 -131q-1 -67 -1 -102v-39h80v39t-1 98
t-1 128v130v176q1 49 1 92q0 44 1 83h58h48z" />
    <glyph glyph-name="pi" unicode="&#x3c0;" horiz-adv-x="617" 
d="M593 60q-81 1 -105 29t-24 83q0 36 -0.5 71t-0.5 58v30q0 19 1 45t1 41v20h124v57h-32q-26 0 -74 -1h-167h-205q-40 1 -62 1h-26v-57h95v-156t-1 -141t-1 -102v-38h77v41t-1 103v293h198q0 -92 -1 -158t-1 -120q0 -45 12 -75.5t36 -49.5t60.5 -27.5t84.5 -9.5z" />
    <glyph glyph-name="integral" unicode="&#x222b;" 
d="M595 685q-19 15 -49.5 25t-65.5 10q-91 0 -136.5 -61.5t-64.5 -191.5l-63 -404q-14 -99 -40.5 -144t-81.5 -45q-25 0 -50 10t-40 19l-34 -58q19 -16 50 -25.5t65 -9.5q46 0 79.5 14.5t57.5 45.5t39.5 79.5t26.5 115.5l61 395q8 52 18 89t23 60q26 47 81 47q23 0 49 -10
t41 -20z" />
    <glyph glyph-name="Ohm" unicode="&#x2126;" horiz-adv-x="756" 
d="M745 1v68q-5 0 -61.5 -1.5t-146.5 -1.5v5q73 61 112.5 136.5t39.5 154.5q0 63 -19 116.5t-64 101.5q-42 45 -102.5 68.5t-126.5 23.5q-69 0 -126.5 -24t-99.5 -69q-45 -49 -65 -101.5t-20 -115.5q0 -84 40 -157.5t112 -133.5v-5h-60t-66 1t-55 1t-27 1v-68h34q16 1 45 1
h72h29q18 0 37 -0.5t38 -0.5h36l17 66q-33 22 -58.5 47.5t-48.5 58.5q-25 37 -43.5 83t-18.5 97q0 60 18 107.5t57 86.5q30 31 69 45t85 14q94 0 154 -60q41 -41 57 -86.5t16 -106.5q0 -49 -17.5 -95.5t-44.5 -84.5q-23 -34 -50 -60t-56 -46l17 -66h71q21 1 38 1h31h50
t47 -1h54z" />
    <glyph glyph-name="glyph252" horiz-adv-x="807" 
d="M768 265q0 126 -58 187q-49 55 -141 55q-27 0 -53 -7t-49 -19t-42 -29t-31 -37h-1q-26 45 -77.5 65t-126.5 20q-38 0 -63 -1.5t-31 -1.5l-8 -65q27 2 45 3t40 1q69 0 109 -17q62 -24 67 -100q-52 -2 -105 -10.5t-93 -24.5q-58 -22 -84 -57.5t-26 -77.5q0 -81 85 -123
q29 -15 70.5 -21.5t86.5 -6.5h21q12 0 25 1t21 1t10 1l9 63q-5 -2 -27 -3q-11 -1 -21 -1h-17q-28 0 -61.5 1.5t-55.5 9.5q-31 11 -48.5 29t-17.5 52q0 28 19.5 50t49.5 32q40 16 89 21q49 4 69 6q0 -54 19 -102.5t56 -83.5q39 -37 96 -57t135 -20q30 0 46 1t21 2l9 65
q-3 0 -11 -1t-18 -1.5l-20.5 -1t-19.5 -0.5q-51 0 -87.5 9t-64.5 27q-45 28 -66.5 70.5t-22.5 96.5h349zM693 320h-271q15 61 51.5 95t91.5 34q57 0 88.5 -33t39.5 -96z" />
    <glyph glyph-name="glyph253" horiz-adv-x="569" 
d="M523 247q0 122 -81 199q15 20 26.5 37.5t24.5 35.5l-35 22l-26 -40l-20 -31q-26 17 -58.5 27t-68.5 10q-49 0 -92.5 -18.5t-75.5 -52.5q-72 -75 -72 -188q0 -60 21.5 -112t60.5 -89l-37 -55l-15 -22l33 -24q3 5 16.5 26l33.5 51q56 -36 126 -36q51 0 90 16.5t71 46.5
q38 37 58 88.5t20 108.5zM421 416l-29 25l-26 -39l-34 -50l-34.5 -52.5l-31.5 -47.5l-26.5 -39.5l-34.5 -50.5l-33 -48.5l-23 -33.5l30 -24l55.5 83.5l64.5 96.5l60.5 89.5zM445 244q0 -45 -14.5 -84.5t-42.5 -68.5q-42 -42 -104 -42q-58 0 -96 35q-34 31 -49 72t-15 92
q0 45 14.5 85.5t40.5 66.5q22 23 47 34t59 11q28 0 54 -10t45 -29q32 -30 46.5 -73t14.5 -89z" />
    <glyph glyph-name="radical" unicode="&#x221a;" 
d="M623 712l-49 18l-268 -662h-2l-150 318h-8l-128 -97l28 -35l79 61l161 -337h37z" />
    <glyph glyph-name="approxequal" unicode="&#x2248;" horiz-adv-x="690" 
d="M589 386l-48 13q-14 -36 -36.5 -58t-54.5 -22q-17 0 -31.5 5.5t-27.5 13.5q-16 9 -32.5 19.5l-32.5 20.5q-14 10 -34 16.5t-41 6.5q-57 0 -96 -34t-54 -88l47 -12q32 80 91 80q17 0 32.5 -6.5t27.5 -13.5l32 -20l33 -21q15 -9 34 -15t40 -6q30 0 55 10t43.5 26.5
t31.5 38.5t21 46zM589 217l-48 14q-14 -37 -36.5 -59t-54.5 -22q-17 0 -31.5 6t-27.5 14q-16 9 -32.5 19.5l-32.5 20.5q-13 9 -32.5 15.5t-42.5 6.5q-57 0 -96 -33.5t-54 -87.5l47 -13q31 80 91 80q17 0 32.5 -6t27.5 -14q15 -8 32 -19.5t33 -20.5q16 -10 34.5 -16t39.5 -6
q30 0 55 10t43.5 26.5t31.5 38.5t21 46z" />
    <glyph glyph-name="Delta" unicode="&#x2206;" horiz-adv-x="673" 
d="M661 42q-4 8 -27.5 59.5l-68.5 146.5l-93 199l-100 216h-64l-102 -219l-95 -198q-92 -188 -99 -204l21 -41h102q48 1 97 1h101h73t104 -1h130zM558 70v-1q-28 -1 -58 -1t-62 -1h-106h-118q-32 1 -59 1t-49 1v1l41.5 90.5l61.5 133.5l67.5 144l57.5 121h1l71 -148l59 -128
l50 -112.5z" />
    <glyph glyph-name="lozenge" unicode="&#x25ca;" horiz-adv-x="690" 
d="M622 256l-276 278l-277 -278l276 -278zM551 256l-206 -207l-204 207l205 207z" />
    <glyph glyph-name="fraction1" unicode="&#x2044;" horiz-adv-x="180" 
d="M328 644l-47 34l-55 -86.5l-60 -93.5l-111 -171l-78 -120l-64 -98l-44.5 -66.5t-18.5 -28.5l47 -35l17.5 27l44.5 70l64 101l78 121l51.5 80.5l58.5 90.5l61 91.5z" />
    <glyph glyph-name="glyph259" horiz-adv-x="604" 
d="M524 589v84h-86v-84h86zM516 0q0 4 -0.5 18.5t-1.5 39.5t-1 67v103q0 45 1 107t2 159h-64h-106h-98h-53v22q0 33 8.5 59.5t24.5 41.5q21 20 47.5 28.5t72.5 8.5h21l-10 62h-23q-60 0 -100.5 -16t-64.5 -41q-28 -30 -39 -64t-11 -77v-24h-96v-57l96 1v-161q0 -74 -1 -140
q-1 -65 -1 -99v-38h77v39q0 36 -1 104v295h46h72h75h51q1 -69 1 -125v-89v-101t-1 -66t-1 -39v-18h78z" />
    <glyph glyph-name="glyph260" horiz-adv-x="620" 
d="M367 654l-9 62h-22q-60 0 -100 -16t-65 -41q-28 -30 -39 -64t-11 -77v-24h-96v-57l96 1v-161q0 -74 -1 -140q-1 -65 -1 -99v-38h77v39q0 36 -1 104v295h171v56h-171v22q0 33 8.5 59.5t24.5 41.5q21 20 47.5 28.5t72.5 8.5h19zM526 0v31t-1 85t-1 120v139v167q1 50 1 93
t1 81h-77q1 -112 1.5 -200t0.5 -146v-102q0 -56 -1 -125t-1 -105v-38h77z" />
    <glyph glyph-name="uniF8FF" unicode="&#xf8ff;" horiz-adv-x="740" 
d="M381 588q-17 0 -69 15q-53 15 -89 15q-86 0 -143 -72q-56 -73 -56 -187q0 -63 19 -126t55 -126q73 -130 151 -130q23 0 65 17t72 17q33 0 75 -16q44 -16 71 -16q32 0 64 23.5t65 74.5q21 32 36.5 63.5t24.5 61.5q-45 14 -79 63q-35 50 -35 112q0 28 8.5 54t24.5 49
q9 13 23.5 28t33.5 32q-24 31 -52 50q-47 32 -107 32q-36 0 -87 -17t-71 -17zM534 790q0 4 -0.5 9t-2.5 12q-88 -20 -125.5 -74.5t-38.5 -128.5q17 1 30.5 3.5t20.5 4.5q14 5 27.5 14t27.5 22q31 32 46 69t15 69z" />
    <glyph glyph-name="nundagesh" unicode="&#x2da;" horiz-adv-x="391" 
d="M289 629q0 20 -7.5 37t-20.5 29.5t-30 19.5t-36 7t-36 -7t-30 -19.5t-20.5 -29.5t-7.5 -37q0 -39 27 -65.5t66 -26.5q19 0 36.5 7t30.5 19.5t20.5 29.5t7.5 36zM246 630q0 -22 -14.5 -37t-36.5 -15q-21 0 -36 14.5t-15 37.5q0 22 14.5 36.5t36.5 14.5t36.5 -14.5
t14.5 -36.5z" />
    <glyph glyph-name="glyph263" horiz-adv-x="391" 
d="M301 -78l-43 48l-165 -143l36 -39z" />
    <glyph glyph-name="glyph264" horiz-adv-x="293" 
d="M176 313l-1 403h-56v-403h57zM176 183h-57v-406h56z" />
    <glyph glyph-name="glyph265" horiz-adv-x="690" 
d="M574 221v53h-457v-53h457z" />
    <glyph glyph-name="glyph266" horiz-adv-x="690" 
d="M545 409l-38 39l-163 -164l-163 165l-38 -38l164 -164l-164 -164l38 -38l163 165l161 -163l39 39l-163 161z" />
    <glyph glyph-name="glyph267" horiz-adv-x="663" 
d="M657 26q-2 4 -26 57l-72 156l-95.5 208.5l-96.5 215.5h-63l-97.5 -214l-93.5 -204l-72 -155t-33 -68l65 -35l31 69l79 177h292l75 -174l22 -52t9 -20zM447 295h-237l26 57l32 71l32 73l28 60h2l61.5 -136.5zM498 730v56h-21t-45 -1h-98h-101q-25 1 -40 1h-21v-56h67
q28 1 52 1h46h36t53 -1h72z" />
    <glyph glyph-name="glyph268" horiz-adv-x="663" 
d="M657 26q-2 4 -26 57l-72 156l-95.5 208.5l-96.5 215.5h-63l-97.5 -214l-93.5 -204l-72 -155t-33 -68l65 -35l31 69l79 177h292l75 -174l22 -52t9 -20zM447 295h-237l26 57l32 71l32 73l28 60h2l61.5 -136.5zM750 -116q-34 0 -57.5 9t-30.5 18q-9 8 -15 22.5t-6 29.5
q0 18 2 30.5l5 30.5l-65 -33q-2 -6 -2.5 -15t-0.5 -21q0 -29 11 -54t35 -43q15 -11 44 -21t64 -10z" />
    <glyph glyph-name="glyph269" horiz-adv-x="577" 
d="M547 60h-23q-66 0 -130 13.5t-118 43.5q-64 37 -94 91t-30 120q0 63 33.5 118t94.5 90q48 27 112.5 40.5t127.5 13.5h16q-2 22 -3.5 41.5t-1.5 28.5h-22q-110 0 -203 -34q-95 -33 -151 -89q-38 -39 -62 -91.5t-24 -116.5q0 -72 24 -126.5t66 -94.5q60 -57 152 -87
t212 -30h17q2 24 4 44.5t3 24.5zM538 792l-28 58l-231 -100l24 -49z" />
    <glyph glyph-name="glyph270" horiz-adv-x="577" 
d="M547 60h-23q-66 0 -130 13.5t-118 43.5q-64 37 -94 91t-30 120q0 63 33.5 118t94.5 90q48 27 112.5 40.5t127.5 13.5h16q-2 22 -3.5 41.5t-1.5 28.5h-22q-110 0 -203 -34q-95 -33 -151 -89q-38 -39 -62 -91.5t-24 -116.5q0 -72 24 -126.5t66 -94.5q60 -57 152 -87
t212 -30h17q2 24 4 44.5t3 24.5zM545 807l-44 34l-114 -97h-1l-114 97l-45 -34l126 -111h66z" />
    <glyph glyph-name="glyph271" horiz-adv-x="731" 
d="M661 323q0 85 -34 148t-106 109q-63 39 -140.5 57t-179.5 18h-13q-10 0 -30 -1h-44q2 -118 2 -199v-135v-101t-1 -108q-1 -55 -1 -83v-29h10q9 0 26 -1t33 -1h34q91 0 162.5 18t129.5 53q69 39 110.5 103.5t41.5 151.5zM578 324q0 -72 -33.5 -122.5t-90.5 -83.5
q-22 -13 -49.5 -23.5t-58.5 -17.5t-63.5 -11t-63.5 -4h-25q-1 141 -1 219v100v80q0 51 1 129h26q27 0 57 -3.5t64 -10.5q67 -14 123 -48q60 -37 87 -89t27 -115zM479 807l-44 34l-114 -97h-1l-114 97l-45 -34l126 -111h66z" />
    <glyph glyph-name="glyph272" horiz-adv-x="731" 
d="M661 323q0 85 -34 148t-106 109q-63 39 -140.5 57t-179.5 18h-12t-30 -1h-45q1 -103 1.5 -173t0.5 -115q-42 0 -71.5 0.5t-33.5 0.5v-57h40q18 1 34 1h31v-106q0 -51 -1 -101q-1 -49 -1 -75v-30q2 0 12 -0.5t24 -0.5q15 0 32.5 -0.5t34.5 -0.5q91 0 162.5 18t129.5 53
q69 39 110.5 103.5t41.5 151.5zM578 324q0 -72 -33.5 -122.5t-90.5 -83.5q-22 -13 -49.5 -23.5t-58.5 -17.5t-63.5 -11t-63.5 -4h-26v85t-0.5 72.5t-0.5 55.5v36h55t51 -1h55v57h-19t-41 -1h-101v95q0 61 1 129h27q27 0 57 -3.5t64 -10.5q67 -14 123 -48q60 -37 87 -89
t27 -115z" />
    <glyph glyph-name="glyph273" horiz-adv-x="731" 
d="M661 323q0 85 -34 148t-106 109q-63 39 -140.5 57t-179.5 18h-12t-30 -1h-45q1 -103 1.5 -173t0.5 -115q-42 0 -71.5 0.5t-33.5 0.5v-57h40q18 1 34 1h31v-106q0 -51 -1 -101q-1 -49 -1 -75v-30q2 0 12 -0.5t24 -0.5q15 0 32.5 -0.5t34.5 -0.5q91 0 162.5 18t129.5 53
q69 39 110.5 103.5t41.5 151.5zM578 324q0 -72 -33.5 -122.5t-90.5 -83.5q-22 -13 -49.5 -23.5t-58.5 -17.5t-63.5 -11t-63.5 -4h-26v85t-0.5 72.5t-0.5 55.5v36h55t51 -1h55v57h-19t-41 -1h-101v95q0 61 1 129h27q27 0 57 -3.5t64 -10.5q67 -14 123 -48q60 -37 87 -89
t27 -115z" />
    <glyph glyph-name="glyph274" horiz-adv-x="604" 
d="M529 1v68q-6 0 -55.5 -0.5t-121.5 -0.5h-89t-70 1q0 36 -0.5 90.5t-0.5 146.5h25t29 0.5t29 0.5h27h67t73 -1t58 -1h23v68h-20t-52 -1t-73 -1h-81q-23 0 -53 0.5t-52 0.5q0 48 1 103t1 110q20 0 55.5 0.5t71.5 0.5q42 0 78 -0.5t62 -0.5q27 0 43 -0.5t19 -0.5v68
q-5 0 -63.5 -0.5t-151.5 -0.5q-57 0 -108.5 0.5t-85.5 0.5q1 -49 1 -96v-92q1 -45 1 -82v-64v-99t-1 -96v-78t-1 -44q35 0 86 0.5t114 0.5h82q38 0 68 -1h65zM489 735v56h-21t-45 -1h-98h-101q-25 1 -40 1h-21v-56h67q28 1 52 1h46h36t53 -1h72z" />
    <glyph glyph-name="glyph275" horiz-adv-x="604" 
d="M529 1v68q-6 0 -55.5 -0.5t-121.5 -0.5h-89t-70 1q0 36 -0.5 90.5t-0.5 146.5h25t29 0.5t29 0.5h27h67t73 -1t58 -1h23v68h-20t-52 -1t-73 -1h-81q-23 0 -53 0.5t-52 0.5q0 48 1 103t1 110q20 0 55.5 0.5t71.5 0.5q42 0 78 -0.5t62 -0.5q27 0 43 -0.5t19 -0.5v68
q-5 0 -63.5 -0.5t-151.5 -0.5q-57 0 -108.5 0.5t-85.5 0.5q1 -49 1 -96v-92q1 -45 1 -82v-64v-99t-1 -96v-78t-1 -44q35 0 86 0.5t114 0.5h82q38 0 68 -1h65zM375 718v90h-96v-90h96z" />
    <glyph glyph-name="glyph276" horiz-adv-x="604" 
d="M624 -117q-26 0 -48.5 7t-36.5 18q-9 8 -16.5 23t-7.5 37q0 32 6.5 59.5t10.5 38.5v3h-21q-17 0 -49 -1h-110h-89t-70 1q0 36 -0.5 90.5t-0.5 146.5h25t29 0.5t29 0.5h27h67t73 -1t58 -1h23v68h-20t-52 -1t-73 -1h-81q-23 0 -53 0.5t-52 0.5q0 48 1 103t1 110
q20 0 55.5 0.5t71.5 0.5q42 0 78 -0.5t62 -0.5q27 0 43 -0.5t19 -0.5v68q-5 0 -63.5 -0.5t-151.5 -0.5q-57 0 -108.5 0.5t-85.5 0.5q1 -49 1 -96v-92q1 -45 1 -82v-64v-99t-1 -96v-78t-1 -44q35 0 86 0.5t114 0.5h73q29 0 41 -1h29q-2 -12 -2.5 -21.5t-0.5 -21.5
q0 -31 11 -57t38 -45q16 -11 43.5 -20t61.5 -9z" />
    <glyph glyph-name="glyph277" horiz-adv-x="604" 
d="M529 1v68q-6 0 -55.5 -0.5t-121.5 -0.5h-89t-70 1q0 36 -0.5 90.5t-0.5 146.5h25t29 0.5t29 0.5h27h67t73 -1t58 -1h23v68h-20t-52 -1t-73 -1h-81q-23 0 -53 0.5t-52 0.5q0 48 1 103t1 110q20 0 55.5 0.5t71.5 0.5q42 0 78 -0.5t62 -0.5q27 0 43 -0.5t19 -0.5v68
q-5 0 -63.5 -0.5t-151.5 -0.5q-57 0 -108.5 0.5t-85.5 0.5q1 -49 1 -96v-92q1 -45 1 -82v-64v-99t-1 -96v-78t-1 -44q35 0 86 0.5t114 0.5h82q38 0 68 -1h65zM488 807l-44 34l-114 -97h-1l-114 97l-45 -34l126 -111h66z" />
    <glyph glyph-name="glyph278" horiz-adv-x="688" 
d="M597 336h-80l1.5 -200t0.5 -75q-63 0 -121 11t-112 37q-60 31 -97 84.5t-37 134.5q0 66 36 122.5t99 89.5q46 24 108 37t137 13q9 0 22.5 -0.5t15.5 -0.5l-6 71h-42q-78 0 -148.5 -15t-127.5 -44q-84 -43 -130.5 -112.5t-46.5 -159.5q0 -72 24 -128.5t66 -94.5
q65 -62 154 -87t206 -25q12 0 24.5 0.5t23.5 1.5t19 1.5t10 0.5v20q0 17 -1 47q-1 31 -1 58v53v35q0 20 1 43t1 44t1 38zM579 823l-53 18q-4 -13 -12.5 -30t-19.5 -31q-11 -13 -28.5 -24.5t-41.5 -11.5q-26 0 -41 10t-29 27q-11 14 -19.5 31.5t-12.5 28.5l-52 -17
q3 -12 12.5 -33.5t27.5 -43.5q18 -21 46 -36.5t68 -15.5q43 0 69 15t45 37q17 18 27.5 41.5t13.5 34.5z" />
    <glyph glyph-name="glyph279" horiz-adv-x="688" 
d="M522 -6q10 0 22.5 0.5t23 1.5t18.5 1.5t10 0.5v20q0 17 -1 47q-1 31 -1 58v53v35q0 20 1 43t1 44t1 38h-80l1.5 -200t0.5 -75q-63 0 -121 11t-112 37q-60 31 -97 84.5t-37 134.5q0 66 36 122.5t99 89.5q46 24 108 37t137 13q9 0 22.5 -0.5t15.5 -0.5l-6 71h-42
q-78 0 -148.5 -15t-127.5 -44q-84 -43 -130.5 -112.5t-46.5 -159.5q0 -72 24 -128t66 -95q27 -26 58 -45t67 -32.5t79.5 -21.5t96.5 -11q0 -41 -7 -61t-22 -35q-11 -10 -36 -19.5t-76 -11.5l9 -56h5q42 0 72 10.5t46 19.5q40 23 58 68q7 18 9.5 40.5t3.5 42.5z" />
    <glyph glyph-name="glyph280" horiz-adv-x="688" 
d="M597 336h-80l1.5 -200t0.5 -75q-63 0 -121 11t-112 37q-60 31 -97 84.5t-37 134.5q0 66 36 122.5t99 89.5q46 24 108 37t137 13q9 0 22.5 -0.5t15.5 -0.5l-6 71h-42q-78 0 -148.5 -15t-127.5 -44q-84 -43 -130.5 -112.5t-46.5 -159.5q0 -72 24 -128.5t66 -94.5
q65 -62 154 -87t206 -25q12 0 24.5 0.5t23.5 1.5t19 1.5t10 0.5v20q0 17 -1 47q-1 31 -1 58v53v35q0 20 1 43t1 44t1 38zM511 -78l-43 48l-165 -143l36 -39z" />
    <glyph glyph-name="glyph281" horiz-adv-x="310" 
d="M308 730v56h-19t-41 -1h-94h-96q-25 1 -39 1h-17v-56h62q26 1 49 1h43h36q22 0 51 -1h65zM195 0q0 29 -1 110.5t-1 229.5v151q1 47 1 87q0 41 1 76h-80q1 -49 1 -96v-92q1 -45 1 -82v-64q0 -140 -1 -215.5t-1 -104.5h80z" />
    <glyph glyph-name="glyph282" horiz-adv-x="310" 
d="M203 723v90h-96v-90h96zM195 0q0 29 -1 110.5t-1 229.5v151q1 47 1 87q0 41 1 76h-80q1 -49 1 -96v-92q1 -45 1 -82v-64q0 -140 -1 -215.5t-1 -104.5h80z" />
    <glyph glyph-name="glyph283" horiz-adv-x="310" 
d="M117 320q0 -140 -1 -215.5t-1 -104.5q-2 -13 -2.5 -21.5t-0.5 -20.5q0 -31 11 -57t39 -45q15 -11 42.5 -20t61.5 -9l16 56q-27 0 -49.5 7t-36.5 18q-8 7 -15.5 22.5t-7.5 37.5q0 10 0.5 16.5t1.5 15.5h20q0 29 -1 110.5t-1 229.5v151q1 47 1 87q0 41 1 76h-80
q1 -49 1 -96v-92q1 -45 1 -82v-64z" />
    <glyph glyph-name="glyph284" horiz-adv-x="310" 
d="M195 0q0 29 -1 110.5t-1 229.5v151q1 47 1 87q0 41 1 76h-80q1 -49 1 -96v-92q1 -45 1 -82v-64q0 -140 -1 -215.5t-1 -104.5h80z" />
    <glyph glyph-name="glyph285" horiz-adv-x="631" 
d="M618 45l-116 105.5l-99 90.5l-68.5 63l-22.5 21v1l111 114l88 88.5l85 83.5l-55 49l-199 -211q-99 -103 -130 -133v-2l39 -35l85 -78l111 -101.5l115 -109.5zM194 0q0 29 -1 105.5t-1 216.5v163q1 48 1 89q0 42 1 80h-80q1 -78 1.5 -153t0.5 -132v-130q0 -59 -1 -110v-83
t-1 -46h19q0 -51 -7 -66q-8 -18 -22 -34q-11 -10 -36.5 -19.5t-75.5 -11.5l8 -56h6q43 0 72.5 10.5t45.5 19.5q36 21 53 59t17 98z" />
    <glyph glyph-name="glyph286" horiz-adv-x="631" 
d="M194 0q0 29 -1 105.5t-1 216.5v163q1 48 1 89q0 42 1 80h-80q1 -78 1.5 -153t0.5 -132v-130q0 -59 -1 -110v-83t-1 -46h80zM618 45l-115 104l-95 86q-86 79 -96 90v1l111 114l88 88.5l85 83.5l-55 49l-199 -211q-99 -103 -130 -133v-2l39 -35l85 -78l111 -101.5
l115 -109.5zM433 -78l-43 48l-165 -143l36 -39z" />
    <glyph glyph-name="glyph287" horiz-adv-x="539" 
d="M514 1v68h-20q-17 0 -49 -1t-70 -1h-82q-23 0 -51.5 0.5t-48.5 0.5v25t-1 66v214v135q1 42 1 78t1 68h-80q0 -15 0.5 -39.5t0.5 -62.5t0.5 -90.5t0.5 -121.5q0 -84 -0.5 -169t-1.5 -170q35 0 86.5 0.5t109.5 0.5q87 0 142.5 -0.5t61.5 -0.5zM365 792l-28 58l-231 -100
l24 -49z" />
    <glyph glyph-name="glyph288" horiz-adv-x="539" 
d="M382 1h132v68h-20q-17 0 -49 -1t-70 -1h-82q-23 0 -51.5 0.5t-48.5 0.5v25t-1 66v214v135q1 42 1 78t1 68h-80q0 -15 0.5 -39.5t0.5 -62.5t0.5 -90.5t0.5 -121.5q0 -84 -0.5 -169t-1.5 -170h90h117q0 -49 -7 -66q-7 -19 -22 -35q-11 -10 -36.5 -19.5t-75.5 -11.5l8 -56h6
q42 0 71.5 10.5t45.5 19.5q37 22 54 60t17 98z" />
    <glyph glyph-name="glyph289" horiz-adv-x="539" 
d="M450 668l-64 29l-97 -223l54 -24zM514 1v68h-20q-17 0 -49 -1t-70 -1h-82q-23 0 -51.5 0.5t-48.5 0.5v25t-1 66v214v135q1 42 1 78t1 68h-80q0 -15 0.5 -39.5t0.5 -62.5t0.5 -90.5t0.5 -121.5q0 -84 -0.5 -169t-1.5 -170q35 0 86.5 0.5t109.5 0.5q87 0 142.5 -0.5
t61.5 -0.5z" />
    <glyph glyph-name="glyph290" horiz-adv-x="539" 
d="M514 1v68h-20q-17 0 -49 -1t-70 -1h-82q-23 0 -51.5 0.5t-48.5 0.5v25t-1 66v214v135q1 42 1 78t1 68h-80q0 -15 0.5 -39.5t0.5 -62.5t0.5 -90.5t0.5 -121.5q0 -84 -0.5 -169t-1.5 -170q35 0 86.5 0.5t109.5 0.5q87 0 142.5 -0.5t61.5 -0.5zM471 271v89h-95v-89h95z" />
    <glyph glyph-name="glyph291" horiz-adv-x="539" 
d="M192 248l55 25.5l61 28.5l50.5 23.5t23.5 10.5l-24 50l-20 -10l-45 -22l-54.5 -25.5l-47.5 -21.5v66v59q0 34 1 76t1.5 78t0.5 68h-80q0 -15 0.5 -39.5t1 -62.5t1 -90.5t0.5 -121.5q0 -16 -0.5 -33t-0.5 -33q-34 -17 -63 -30t-35 -15l25 -49q9 5 28.5 14.5l44.5 21.5
q0 -54 -0.5 -108.5t-1.5 -106.5q35 0 87 0.5t109 0.5h79q37 0 63.5 -0.5t42.5 -0.5h19v68h-19t-50 -1q-32 -1 -70 -1h-82q-22 0 -51 0.5t-49 0.5q0 3 -0.5 52t-0.5 128z" />
    <glyph glyph-name="glyph292" horiz-adv-x="539" 
d="M514 1v68h-20q-17 0 -49 -1t-70 -1h-82q-23 0 -51.5 0.5t-48.5 0.5v25t-1 66v214v135q1 42 1 78t1 68h-80q0 -15 0.5 -39.5t0.5 -62.5t0.5 -90.5t0.5 -121.5q0 -84 -0.5 -169t-1.5 -170q35 0 86.5 0.5t109.5 0.5q87 0 142.5 -0.5t61.5 -0.5zM402 -78l-43 48l-165 -143
l36 -39z" />
    <glyph glyph-name="glyph293" horiz-adv-x="790" 
d="M676 654h-76q0 -43 0.5 -108.5t1.5 -155.5t1.5 -152.5t0.5 -100.5l-1 -1l-128.5 160l-136.5 172l-108 137.5t-42 52.5l-74 -35q1 -100 1.5 -187t0.5 -141q0 -134 -1 -208.5t-1 -86.5h76q-1 28 -3 220q-1 96 -1 176v146h1l47 -59l101 -127l132.5 -170l143.5 -189l65 32
q0 3 -0.5 25t-0.5 62t-0.5 95.5t-0.5 124.5v142q1 50 1 94t1 82zM579 782l-28 58l-231 -100l24 -49z" />
    <glyph glyph-name="glyph294" horiz-adv-x="790" 
d="M676 654h-76q0 -43 0.5 -108.5t1.5 -155.5t1.5 -152.5t0.5 -100.5l-1 -1l-128.5 160l-136.5 172l-108 137.5t-42 52.5l-74 -35q1 -100 1.5 -187t0.5 -141q0 -134 -1 -208.5t-1 -86.5h14q0 -51 -7 -66q-8 -18 -22 -34q-11 -10 -36 -19.5t-76 -11.5l9 -56h5q45 0 74 10.5
t44 19.5q37 21 54 59t17 98q-1 28 -3 220q-1 96 -1 176v146h1l47 -59l101 -127l132.5 -170l143.5 -189l65 32q0 3 -0.5 25t-0.5 62t-0.5 95.5t-0.5 124.5v142q1 50 1 94t1 82z" />
    <glyph glyph-name="glyph295" horiz-adv-x="790" 
d="M676 654h-76q0 -43 0.5 -108.5t1.5 -155.5t1.5 -152.5t0.5 -100.5l-1 -1l-128.5 160l-136.5 172l-108 137.5t-42 52.5l-74 -35q1 -100 1.5 -187t0.5 -141q0 -134 -1 -208.5t-1 -86.5h76q-1 28 -3 220q-1 96 -1 176v146h1l47 -59l101 -127l132.5 -170l143.5 -189l65 32
q0 3 -0.5 25t-0.5 62t-0.5 95.5t-0.5 124.5v142q1 50 1 94t1 82zM566 797l-44 34l-114 -97h-1l-114 97l-45 -34l126 -111h66z" />
    <glyph glyph-name="glyph296" horiz-adv-x="790" 
d="M676 654h-76q0 -43 0.5 -108.5t1.5 -155.5t1.5 -152.5t0.5 -100.5l-1 -1l-128.5 160l-136.5 172l-108 137.5t-42 52.5l-74 -35q1 -100 1.5 -187t0.5 -141q0 -134 -1 -208.5t-1 -86.5h76q-1 28 -3 220q-1 96 -1 176v146h1l47 -59l101 -127l132.5 -170l143.5 -189l65 32
q0 3 -0.5 25t-0.5 62t-0.5 95.5t-0.5 124.5v142q1 50 1 94t1 82zM488 -78l-43 48l-165 -143l36 -39z" />
    <glyph glyph-name="glyph297" horiz-adv-x="756" 
d="M693 327q0 75 -24.5 141t-72.5 115q-42 42 -98 65.5t-122 23.5q-64 0 -123 -25t-101 -71q-46 -51 -69 -112t-23 -136q0 -85 29 -152.5t77 -112.5q42 -42 96 -62t114 -20q63 0 117 21.5t102 69.5q45 43 71.5 109.5t26.5 145.5zM609 319q0 -67 -23 -121t-60 -90
q-31 -29 -69 -45t-81 -16t-81.5 16.5t-65.5 42.5q-42 39 -63.5 94t-21.5 127q0 63 21.5 120t60.5 96q63 63 150 63q45 0 81.5 -15.5t65.5 -44.5q45 -42 65.5 -103t20.5 -124zM538 735v56h-21t-45 -1h-98h-101q-25 1 -40 1h-21v-56h67q28 1 52 1h46h36t53 -1h72z" />
    <glyph glyph-name="glyph298" horiz-adv-x="756" 
d="M693 327q0 75 -24.5 141t-72.5 115q-42 42 -98 65.5t-122 23.5q-64 0 -123 -25t-101 -71q-46 -51 -69 -112t-23 -136q0 -85 29 -152.5t77 -112.5q42 -42 96 -62t114 -20q63 0 117 21.5t102 69.5q45 43 71.5 109.5t26.5 145.5zM609 319q0 -67 -23 -121t-60 -90
q-31 -29 -69 -45t-81 -16t-81.5 16.5t-65.5 42.5q-42 39 -63.5 94t-21.5 127q0 63 21.5 120t60.5 96q63 63 150 63q45 0 81.5 -15.5t65.5 -44.5q45 -42 65.5 -103t20.5 -124zM450 833l-44 40l-155 -139l36 -32zM610 832l-43 40l-154 -139l34 -32z" />
    <glyph glyph-name="glyph299" horiz-adv-x="634" 
d="M618 39q-7 6 -86 89l-76 82l-70 80v2q19 11 39 28t41 40q43 46 43 116q0 54 -28 93.5t-77 60.5q-38 16 -78 21t-82 5h-39t-42 -1t-35 -1h-14q1 -88 1.5 -148t0.5 -93v-90q0 -126 -1 -210t-1 -113h80v50t-1 94t-1 103v79q0 29 0.5 100t1.5 163q4 0 13.5 0.5t26.5 0.5
q27 0 58 -2.5t60 -12.5q34 -13 54 -40t20 -65q0 -42 -13.5 -66t-31.5 -40q-11 -9 -24.5 -18.5t-27.5 -17t-27 -13t-22 -8.5l-1 -4l118.5 -134.5l83.5 -94.5l52 -58.5t24 -26.5zM467 792l-28 58l-231 -100l24 -49z" />
    <glyph glyph-name="glyph300" horiz-adv-x="634" 
d="M618 39q-7 6 -86 89l-76 82l-70 80v2q19 11 39 28t41 40q43 46 43 116q0 54 -28 93.5t-77 60.5q-38 16 -78 21t-82 5h-39t-42 -1t-35 -1h-14q1 -88 1.5 -148t0.5 -93v-90q0 -126 -1 -210t-1 -113h19q0 -51 -7 -66q-8 -18 -22 -34q-11 -10 -36.5 -19.5t-75.5 -11.5l8 -56
h6q43 0 72 10.5t46 19.5q70 39 70 157v50t-1 94t-1 103v79q0 29 0.5 100t1.5 163q4 0 13.5 0.5t26.5 0.5q27 0 58 -2.5t60 -12.5q34 -13 54 -40t20 -65q0 -42 -13.5 -66t-31.5 -40q-11 -9 -24.5 -18.5t-27.5 -17t-27 -13t-22 -8.5l-1 -4l118.5 -134.5l83.5 -94.5l52 -58.5
t24 -26.5z" />
    <glyph glyph-name="glyph301" horiz-adv-x="634" 
d="M618 39q-7 6 -86 89l-76 82l-70 80v2q19 11 39 28t41 40q43 46 43 116q0 54 -28 93.5t-77 60.5q-38 16 -78 21t-82 5h-39t-42 -1t-35 -1h-14q1 -88 1.5 -148t0.5 -93v-90q0 -126 -1 -210t-1 -113h80v50t-1 94t-1 103v79q0 29 0.5 100t1.5 163q4 0 13.5 0.5t26.5 0.5
q27 0 58 -2.5t60 -12.5q34 -13 54 -40t20 -65q0 -42 -13.5 -66t-31.5 -40q-11 -9 -24.5 -18.5t-27.5 -17t-27 -13t-22 -8.5l-1 -4l118.5 -134.5l83.5 -94.5l52 -58.5t24 -26.5zM460 807l-44 34l-114 -97h-1l-114 97l-45 -34l126 -111h66z" />
    <glyph glyph-name="glyph302" horiz-adv-x="634" 
d="M618 39q-7 6 -86 89l-76 82l-70 80v2q19 11 39 28t41 40q43 46 43 116q0 54 -28 93.5t-77 60.5q-38 16 -78 21t-82 5h-39t-42 -1t-35 -1h-14q1 -88 1.5 -148t0.5 -93v-90q0 -126 -1 -210t-1 -113h80v50t-1 94t-1 103v79q0 29 0.5 100t1.5 163q4 0 13.5 0.5t26.5 0.5
q27 0 58 -2.5t60 -12.5q34 -13 54 -40t20 -65q0 -42 -13.5 -66t-31.5 -40q-11 -9 -24.5 -18.5t-27.5 -17t-27 -13t-22 -8.5l-1 -4l118.5 -134.5l83.5 -94.5l52 -58.5t24 -26.5zM439 -78l-43 48l-165 -143l36 -39z" />
    <glyph glyph-name="glyph303" horiz-adv-x="504" 
d="M441 184q0 95 -98 151q-32 19 -65 35t-53 28q-39 23 -53.5 45.5t-14.5 46.5q0 27 13.5 47t33.5 31q22 13 51 19t56 6q46 0 77 -3t36 -4l-7 71q-2 0 -11.5 1t-23.5 1.5t-30.5 1t-31.5 0.5q-55 0 -100 -11.5t-76 -35.5q-31 -23 -50.5 -56t-19.5 -78t21 -80.5t72 -65.5
q29 -18 65.5 -35t59.5 -31q36 -21 51 -43.5t15 -55.5q0 -31 -15 -51t-44 -34q-23 -11 -63 -18q-41 -6 -67 -6q-43 0 -74 2.5t-38 3.5l4 -70q4 -1 38 -3q17 -1 33.5 -1.5t32.5 -0.5q115 0 189 44q40 23 63.5 60.5t23.5 88.5zM426 792l-28 58l-231 -100l24 -49z" />
    <glyph glyph-name="glyph304" horiz-adv-x="504" 
d="M441 184q0 95 -98 151q-32 19 -65 35t-53 28q-39 23 -53.5 45.5t-14.5 46.5q0 27 13.5 47t33.5 31q22 13 51 19t56 6q46 0 77 -3t36 -4l-7 71q-2 0 -11.5 1t-23.5 1.5t-30.5 1t-31.5 0.5q-55 0 -100 -11.5t-76 -35.5q-31 -23 -50.5 -56t-19.5 -78t21 -80.5t72 -65.5
q29 -18 65.5 -35t59.5 -31q36 -21 51 -43.5t15 -55.5q0 -31 -15 -51t-44 -34q-23 -11 -63 -18q-41 -6 -67 -6q-43 0 -74 2.5t-38 3.5l4 -70q4 -1 38 -3q17 -1 33.5 -1.5t32.5 -0.5q21 0 40.5 2t32.5 4q0 -24 -1.5 -40.5t-5.5 -27.5t-9.5 -19.5t-12.5 -15.5q-11 -11 -36 -20
t-76 -11l8 -56h6q45 0 73.5 10.5t44.5 19.5q37 20 54.5 58.5t17.5 115.5q23 7 53 24q40 23 63.5 60.5t23.5 88.5z" />
    <glyph glyph-name="glyph305" horiz-adv-x="504" 
d="M441 184q0 95 -98 151q-32 19 -65 35t-53 28q-39 23 -53.5 45.5t-14.5 46.5q0 27 13.5 47t33.5 31q22 13 51 19t56 6q46 0 77 -3t36 -4l-7 71q-2 0 -11.5 1t-23.5 1.5t-30.5 1t-31.5 0.5q-55 0 -100 -11.5t-76 -35.5q-31 -23 -50.5 -56t-19.5 -78t21 -80.5t72 -65.5
q29 -18 65.5 -35t59.5 -31q36 -21 51 -43.5t15 -55.5q0 -31 -15 -51t-44 -34q-23 -11 -63 -18q-41 -6 -67 -6q-43 0 -74 2.5t-38 3.5l4 -70q4 -1 38 -3q17 -1 33.5 -1.5t32.5 -0.5q115 0 189 44q40 23 63.5 60.5t23.5 88.5zM448 807l-44 34l-114 -97h-1l-114 97l-45 -34
l126 -111h66z" />
    <glyph glyph-name="glyph306" horiz-adv-x="570" 
d="M565 584v68h-25q-21 0 -61 -1h-197q-82 0 -153.5 0.5t-122.5 0.5v-68q6 0 70.5 1t169.5 0q1 -52 1 -91v-63v-135v-87t-1 -90v-75t-1 -44h19q0 -51 -7 -66q-8 -19 -23 -34q-10 -10 -35 -19.5t-76 -11.5l8 -56h6q43 0 72 10.5t45 19.5q38 20 54.5 58.5t16.5 98.5v43
q0 30 -1 75t-1 88v86v141q1 26 1 63q0 38 1 89q117 0 174.5 -0.5t65.5 -0.5z" />
    <glyph glyph-name="glyph307" horiz-adv-x="570" 
d="M565 584v68h-25q-21 0 -61 -1h-197q-82 0 -153.5 0.5t-122.5 0.5v-68q6 0 70.5 1t169.5 0q1 -52 1 -91v-63v-135v-87t-1 -90v-75t-1 -44h80v43q0 30 -1 75t-1 88v86v141q1 26 1 63q0 38 1 89q117 0 174.5 -0.5t65.5 -0.5zM444 807l-44 34l-114 -97h-1l-114 97l-45 -34
l126 -111h66z" />
    <glyph glyph-name="glyph308" horiz-adv-x="755" 
d="M646 654h-80v-24t1 -57t1 -84v-105q0 -35 -0.5 -73t-0.5 -77q0 -94 -46.5 -138t-142.5 -44q-88 0 -139 46t-51 136v150q0 117 0.5 187.5t0.5 82.5h-80q0 -94 1 -155t1 -107q0 -57 -0.5 -95.5t-0.5 -67.5q0 -57 17 -100t51 -75q35 -33 84.5 -51t115.5 -18t115.5 18
t83.5 51q34 32 51 75t17 100v163q0 46 0.5 107t0.5 155zM481 756q0 21 -8 40t-22.5 32.5t-33 21.5t-39.5 8t-39.5 -7.5t-33 -21t-22.5 -32.5t-8 -41t8 -41t22 -32.5t32.5 -21t39.5 -7.5q22 0 41 8t33 21.5t22 32.5t8 40zM434 756q0 -24 -15.5 -40.5t-39.5 -16.5t-40 16.5
t-16 40.5q0 25 16 41t40 16t39.5 -16t15.5 -41z" />
    <glyph glyph-name="glyph309" horiz-adv-x="755" 
d="M646 654h-80v-24t1 -57t1 -84v-105q0 -35 -0.5 -73t-0.5 -77q0 -94 -46.5 -138t-142.5 -44q-88 0 -139 46t-51 136v150q0 117 0.5 187.5t0.5 82.5h-80q0 -94 1 -155t1 -107q0 -57 -0.5 -95.5t-0.5 -67.5q0 -57 17 -100t51 -75q35 -33 84.5 -51t115.5 -18t115.5 18
t83.5 51q34 32 51 75t17 100v163q0 46 0.5 107t0.5 155zM538 730v56h-21t-45 -1h-98h-101q-25 1 -40 1h-21v-56h67q28 1 52 1h46h36t53 -1h72z" />
    <glyph glyph-name="glyph310" horiz-adv-x="755" 
d="M338 -13q-1 -8 -1 -14v-15q0 -32 11 -58t38 -44q15 -10 43.5 -19.5t61.5 -9.5l16 56q-26 0 -48.5 7t-37.5 18q-7 6 -15 21.5t-8 38.5v18q54 2 100.5 19.5t78.5 48.5q68 62 68 175v163q0 45 0.5 106.5t0.5 155.5h-80q0 -3 0.5 -24.5t0.5 -56.5t0.5 -83.5t0.5 -105.5
q0 -35 -0.5 -73.5t-0.5 -76.5q0 -94 -46.5 -138t-142.5 -44q-88 0 -139 46t-51 136v150q0 115 0.5 186.5t0.5 83.5h-80q0 -94 1 -155.5t1 -106.5q0 -57 -0.5 -96t-0.5 -67q0 -112 68 -175q28 -26 65.5 -44t94.5 -23z" />
    <glyph glyph-name="glyph311" horiz-adv-x="755" 
d="M646 654h-80v-24t1 -57t1 -84v-105q0 -35 -0.5 -73t-0.5 -77q0 -94 -46.5 -138t-142.5 -44q-88 0 -139 46t-51 136v150q0 117 0.5 187.5t0.5 82.5h-80q0 -94 1 -155t1 -107q0 -57 -0.5 -95.5t-0.5 -67.5q0 -57 17 -100t51 -75q35 -33 84.5 -51t115.5 -18t115.5 18
t83.5 51q34 32 51 75t17 100v163q0 46 0.5 107t0.5 155zM451 833l-44 40l-155 -139l36 -32zM611 832l-43 40l-154 -139l34 -32z" />
    <glyph glyph-name="glyph312" horiz-adv-x="579" 
d="M574 622l-57 43q-2 -2 -22 -28l-58 -75l-73.5 -95.5l-70.5 -91.5h-1l-70.5 93l-70.5 94l-54 73.5t-23 29.5l-64 -49q4 -4 27 -33.5l67 -86.5l81.5 -103l66.5 -87v-84t-1 -94t-1 -82v-46h80q0 14 -0.5 45.5t-1.5 80.5q-2 97 0 186l66 83l83 105l71 89.5t26 32.5zM482 792
l-28 58l-231 -100l24 -49z" />
    <glyph glyph-name="glyph313" horiz-adv-x="597" 
d="M573 1v72h-23t-59 -1t-84 -1h-98q-54 0 -96 0.5t-73 0.5v1l146.5 187l125.5 158l94.5 118.5l52.5 65.5l-24 50h-25t-57 -1h-175q-67 0 -123.5 0.5t-95.5 0.5v-68h25q21 0 56 1q36 1 77 1h88h61t82 -1v-1l-115.5 -150l-116.5 -149l-106 -132l-82 -101l22 -51h82q38 1 84 1
h101q51 0 111 -0.5t145 -0.5zM462 792l-28 58l-231 -100l24 -49z" />
    <glyph glyph-name="glyph314" horiz-adv-x="597" 
d="M573 1v72h-23t-59 -1t-84 -1h-98q-54 0 -96 0.5t-73 0.5v1l146.5 187l125.5 158l94.5 118.5l52.5 65.5l-24 50h-25t-57 -1h-175q-67 0 -123.5 0.5t-95.5 0.5v-68h25q21 0 56 1q36 1 77 1h88h61t82 -1v-1l-115.5 -150l-116.5 -149l-106 -132l-82 -101l22 -51h82q38 1 84 1
h101q51 0 111 -0.5t145 -0.5zM351 718v90h-96v-90h96z" />
    <glyph glyph-name="glyph315" horiz-adv-x="597" 
d="M573 1v72h-23t-59 -1t-84 -1h-98q-54 0 -96 0.5t-73 0.5v1l146.5 187l125.5 158l94.5 118.5l52.5 65.5l-24 50h-25t-57 -1h-175q-67 0 -123.5 0.5t-95.5 0.5v-68h25q21 0 56 1q36 1 77 1h88h61t82 -1v-1l-115.5 -150l-116.5 -149l-106 -132l-82 -101l22 -51h82q38 1 84 1
h101q51 0 111 -0.5t145 -0.5zM462 807l-44 34l-114 -97h-1l-114 97l-45 -34l126 -111h66z" />
    <glyph glyph-name="glyph316" horiz-adv-x="565" 
d="M523 333q0 60 -23 104t-68 72q-45 29 -105.5 38.5t-133.5 9.5l1 97h-80v-33q0 -27 1 -78q1 -50 1 -97v-92q0 -168 -1 -258t-1 -96h80l-1 109q88 0 142.5 12t91.5 37q42 27 69 72t27 103zM439 333q0 -51 -22.5 -85.5t-71.5 -56.5q-26 -11 -63 -15.5t-70 -4.5h-19v19t-1 38
v85v46t1 59q1 34 1 52v23h18q37 0 71 -3t63 -16q48 -20 70.5 -55t22.5 -86z" />
    <glyph glyph-name="glyph317" horiz-adv-x="391" 
d="M303 750l-231 100l-28 -58l234 -91z" />
    <glyph glyph-name="glyph318" horiz-adv-x="391" 
d="M347 792l-28 58l-231 -100l24 -49z" />
    <glyph glyph-name="glyph319" horiz-adv-x="391" 
d="M354 713v90h-93v-90h93zM129 713v90h-93v-90h93z" />
    <glyph glyph-name="glyph320" horiz-adv-x="391" 
d="M354 726l-125 115h-67l-126 -110l45 -35l114 98h1l115 -104z" />
    <glyph glyph-name="glyph321" horiz-adv-x="391" 
d="M369 818l-52 10q-7 -32 -21 -50.5t-33 -18.5q-20 0 -33 10q-7 5 -17 14t-21 16q-9 7 -24 12.5t-33 5.5q-48 0 -79 -36q-30 -36 -36 -76l51 -10q8 31 21.5 50t32.5 19q20 0 33 -10q10 -7 19.5 -15.5t18.5 -14.5q7 -5 23 -11.5t33 -6.5q51 0 80 35q30 36 37 77z" />
    <glyph glyph-name="glyph322" horiz-adv-x="391" 
d="M358 735v56h-21t-45 -1h-98h-101q-25 1 -40 1h-21v-56h67q28 1 52 1h46h36t53 -1h72z" />
    <glyph glyph-name="glyph323" horiz-adv-x="391" 
d="M350 823l-53 18q-4 -13 -12.5 -30t-19.5 -31q-11 -13 -28.5 -24.5t-41.5 -11.5q-26 0 -41 10t-29 27q-11 14 -19.5 31.5t-12.5 28.5l-52 -17q3 -12 12.5 -33.5t27.5 -43.5q18 -21 46 -36.5t68 -15.5q43 0 69 15t45 37q17 18 27.5 41.5t13.5 34.5z" />
    <glyph glyph-name="glyph324" horiz-adv-x="391" 
d="M243 718v90h-96v-90h96z" />
    <glyph glyph-name="glyph325" horiz-adv-x="391" 
d="M299 780q0 21 -8 40t-22.5 32.5t-33 21.5t-39.5 8t-39.5 -7.5t-33 -21t-22.5 -32.5t-8 -41t8 -41t22 -32.5t32.5 -21t39.5 -7.5q22 0 41 8t33 21.5t22 32.5t8 40zM252 780q0 -24 -15.5 -40.5t-39.5 -16.5t-40 16.5t-16 40.5q0 25 16 41t40 16t39.5 -16t15.5 -41z" />
    <glyph glyph-name="glyph326" horiz-adv-x="391" 
d="M262 833l-44 40l-155 -139l36 -32zM422 832l-43 40l-154 -139l34 -32z" />
    <glyph glyph-name="glyph327" horiz-adv-x="391" 
d="M354 807l-44 34l-114 -97h-1l-114 97l-45 -34l126 -111h66z" />
    <glyph glyph-name="glyph328" horiz-adv-x="1000" 
d="M387 462q0 34 -11 84q-11 49 -36 77q-23 25 -52 37t-69 12q-39 0 -68 -11.5t-52 -37.5q-27 -32 -37 -77t-10 -84q0 -18 2.5 -39t7.5 -44q11 -47 37 -78q23 -25 51.5 -37.5t68.5 -12.5q39 0 67.5 11.5t53.5 38.5q26 29 36 77q11 52 11 84zM320 462q0 -29 -6 -61t-20 -56
q-10 -19 -28 -31t-47 -12q-31 0 -47.5 11t-27.5 32q-15 26 -20.5 59.5t-5.5 57.5q0 27 5.5 58.5t20.5 57.5q12 21 29 32t46 11q30 0 46.5 -11t28.5 -32q7 -12 12 -27.5t8 -31.5t4.5 -31t1.5 -26zM733 644l-47 34l-55 -86.5l-60 -93.5l-111 -171l-76.5 -118.5l-63.5 -97.5
l-45 -68t-20 -29l48 -35q4 7 19.5 32l43.5 69l62.5 98.5l77.5 119.5l111 171l61 91.5zM940 203q0 33 -11 83q-11 49 -36 77q-23 26 -52 38t-69 12t-69 -12t-51 -38q-27 -32 -37 -76.5t-10 -84.5q0 -37 10 -83q11 -47 36 -77q23 -26 51 -38.5t70 -12.5q39 0 67.5 11.5
t53.5 39.5t35 76q12 49 12 85zM873 202q0 -29 -6.5 -61t-19.5 -56q-11 -19 -29 -31t-46 -12q-31 0 -47.5 11t-28.5 32q-14 26 -20 59.5t-6 58.5q0 26 6 57.5t20 57.5q12 21 29.5 32t46.5 11q30 0 46.5 -11t28.5 -32q6 -12 11 -27.5t8.5 -31t5 -30.5t1.5 -27z" />
    <glyph glyph-name="glyph329" horiz-adv-x="1397" 
d="M387 462q0 34 -11 84q-11 49 -36 77q-23 25 -52 37t-69 12q-39 0 -68 -11.5t-52 -37.5q-27 -32 -37 -77t-10 -84q0 -18 2.5 -39t7.5 -44q11 -47 37 -78q23 -25 51.5 -37.5t68.5 -12.5q39 0 67.5 11.5t53.5 38.5q26 29 36 77q11 52 11 84zM320 462q0 -29 -6 -61t-20 -56
q-10 -19 -28 -31t-47 -12q-31 0 -47.5 11t-27.5 32q-15 26 -20.5 59.5t-5.5 57.5q0 27 5.5 58.5t20.5 57.5q12 21 29 32t46 11q30 0 46.5 -11t28.5 -32q7 -12 12 -27.5t8 -31.5t4.5 -31t1.5 -26zM935 203q0 33 -11 83q-11 49 -36 77q-23 26 -52 38t-69 12q-39 0 -68.5 -12
t-51.5 -38q-27 -32 -37 -76.5t-10 -84.5q0 -37 10 -83q11 -47 36 -77q23 -26 52 -38.5t69 -12.5q39 0 67.5 11.5t53.5 39.5q26 27 36 76q11 52 11 85zM868 202q0 -29 -6.5 -61t-19.5 -56q-10 -19 -28.5 -31t-46.5 -12q-31 0 -47.5 11t-28.5 32q-14 26 -19.5 59.5t-5.5 58.5
q0 26 5.5 57.5t19.5 57.5q13 21 30 32t46 11q30 0 46.5 -11t28.5 -32q6 -12 11 -27.5t8.5 -31t5 -30.5t1.5 -27zM1344 203q0 33 -11 83q-10 47 -37 77q-22 26 -51 38t-69 12t-69 -12t-51 -38q-14 -16 -23 -36t-14.5 -41t-7.5 -42.5t-2 -41.5q0 -37 10 -83q11 -47 36 -77
q23 -26 51 -38.5t70 -12.5q38 0 67 11.5t54 39.5t35 76q12 49 12 85zM1277 202q0 -29 -6.5 -61t-19.5 -56q-11 -19 -29 -31t-46 -12q-31 0 -47.5 11t-28.5 32q-14 26 -20 59.5t-6 58.5q0 26 5.5 57.5t20.5 57.5q12 21 29.5 32t46.5 11q30 0 46.5 -11t28.5 -32
q6 -12 11 -27.5t8.5 -31t5 -30.5t1.5 -27zM731 644l-47 34l-55 -86.5l-61 -93.5l-58.5 -90.5l-51.5 -80.5l-141 -216l-44.5 -68t-19.5 -29l47 -35q5 7 20.5 32l43.5 69l62.5 98.5l76.5 119.5l111 171l61 91.5z" />
    <glyph glyph-name="glyph330" 
d="M495 196q0 49 -25.5 84t-73.5 58q-36 18 -75 32.5t-62 26.5q-34 18 -51 38t-17 48q0 27 14 46.5t33 31.5q23 15 66.5 22.5t95.5 7.5h52v14t-1 27v73q0 20 0.5 41t1.5 44h-61l2 -131q-10 -1 -14 -1t-16 -1q-54 -3 -104.5 -16t-81.5 -37q-31 -23 -50.5 -56.5t-19.5 -78.5
q0 -48 22.5 -80.5t70.5 -57.5q14 -8 33 -16.5t42 -17.5q23 -8 41 -15.5t29 -12.5q37 -18 51.5 -40t14.5 -52q0 -26 -13 -46.5t-47 -38.5q-33 -17 -77.5 -24t-111.5 -7h-46q0 -19 0.5 -51.5t0.5 -75.5v-21q0 -14 -1 -32v-33t-1 -26h61l-2 172q10 0 17 0.5t16 0.5q27 1 55 5
t54 10t49 14.5t41 19.5q40 25 64 64t24 88z" />
    <glyph glyph-name="glyph331" 
d="M466 221q-60 0 -112.5 7.5t-91.5 30.5q-36 21 -58 56t-22 83t25.5 85.5t64.5 55.5q33 16 80.5 24t104.5 8q0 4 -1 38t-1 77v45t1 58h-61l1 -156q-58 -4 -114 -20.5t-94 -45.5q-40 -31 -63 -74t-23 -97q0 -46 18 -85.5t45 -65.5q43 -42 105.5 -61.5t135.5 -25.5l-1 -158
h61q-1 16 -1 38v50v79q1 25 1 38v16z" />
    <glyph glyph-name="glyph332" 
d="M61 329q0 -108 60 -184q61 -76 149 -104q30 -10 56.5 -17t52.5 -11t53 -6t57 -2q11 0 28 0.5t22 0.5l4 44l2 21q-7 0 -23 -0.5t-32 -0.5q-39 0 -92 7.5t-105 28.5q-73 31 -114.5 84.5t-41.5 137.5q0 63 32 115.5t86 82.5q64 36 133.5 46t160.5 7l-5 66q-147 11 -248 -27
q-101 -36 -153 -91q-37 -37 -59.5 -86t-22.5 -112zM237 -116l75 453l24 133.5l27 146.5q14 78 21.5 116l7.5 38l-44 8q-2 -10 -8.5 -47l-17.5 -103l-23 -136.5l-26 -148.5q-14 -85 -28 -161.5l-27 -148.5l-19 -106l-6 -35zM377 -116l46 274l30 179l23.5 134l26.5 147
t21.5 115l7.5 38l-45 8q-2 -10 -8.5 -47.5l-17.5 -103.5l-23 -137l-25 -147q-14 -85 -28 -161.5l-27 -148.5l-19 -106l-6 -35z" />
    <glyph glyph-name="glyph333" 
d="M396 70q0 24 -0.5 59.5t-0.5 68.5t0.5 49.5t0.5 20.5l71 33t48 20.5t29 11t13 5.5l-13 61q-5 -2 -42 -18t-106 -55v64h-69q1 -60 1.5 -106.5t0.5 -84.5v-110h-1q-14 5 -30 12.5t-28 14.5q-66 37 -95 91.5t-29 120.5q0 63 33 118t94 90q24 13 53.5 23.5t61 17.5t64.5 10.5
t63 3.5h16q-2 23 -3.5 43.5t-1.5 25.5h-22q-54 0 -105.5 -8.5t-97 -24.5t-84.5 -39t-67 -51q-38 -39 -62 -91.5t-24 -116.5q0 -72 24 -126.5t66 -94.5q60 -57 152 -87t212 -30h17q2 24 4 42.5t3 24.5h-23q-35 0 -61.5 2.5t-61.5 9.5z" />
    <glyph glyph-name="glyph334" 
d="M563 600l-7 63q-7 0 -16.5 -0.5t-15.5 -0.5q-60 -3 -103 -21.5t-71 -45.5q-34 -32 -50.5 -69t-26.5 -85q-6 -35 -11.5 -61.5t-6.5 -34.5l-123 1v-57h113q-1 -3 -4 -22.5t-9 -55.5q-11 -73 -27 -146q-9 -43 -22 -71.5t-35 -48.5q-23 -21 -51 -31t-73 -12q-7 -1 -19 -1h-19
l7 -63q8 0 17.5 0.5t13.5 0.5q46 3 90 16.5t86 50.5q33 30 51.5 70.5t26.5 82.5q15 74 27 148q7 38 10 58.5t4 23.5h175v57l-164 -1q1 7 6 39q3 17 6 32l6 29q17 78 53 111q23 19 50.5 30t72.5 13q7 0 19.5 0.5t19.5 0.5z" />
    <glyph glyph-name="glyph335" 
d="M225 147h70q34 0 64 -1h64v52h-21t-55 -1h-122q0 25 -0.5 60t-0.5 69h40q17 1 32 1h26q94 0 142.5 -1t53.5 -1v68q-6 0 -54.5 -1t-136.5 -1h-61q-19 1 -30 1h-12q0 49 1 93.5t1 99.5q22 0 53 0.5t67 0.5q84 0 128.5 -1t47.5 -1v68q-4 0 -48 -0.5t-132 -0.5
q-57 0 -108 0.5t-87 0.5q1 -48 1.5 -94.5t0.5 -92.5q1 -45 1 -81v-64q0 -43 -0.5 -73t-0.5 -50q-42 0 -75.5 0.5t-36.5 0.5v-52h42q20 1 37 1h33q0 -69 -1 -105t-1 -42h79q0 20 -0.5 60.5t-0.5 86.5z" />
    <glyph glyph-name="glyph336" 
d="M421 407q-4 -42 -26.5 -71t-64.5 -47q-30 -13 -61 -16.5t-73 -3.5v55v83q23 0 55 0.5t59 0.5h45t66 -1zM196 458l1.5 94t0.5 39q35 0 67 -2.5t65 -16.5q42 -17 63.5 -45.5t26.5 -68.5q-34 -1 -62 -1h-47q-32 0 -62.5 0.5t-52.5 0.5zM121 458h-88v-51h89v-53
q0 -167 -1.5 -257t-1.5 -97h79l-1 208q64 0 117.5 12t93.5 37q36 23 62.5 61t31.5 89h60v51h-60q-4 49 -27 87t-61 61q-40 26 -92.5 37t-130.5 11h-72q1 -58 1.5 -104t0.5 -92z" />
    <glyph glyph-name="glyph337" 
d="M545 1v66h-23q-19 0 -56 -1h-158h-87l31 226h180v59l-171 -1q0 3 1.5 12.5t3.5 26.5q3 17 6 30t5 23q8 37 20.5 64.5t32.5 45.5q22 20 51 31t71 13q7 0 22.5 1t22.5 1l-10 65q-8 -1 -19 -1t-18 -1q-60 -3 -103.5 -21.5t-72.5 -46.5q-29 -29 -46 -66t-24 -79l-6 -31.5
t-5 -30t-4 -23.5t-2 -13l-103 1v-59h95l-32 -226h-65v-65q60 0 126 0.5t118 0.5h65t72 -1h82z" />
    <glyph glyph-name="glyph338" horiz-adv-x="933" 
d="M814 221q0 -51 -20 -85t-58 -54q-24 -13 -52 -18.5t-61 -6.5v119v137q1 17 1 29v21q34 0 68 -6t60 -23q28 -18 45 -44.5t17 -68.5zM556 2q0 -81 -1 -126t-1 -53h71l-2 177q35 0 77.5 9.5t82.5 31.5q46 25 74.5 70t28.5 111q0 52 -24 93.5t-63 65.5q-18 12 -38.5 20
t-45.5 13t-56.5 7t-71.5 2h-33q0 -51 0.5 -95.5t1 -84t0.5 -76.5v-72l-3 -1l-45 39l-56 49l-57 51.5l-51 46.5v2q26 14 48 34t41 46q39 52 39 114q0 54 -28 94t-76 60q-38 16 -78.5 21t-83.5 5q-40 0 -67.5 -1l-27.5 -1q1 -88 1.5 -147.5t0.5 -92.5v-91q0 -79 -0.5 -136.5
t-0.5 -96.5t-0.5 -61t-0.5 -29h78v37t-1 92v197v41v60q0 35 0.5 77t0.5 89h11q27 0 58 -2t59 -13q36 -13 55.5 -41.5t19.5 -66.5t-13.5 -66t-31.5 -43q-47 -46 -102 -63l-2 -17l107.5 -95l100.5 -91q97 -89 105 -93z" />
    <glyph glyph-name="glyph339" 
d="M563 624l-55 41q-2 -2 -21 -28.5l-56 -77.5l-70.5 -97l-64.5 -88h-1l-73 99.5l-67 94.5l-49.5 70.5t-19.5 26.5l-60 -46q2 -2 21 -27.5l56 -73.5l75 -99l80 -107v-53l-181 1v-52l181 1v-60t-1 -69t-1 -57v-23h74v24t-1 57t-1 69v59l181 -1v52l-181 -1v57l92.5 122.5
l73.5 97.5l50 64.5t19 23.5z" />
    <glyph glyph-name="glyph340" horiz-adv-x="879" 
d="M729 347v56h-135l18 54l16 48t12 36t5 15l-46 17q-1 -2 -5.5 -16l-12.5 -39l-17.5 -54l-20.5 -61h-128l18 54l16 48t12 36t5 15l-46 17l-5.5 -17l-12 -36.5l-17 -52.5t-21.5 -64h-153v-56h136l-12.5 -36.5t-10.5 -29.5t-10 -29l-11 -35h-153v-55h136l-19 -57l-17 -50
t-12 -36t-5 -15l47 -19q1 4 17 53l40 124h127l-19 -57.5l-16 -48.5l-11.5 -35l-5.5 -17l46 -19q0 2 5 16t12.5 38l18 55.5l22.5 67.5h153v55h-136q4 13 10 30t11.5 35l11 34.5l10.5 30.5h153zM525 347q-6 -20 -11.5 -36.5t-10.5 -29.5t-10 -29l-11 -35h-128q4 13 10 30
l12 35l11.5 34.5t9.5 30.5h128z" />
    <glyph glyph-name="glyph341" horiz-adv-x="355" 
d="M318 306v66h-50h-91h-90h-49v-66h49h90h91h50z" />
    <glyph glyph-name="glyph342" 
d="M532 327q0 77 -18 151q-18 72 -50 112q-32 42 -73 62t-98 20q-58 0 -99 -20t-72 -62q-30 -37 -50 -113q-18 -74 -18 -151q0 -44 5.5 -83.5t14.5 -73.5t21.5 -61t26.5 -45q32 -42 72.5 -62t98.5 -20q60 0 99 20t72 62q35 44 51 118q17 77 17 146zM451 326q0 -48 -8 -103
t-29 -100q-18 -37 -48 -57.5t-73 -20.5q-46 0 -74.5 20t-46.5 58q-22 45 -29 102q-4 30 -6 55.5t-2 46.5q0 23 1.5 48t5.5 54q8 58 30 101q18 36 47 56.5t74 20.5t74 -20t47 -57q17 -36 27 -90t10 -114z" />
    <glyph glyph-name="glyph343" 
d="M376 0v40q0 37 -1 107t-1 118v75v119q1 50 1 93t1 81l-63 42q-3 -2 -24 -17.5l-61 -44.5l-74.5 -52.5l-64.5 -45.5l31 -47l56.5 37.5l53.5 36.5l42.5 29t23.5 15h1q1 -34 1 -75v-89v-107q0 -147 -1 -227t-1 -88h80z" />
    <glyph glyph-name="glyph344" 
d="M553 1v68h-26t-63 -1t-76 -1t-65 -1q-39 0 -81.5 -1t-69.5 -3l-1 2q37 22 86.5 57t100.5 83q54 48 81 102.5t27 111.5q0 64 -25.5 111.5t-80.5 80.5q-43 26 -100.5 39.5t-126.5 13.5q-16 0 -26.5 -0.5t-17.5 -0.5l-7 -68h38q57 0 104 -10t83 -32q34 -22 54 -54.5
t20 -86.5q0 -50 -24 -95t-83 -102q-20 -20 -47 -41t-60 -44q-64 -45 -117 -70l19 -58h99h154h139h92z" />
    <glyph glyph-name="glyph345" 
d="M506 199q0 63 -47 100t-128 45v5q63 20 96 58t33 90q0 49 -30 82t-73 51q-51 22 -105 27.5t-111 5.5h-25l-12 -69h45q38 0 82 -6q22 -2 39 -5.5t29 -7.5q39 -16 58.5 -36.5t19.5 -57.5t-26 -62t-80 -42q-27 -8 -59 -12l-47 -6l11 -60q11 1 22 1.5t28 0.5q28 0 58.5 -2
t55.5 -11q36 -13 59.5 -36.5t23.5 -56.5q0 -42 -25.5 -69t-73.5 -44q-17 -6 -40 -11t-49 -8t-54.5 -5t-55.5 -2q-12 0 -30.5 0.5t-25.5 0.5l13 -66q7 0 20.5 -0.5t25.5 -0.5q78 0 150 11.5t118 34.5q54 28 82 70t28 93z" />
    <glyph glyph-name="glyph346" 
d="M580 240v64q-25 -1 -51 -1t-55 -1h-65v133q0 60 0.5 110.5t1.5 92.5l-63 36q-5 -5 -33 -37l-80 -92l-105 -119l-109 -123l35 -63l279 1q-1 -44 -1 -84q0 -39 -1 -76v-81h77v23t-1 54q-2 69 0 164h71t100 -1zM336 575q-1 -42 -1 -78v-66v-129h-122h-113v1l235 273z" />
    <glyph glyph-name="glyph347" 
d="M511 584v68h-72h-111h-128h-74v-66v-94v-93v-76q139 0 198 -18q46 -16 67 -41t21 -60q0 -40 -18 -64.5t-54 -43.5q-16 -8 -39 -14.5t-53 -11.5t-60 -7.5t-59 -3.5q-12 -1 -23 -1.5t-18 -0.5l9 -67q6 0 22.5 0.5t27.5 1.5q72 2 133.5 15t103.5 34q54 29 83.5 72t29.5 95
q0 51 -24 87t-75 59q-18 7 -41 13t-49 10.5t-53.5 7t-54.5 2.5v199h93q49 0 103 -1t82 -1h33z" />
    <glyph glyph-name="glyph348" 
d="M537 212q0 63 -32.5 109.5t-92.5 79.5q-43 24 -85.5 34t-74.5 16v1l36.5 38.5l57.5 60.5l75 78l-53 47l-44.5 -48.5l-53.5 -57.5l-56 -61.5l-52 -59.5q-30 -38 -51 -70t-34 -61t-18.5 -56.5t-5.5 -54.5q0 -52 17.5 -92t46.5 -68q37 -34 82.5 -50t96.5 -16q52 0 94.5 17.5
t76.5 49.5q31 29 50.5 72.5t19.5 91.5zM455 208q0 -73 -46 -120q-19 -20 -49 -31.5t-64 -11.5q-32 0 -61 10.5t-51 31.5q-21 20 -35 52t-14 70q0 51 19.5 97.5t56.5 85.5q10 -1 25.5 -3.5t36.5 -7.5q43 -9 72 -24q60 -28 85 -67.5t25 -81.5z" />
    <glyph glyph-name="glyph349" 
d="M538 598l-38 54h-28t-64 -1h-138h-83t-66.5 0.5t-45.5 0.5h-20v-68h31q26 0 71 1q46 1 89 1h87h112l1 -1q-8 -17 -34.5 -68.5l-72.5 -139.5l-95.5 -180l-103.5 -190l68 -29q2 5 29.5 56l79.5 150l107 202z" />
    <glyph glyph-name="glyph350" 
d="M529 174q0 57 -30.5 94t-93.5 67v1q107 77 107 166q0 74 -61 122q-60 48 -157 48q-87 0 -152 -50q-63 -50 -63 -124q0 -51 23 -85.5t80 -64.5v-1q-66 -46 -95.5 -89t-29.5 -89q0 -86 68 -137q69 -51 169 -51q99 0 166 55q69 55 69 138zM430 487q0 -32 -17.5 -62.5
t-66.5 -66.5q-38 12 -66.5 23t-49.5 22q-29 15 -49 38t-20 56q0 25 10 45.5t28 35t42.5 22.5t52.5 8q63 0 99.5 -33.5t36.5 -87.5zM448 167q0 -61 -44 -91.5t-112 -30.5q-57 0 -106 35q-47 35 -47 90q0 53 33 91q33 37 69 63l36.5 -12.5t35.5 -13.5l32 -13t25 -11
q78 -42 78 -107z" />
    <glyph glyph-name="glyph351" 
d="M532 447q0 54 -17 93t-45 67q-33 34 -78.5 49.5t-99.5 15.5q-51 0 -98 -19t-79 -51q-29 -31 -47.5 -71.5t-18.5 -88.5t21.5 -92.5t73.5 -80.5q40 -27 89 -43.5t100 -23.5l1 -1l-38 -38.5t-44 -47.5l-88 -91l53 -47q5 5 29 31.5l69 74.5l77 84.5t52 61.5q45 55 66.5 106.5
t21.5 111.5zM450 444q0 -51 -18 -94.5t-57 -88.5q-32 3 -72.5 13t-69.5 25q-51 25 -76.5 62.5t-25.5 85.5q0 34 12 64.5t32 51.5q21 20 51 32t64 12q31 0 62 -11t51 -31q21 -22 34 -53.5t13 -67.5z" />
    <glyph glyph-name="glyph352" 
d="M532 246q0 116 -73 193q-65 68 -166 68q-48 0 -91.5 -19t-76.5 -52q-71 -75 -71 -189q0 -58 20.5 -110.5t57.5 -88.5q32 -30 72.5 -46.5t88.5 -16.5q51 0 89.5 16.5t71.5 47.5q38 36 58 88t20 109zM453 243q0 -45 -14.5 -84.5t-42.5 -68.5q-20 -20 -46 -31.5t-57 -11.5
q-57 0 -96 36q-34 30 -49 71.5t-15 92.5q0 45 14.5 86t40.5 67q22 23 47 34t58 11q29 0 55 -10.5t45 -28.5q31 -30 45.5 -73.5t14.5 -89.5z" />
    <glyph glyph-name="glyph353" 
d="M379 0q-1 8 -1 32t-1 66v140v87q1 37 1 73q0 37 1 72l-56 39q-5 -4 -25 -17.5l-57 -38.5l-69 -46.5l-62 -42.5l28 -43l48 29.5l48 28.5l41.5 24.5t28.5 16.5h1q1 -12 1 -29v-38v-64q0 -130 -1.5 -201.5t-1.5 -87.5h76z" />
    <glyph glyph-name="glyph354" 
d="M543 1v67h-25q-20 0 -58 -1t-73 -1q-34 0 -65 -1q-30 0 -62.5 -1.5t-53.5 -3.5l-1 3q45 20 89 49t75 59q29 29 49.5 66t20.5 82q0 54 -25 90.5t-70 58.5q-35 17 -76.5 24.5t-95.5 7.5q-18 0 -36 -0.5t-26 -1.5l-7 -65q12 1 30.5 1.5t31.5 0.5q38 0 72 -5.5t60 -18.5
q29 -15 45 -39.5t16 -60.5q0 -46 -26.5 -80.5t-72.5 -69.5q-17 -13 -38.5 -27t-49.5 -29l-51 -26.5l-44 -22.5l18 -55h87h140h127h95z" />
    <glyph glyph-name="glyph355" 
d="M481 46q0 63 -43.5 98t-115.5 48v2q51 19 86 58.5t35 90.5q0 48 -25.5 80t-65.5 50q-45 19 -89 23.5t-98 4.5h-28l-14 -65q4 0 19 0.5t28 0.5q31 0 65 -3.5t57 -13.5q34 -12 52 -34.5t18 -58.5q0 -51 -53 -82.5t-150 -38.5l9 -60q8 0 18.5 0.5t21.5 0.5q30 0 54.5 -2
t42.5 -7q45 -12 70 -36t25 -60q0 -40 -25 -65.5t-73 -40.5q-32 -11 -78.5 -15.5t-91.5 -4.5h-53l9 -64q6 -1 20 -1h26q39 0 71 2t58 6q52 7 106 33q57 26 84.5 66t27.5 88z" />
    <glyph glyph-name="glyph356" 
d="M570 79v64q-38 -1 -66 -1t-45 -1h-57v129q1 120 3 205l-58 33l-31 -36.5l-72 -85.5l-213 -249l32 -58l268 2q-1 -43 -1 -81t-1 -71t-1 -53v-29h75q0 16 -1 77t0 157q35 0 72.5 -0.5t95.5 -1.5zM332 405q-1 -42 -1 -77v-62v-125h-122h-96l-1 1l219 264z" />
    <glyph glyph-name="glyph357" 
d="M503 418v69h-19q-17 0 -51 -1h-115h-114q-29 1 -45 1h-17v-63v-92v-98v-63h28q51 -2 88 -6.5t59 -12.5q48 -16 69 -42.5t21 -60.5t-17.5 -59.5t-55.5 -43.5q-32 -15 -83.5 -22t-108.5 -7h-27l9 -65h36q69 0 121 10t94 30q54 26 83.5 69t29.5 91t-24.5 86.5t-73.5 61.5
q-32 14 -76 23.5t-101 13.5v183h106t93 -1t66 -1h25z" />
    <glyph glyph-name="glyph358" 
d="M528 208q0 58 -30 104.5t-87 78.5q-36 20 -77 31.5t-72 15.5v1l93 96l52.5 53l40.5 42l-56 46l-100.5 -108t-118.5 -133q-64 -75 -85 -129q-20 -52 -20 -104q0 -51 17 -89t44 -64q36 -34 79 -49t91 -15q51 0 90 16.5t72 47.5q29 28 48 71t19 88zM449 203q0 -33 -11 -63
t-33 -52q-17 -18 -45 -29.5t-61 -11.5q-32 0 -58 9.5t-48 30.5q-20 19 -33 49.5t-13 67.5q0 48 20.5 95t53.5 81q10 0 25.5 -2.5t32 -6.5t33.5 -10t32 -13q49 -24 77 -62t28 -83z" />
    <glyph glyph-name="glyph359" 
d="M531 435l-33 52h-26t-64 -1h-135h-138q-33 1 -51 1h-20v-69h26t68 1t89 1.5t89 0.5h107v-1l-30.5 -57.5l-67.5 -128.5l-91 -170l-103 -186l62 -30l31.5 59l71.5 133l99.5 184.5z" />
    <glyph glyph-name="glyph360" 
d="M518 171q0 58 -31.5 94.5t-83.5 60.5v1q40 28 68.5 69.5t28.5 89.5q0 73 -58 118q-57 45 -149 45q-81 0 -143 -47q-61 -46 -61 -120q0 -54 25 -87.5t70 -57.5v-1q-57 -42 -86.5 -82t-29.5 -88q0 -83 64 -132t161 -49q95 0 159 52q66 52 66 134zM421 471
q0 -36 -21.5 -66.5t-57.5 -55.5q-28 9 -58.5 20.5t-50.5 22.5q-28 15 -46.5 36t-18.5 53q0 49 35.5 77.5t90.5 28.5q57 0 92 -31t35 -85zM438 164q0 -57 -39.5 -87t-106.5 -30q-60 0 -103 34q-42 34 -42 86q0 45 28 82.5t68 63.5q31 -10 66 -23.5t56 -24.5
q38 -19 55.5 -44.5t17.5 -56.5z" />
    <glyph glyph-name="glyph361" 
d="M523 291q0 54 -16.5 90.5t-43.5 63.5q-32 32 -75 47t-94 15q-49 0 -93 -18t-75 -50q-28 -30 -45.5 -67.5t-17.5 -85.5q0 -60 25.5 -101t65.5 -69q38 -26 84.5 -41t89.5 -21l1 -1l-84.5 -84l-99.5 -99l57 -47q11 11 36.5 38.5l67.5 70.5t74.5 80t57.5 69q43 56 64 103.5
t21 106.5zM443 288q0 -54 -19.5 -96t-53.5 -81q-37 4 -68.5 12.5t-61.5 23.5q-98 51 -98 144q0 31 11.5 61t31.5 50q20 19 47.5 31t59.5 12q31 0 58.5 -11t46.5 -30q21 -21 33.5 -51t12.5 -65z" />
    <glyph glyph-name="glyph362" 
d="M532 327q0 77 -18 151q-18 72 -50 112q-32 42 -73 62t-98 20q-58 0 -99 -20t-72 -62q-30 -37 -50 -113q-18 -74 -18 -151q0 -44 5.5 -83.5t14.5 -73.5t21.5 -61t26.5 -45q32 -42 72.5 -62t98.5 -20q60 0 99 20t72 62q35 44 51 118q17 77 17 146zM451 326q0 -48 -8 -103
t-29 -100q-18 -37 -48 -57.5t-73 -20.5q-46 0 -74.5 20t-46.5 58q-22 45 -29 102q-4 30 -6 55.5t-2 46.5q0 23 1.5 48t5.5 54q8 58 30 101q18 36 47 56.5t74 20.5t74 -20t47 -57q17 -36 27 -90t10 -114z" />
    <glyph glyph-name="glyph363" horiz-adv-x="410" 
d="M288 0v40q0 37 -1 107t-1 118v75v119q1 50 1 93t1 81l-63 42q-3 -2 -21 -16l-52 -40l-67.5 -49.5l-68.5 -48.5l31 -47q49 31 94 64l39.5 29t27.5 19h1q1 -23 1 -61v-92v-118q0 -147 -1 -227t-1 -88h80z" />
    <glyph glyph-name="glyph364" horiz-adv-x="515" 
d="M514 1v68h-26t-63 -1t-76 -1t-65 -1q-39 0 -81.5 -1t-69.5 -3l-1 2q37 22 86.5 56.5t100.5 83.5q54 48 81 102.5t27 111.5q0 127 -106 192q-43 26 -100.5 39.5t-126.5 13.5q-16 0 -26.5 -0.5t-17.5 -0.5l-7 -68h38q57 0 104 -10t83 -32q34 -22 54 -54.5t20 -86.5
q0 -50 -24.5 -95t-82.5 -102q-20 -20 -47 -41.5t-60 -44.5q-66 -45 -117 -69l19 -58h99h154h139h92z" />
    <glyph glyph-name="glyph365" horiz-adv-x="515" 
d="M463 199q0 63 -47 100t-128 45v5q63 20 96 58t33 90q0 49 -30.5 82t-72.5 51q-51 22 -105 27.5t-111 5.5h-25l-12 -69h45q38 0 82 -6q23 -2 40 -5.5t28 -7.5q39 -16 58.5 -36.5t19.5 -57.5t-26 -62t-80 -42q-13 -4 -28.5 -7t-30 -5t-27.5 -3.5t-20 -2.5l11 -60
q11 1 22.5 1.5t27.5 0.5q28 0 58.5 -2t55.5 -11q36 -13 59.5 -36.5t23.5 -56.5q0 -42 -25.5 -69t-73.5 -44q-17 -6 -40 -10.5t-49 -8t-54.5 -5.5t-55.5 -2q-12 0 -30.5 0.5t-25.5 0.5l13 -66q7 0 20.5 -0.5t25.5 -0.5q78 0 150.5 11.5t117.5 34.5q54 28 82 70t28 93z" />
    <glyph glyph-name="glyph366" 
d="M580 240v64q-25 -1 -51 -1t-55 -1h-65v133q0 60 0.5 110.5t1.5 92.5l-63 36q-5 -5 -33 -37l-80 -92l-105 -119l-109 -123l35 -63l279 1q-1 -44 -1 -84q0 -39 -1 -76v-81h77v23t-1 54q-2 69 0 164h71t100 -1zM336 575q-1 -42 -1 -78v-66v-129h-122h-113v1l235 273z" />
    <glyph glyph-name="glyph367" horiz-adv-x="518" 
d="M472 584v68h-70h-110h-127h-75v-66q1 -29 1 -53v-41v-36t-1 -57v-76q69 0 119.5 -4.5t78.5 -13.5q46 -16 67 -41t21 -60q0 -40 -18 -64.5t-54 -43.5q-16 -8 -39 -14.5t-53 -11.5t-59.5 -7.5t-58.5 -3.5q-12 -1 -23 -1.5t-19 -0.5l9 -67q6 0 22.5 0.5t27.5 1.5
q72 2 134.5 15t102.5 34q55 29 84 72t29 95q0 51 -24 87t-75 59q-17 7 -39.5 13t-48.5 10.5t-54 7t-55 2.5v199h93t100 -1q53 -1 81 -1h33z" />
    <glyph glyph-name="glyph368" 
d="M537 212q0 63 -32.5 109.5t-92.5 79.5q-43 24 -85.5 34t-74.5 16v1l36.5 38.5l57.5 60.5l75 78l-53 47l-44.5 -48.5l-53.5 -57.5l-56 -61.5l-52 -59.5q-30 -38 -51 -70t-34 -61t-18.5 -56.5t-5.5 -54.5q0 -52 17.5 -92t46.5 -68q37 -34 82.5 -50t96.5 -16q52 0 94.5 17.5
t76.5 49.5q31 29 50.5 72.5t19.5 91.5zM455 208q0 -73 -46 -120q-19 -20 -49 -31.5t-64 -11.5q-32 0 -61 10.5t-51 31.5q-21 20 -35 52t-14 70q0 51 19.5 97.5t56.5 85.5q10 -1 25.5 -3.5t36.5 -7.5q43 -9 72 -24q60 -28 85 -67.5t25 -81.5z" />
    <glyph glyph-name="glyph369" horiz-adv-x="503" 
d="M493 598l-38 54h-28t-64 -1h-138q-90 0 -146 0.5t-62 0.5v-68h30q25 0 69 1t86 1h86h112l1 -1q-8 -17 -34.5 -68.5l-72.5 -139.5l-95.5 -180l-103.5 -190l68 -29q2 5 29.5 56l79.5 150l107 202z" />
    <glyph glyph-name="glyph370" horiz-adv-x="593" 
d="M533 174q0 57 -30.5 94t-93.5 67v1q52 38 79 79.5t27 86.5q0 74 -60 122t-158 48q-87 0 -151 -50q-63 -50 -63 -124q0 -51 23 -85.5t80 -64.5v-1q-66 -46 -95.5 -89t-29.5 -89q0 -86 68 -137q69 -51 168 -51t167 55q69 55 69 138zM434 487q0 -32 -18 -62.5t-67 -66.5
q-38 12 -67 23t-49 22q-29 15 -49 38t-20 56q0 25 10 45.5t28 35t42.5 22.5t53.5 8q63 0 99.5 -33.5t36.5 -87.5zM451 167q0 -61 -44 -91.5t-112 -30.5q-57 0 -106 35q-47 35 -47 90q0 53 33 91q33 37 69 63q36 -11 72.5 -25t56.5 -25q78 -42 78 -107z" />
    <glyph glyph-name="glyph371" 
d="M532 447q0 54 -17 93t-45 67q-33 34 -78.5 49.5t-99.5 15.5q-51 0 -98 -19t-79 -51q-29 -31 -47.5 -71.5t-18.5 -88.5t21.5 -92.5t73.5 -80.5q40 -27 89 -43.5t100 -23.5l1 -1l-38 -38.5t-44 -47.5l-88 -91l53 -47q5 5 29 31.5l69 74.5l77 84.5t52 61.5q45 55 66.5 106.5
t21.5 111.5zM450 444q0 -51 -18 -94.5t-57 -88.5q-32 3 -72.5 13t-69.5 25q-51 25 -76.5 62.5t-25.5 85.5q0 34 12 64.5t32 51.5q21 20 51 32t64 12q31 0 62 -11t51 -31q21 -22 34 -53.5t13 -67.5z" />
    <glyph glyph-name="glyph372" horiz-adv-x="879" 
d="M699 253v58h-232v231h-56v-231h-231v-58h231v-232h56v232h232z" />
    <glyph glyph-name="glyph373" horiz-adv-x="879" 
d="M699 253v58h-519v-58h519z" />
    <glyph glyph-name="glyph374" horiz-adv-x="879" 
d="M668 471l-41 40l-189 -190l-188 189l-40 -39l189 -189l-189 -189l40 -40l189 188l188 -189l41 41l-189 188z" />
    <glyph glyph-name="glyph375" horiz-adv-x="879" 
d="M699 253v58h-519v-58h519zM486 417v101h-95v-101h95zM486 46v101h-95v-101h95z" />
    <glyph glyph-name="glyph376" horiz-adv-x="879" 
d="M694 343v57h-509v-57h509zM694 167v58h-509v-58h509z" />
    <glyph glyph-name="glyph377" horiz-adv-x="879" 
d="M694 167v58h-248l40 118h208v57h-190l56 168l-50 15l-59 -183h-266v-57h248l-40 -118h-208v-58h190l-57 -169l50 -16l60 185h266z" />
    <glyph glyph-name="glyph378" horiz-adv-x="879" 
d="M694 69v56h-227v201h227v56h-227v219h-56v-219h-226v-56h226v-201h-226v-56h509z" />
    <glyph glyph-name="glyph379" horiz-adv-x="879" 
d="M674 95l-406 186v2l406 187l-25 54l-458 -216v-53l458 -213z" />
    <glyph glyph-name="glyph380" horiz-adv-x="879" 
d="M688 255v53l-459 216l-24 -54l406 -187v-2l-406 -186l24 -53z" />
    <glyph glyph-name="glyph381" horiz-adv-x="879" 
d="M683 216l-409 169v2l409 169l-23 54l-466 -198v-53l466 -196zM694 49v56h-504v-56h504z" />
    <glyph glyph-name="glyph382" horiz-adv-x="879" 
d="M685 359v53l-466 198l-23 -54l408 -169v-2l-408 -169l23 -53zM688 49v56h-503v-56h503z" />
    <glyph glyph-name="glyph383" horiz-adv-x="879" 
d="M691 67v269h-511v-57h448v-212h63z" />
    <glyph glyph-name="glyph384" horiz-adv-x="879" 
d="M723 429l-55 17q-15 -42 -39.5 -66.5t-59.5 -24.5q-21 0 -35.5 6.5l-31.5 14.5q-13 8 -37.5 21.5t-44.5 23.5t-39 17.5t-43 7.5q-60 0 -105 -35.5t-62 -95.5l55 -15q17 43 40.5 66t57.5 23q18 0 37 -7t32 -14q6 -4 16.5 -10t22.5 -12t23 -12.5t19 -10.5q19 -10 39 -17
t43 -7q58 0 102.5 35t64.5 95zM723 243l-55 17q-15 -42 -39.5 -66.5t-59.5 -24.5q-21 0 -35.5 6.5l-31.5 14.5q-13 8 -38 21.5l-44 23.5q-20 10 -39 17.5t-43 7.5q-60 0 -105 -35.5t-62 -95.5l55 -15q17 43 40.5 66t57.5 23q18 0 37 -7.5t32 -13.5q6 -4 16.5 -10t22.5 -12
t23 -12.5t19 -10.5q19 -10 39 -17t43 -7q58 0 102.5 35t64.5 95z" />
    <glyph glyph-name="glyph385" horiz-adv-x="879" 
d="M726 371l-61 10q-14 -57 -40.5 -87.5t-64.5 -30.5q-11 0 -18 1t-13.5 3t-13 6l-15.5 10l-40.5 27l-37.5 24q-23 14 -41 21t-46 7q-65 0 -114 -48q-48 -47 -62 -120l61 -10q15 61 42 90t63 29q21 0 31 -5q5 -2 12 -6l17 -10l40 -26l38 -25q23 -14 40.5 -21t45.5 -7
q69 0 116 48q48 51 61 120z" />
    <glyph glyph-name="glyph386" horiz-adv-x="879" 
d="M672 293l-207 404h-52l-205 -404l53 -25l177 352h2l178 -352z" />
    <glyph glyph-name="glyph387" horiz-adv-x="879" 
d="M678 340l-217 355h-45l-215 -355l215 -355h45zM610 340l-170 -283h-2l-170 283l170 284h2z" />
    <glyph glyph-name="glyph388" horiz-adv-x="879" 
d="M816 779l-54 20l-299 -736h-2l-168 354h-6l-179 -138l31 -38l125 95l178 -372h40z" />
    <glyph glyph-name="glyph389" horiz-adv-x="293" 
d="M196 0v104h-98v-104h98z" />
    <glyph glyph-name="glyph390" horiz-adv-x="293" 
d="M221 98l-68 31l-37 -89l-35 -80q-35 -77 -39 -84l52 -23l127 241v4z" />
    <glyph glyph-name="glyph391" horiz-adv-x="293" 
d="M196 231v104h-98v-104h98z" />
    <glyph glyph-name="glyph392" horiz-adv-x="410" 
d="M373 462q0 34 -11 84q-10 47 -37 77q-43 49 -120 49q-40 0 -69 -11.5t-52 -37.5q-14 -16 -22.5 -36t-14 -41t-7.5 -43t-2 -41q0 -49 12.5 -92.5t33.5 -68.5q23 -25 51 -37.5t70 -12.5q38 0 67 11.5t54 38.5q19 23 33 65t14 96zM306 462q0 -29 -6.5 -61t-19.5 -56
q-11 -19 -29 -31t-46 -12q-31 0 -47.5 11t-28.5 32q-14 26 -20 59.5t-6 57.5q0 27 5.5 58.5t20.5 57.5q12 21 29.5 32t46.5 11t46 -11t29 -32q6 -12 11 -27.5t8.5 -31.5t5 -31t1.5 -26z" />
    <glyph glyph-name="glyph393" horiz-adv-x="410" 
d="M269 262v27t-1 66q-1 44 -1 72v42v72q1 31 1 57t1 49l-49 27q-4 -2 -19.5 -13l-43.5 -30l-52.5 -36l-47.5 -32l28 -37l65.5 44.5t50.5 33.5h2v-78q1 -31 1 -49v-22v-96q0 -37 -1 -56t-1 -29v-12h67z" />
    <glyph glyph-name="glyph394" horiz-adv-x="410" 
d="M378 263v53h-17q-14 0 -41 -1h-92q-14 -1 -33 -1t-38 -1l-1 3q23 13 47 29t51 39q28 24 49.5 58.5t21.5 73.5q0 46 -21 74t-51 45q-27 15 -65 23.5t-86 8.5q-10 0 -20 -0.5t-14 -0.5l-5 -55h28q38 0 64.5 -5t49.5 -17q20 -11 34.5 -29.5t14.5 -47.5q0 -30 -17.5 -57
t-51.5 -56q-11 -10 -28 -22t-39 -26t-41 -24t-36 -18l16 -46h66q31 1 57 1h46h36t52 -1h64z" />
    <glyph glyph-name="glyph395" horiz-adv-x="410" 
d="M347 389q0 36 -26.5 57.5t-71.5 28.5v1q35 14 54.5 36.5t19.5 51.5q0 31 -20 52t-51 32q-33 14 -70.5 16.5t-75.5 2.5h-22l-11 -54h36q30 0 55.5 -2.5t42.5 -6.5q19 -6 32.5 -17.5t13.5 -32.5q0 -22 -17 -34.5t-51 -21.5q-24 -7 -42 -8.5t-33 -3.5l7 -47h38
q17 0 37.5 -0.5t37.5 -5.5q21 -7 34.5 -18.5t13.5 -30.5q0 -23 -15 -36t-47 -23q-19 -7 -62 -10q-20 -2 -37.5 -2.5t-33.5 -1.5q-8 -1 -17 -1h-13l9 -53q2 0 5 -0.5t10 -0.5q24 0 49.5 1.5t52.5 3.5q55 6 88 22q39 17 59.5 46t20.5 60z" />
    <glyph glyph-name="glyph396" horiz-adv-x="410" 
d="M398 397v49h-108v87q0 34 0.5 63t1.5 54l-53 25q-2 -2 -19 -20.5l-51 -54.5l-70 -75.5l-79 -83.5l30 -44h179v-51q0 -23 -0.5 -41.5t-0.5 -30.5v-12h62q0 3 -0.5 37.5t0.5 97.5h108zM229 446q-27 -1 -46 -1h-31q-23 0 -37 0.5t-23 0.5v1l136 149h1v-150z" />
    <glyph glyph-name="glyph397" horiz-adv-x="410" 
d="M348 605v55h-14q-11 0 -34 -1h-77h-84q-23 1 -35 1h-12v-43v-57v-59v-47q40 0 75.5 -2.5t51.5 -7.5q29 -9 42 -22.5t13 -32.5q0 -22 -12.5 -37t-32.5 -22q-33 -12 -65.5 -15t-74.5 -4q-3 0 -11.5 -0.5t-11.5 -0.5l7 -53h29q49 2 91.5 9t70.5 19q40 19 60 47.5t20 59.5
q0 63 -71 93q-23 9 -53.5 13t-67.5 5v103h67q33 0 64 -1h65z" />
    <glyph glyph-name="glyph398" horiz-adv-x="410" 
d="M371 394q0 43 -23.5 71t-59.5 45q-24 12 -51 19t-45 10v2q13 11 28.5 26t35.5 32t30.5 27l12.5 12l-44 39l-72.5 -69t-71.5 -70q-36 -37 -53 -74t-17 -73q0 -33 11.5 -57.5t32.5 -41.5q25 -21 57 -31t66 -10q37 0 65 10.5t51 30.5q23 18 35 45t12 57zM304 391
q0 -21 -6 -37t-20 -28q-12 -12 -30 -17.5t-40 -5.5q-44 0 -71 23q-13 11 -21 29t-8 37q0 35 14.5 61t29.5 41l17 -2.5t24 -4.5q28 -5 45 -12q29 -13 47.5 -34t18.5 -50z" />
    <glyph glyph-name="glyph399" horiz-adv-x="410" 
d="M376 622l-29 38h-19q-15 0 -44 -1h-96h-93q-26 1 -41 1h-16v-55h70q34 1 64 1h58h65v-1l-70 -118.5l-130 -211.5l51 -30q7 10 75 123l73.5 120z" />
    <glyph glyph-name="glyph400" horiz-adv-x="410" 
d="M368 371q0 33 -20 55.5t-58 39.5v3q12 7 23.5 17.5t21 23t15.5 27t6 29.5q0 25 -11.5 45t-32 33.5t-48 20.5t-58.5 7q-60 0 -104 -31q-45 -30 -45 -78q0 -33 17.5 -53.5t46.5 -34.5v-3q-46 -30 -62.5 -55.5t-16.5 -48.5q0 -26 12 -47.5t34 -37.5t52 -24.5t66 -8.5
q69 0 115 34q47 35 47 87zM291 557q0 -24 -15 -41.5t-35 -30.5q-18 4 -39.5 11t-37.5 15q-18 8 -29.5 20.5t-11.5 31.5q0 27 22.5 43.5t60.5 16.5q34 0 59.5 -16.5t25.5 -49.5zM302 366q0 -33 -26 -49.5t-71 -16.5q-39 0 -68 18.5t-29 49.5q0 28 20.5 51.5t41.5 35.5
l22 -6.5t24 -7.5t22.5 -8.5t16.5 -7.5q20 -9 33.5 -23.5t13.5 -35.5z" />
    <glyph glyph-name="glyph401" horiz-adv-x="410" 
d="M368 534q0 33 -12 57.5t-32 41.5q-22 20 -53.5 29.5t-68.5 9.5q-36 0 -67.5 -12t-51.5 -31q-23 -21 -34 -44t-11 -54q0 -39 17 -65t45 -43t61 -26t55 -12v-2l-56.5 -53l-50.5 -48l43 -37q4 3 21.5 19.5l49.5 46.5l54 53l36 36q30 35 42.5 66t12.5 68zM300 531
q0 -30 -11 -54t-33 -48q-24 3 -47.5 8.5t-42.5 13.5q-28 12 -44.5 32.5t-16.5 50.5q0 17 6.5 34t19.5 28q15 12 32 18.5t38 6.5q20 0 39 -6t31 -16q29 -24 29 -68z" />
    <glyph glyph-name="glyph402" horiz-adv-x="410" 
d="M115 264h23q42 0 80.5 7t63.5 21q26 14 40.5 36.5t14.5 50.5q0 32 -17.5 52.5t-42.5 32.5q-10 6 -45 19l-30 12.5t-23 10.5q-13 6 -24.5 16t-11.5 26q0 11 7.5 22.5t25.5 18.5q18 8 38 10t36 2h22q12 0 25 -1h31q0 3 -0.5 23t-0.5 58v31t1 35h-51l1 -94h-18
q-28 0 -62.5 -4t-57.5 -15q-29 -14 -46.5 -36.5t-17.5 -52.5q0 -27 15 -49.5t43 -36.5q8 -4 20 -9l29 -12q17 -6 30 -12l24 -11q14 -7 23.5 -17t9.5 -25q0 -18 -10.5 -28.5t-30.5 -17.5q-19 -7 -42.5 -9.5t-40.5 -2.5q-19 0 -36 1t-44 3q0 -4 0.5 -22.5t0.5 -61.5v-16
t-0.5 -21.5t-0.5 -22.5v-18h50z" />
    <glyph glyph-name="glyph403" horiz-adv-x="410" 
d="M303 264l-1 -128h50v24q0 14 -0.5 27.5t-0.5 24.5v20q0 43 0.5 62t0.5 26h-39q-35 0 -67 5.5t-56 15.5q-30 13 -50.5 38t-20.5 62q0 33 21.5 59.5t55.5 38.5q15 6 28.5 9.5t27 5.5t30 2.5t37.5 0.5h30q0 4 -0.5 24.5t-0.5 62.5q0 16 0.5 37.5t0.5 44.5h-51l2 -113
q-42 0 -86.5 -10.5t-76.5 -29.5q-36 -21 -60 -55.5t-24 -77.5q0 -46 25.5 -84.5t70.5 -60.5q32 -16 74 -23.5t80 -7.5z" />
    <glyph glyph-name="glyph404" horiz-adv-x="205" 
d="M143 262v86h-81v-86h81z" />
    <glyph glyph-name="glyph405" horiz-adv-x="205" 
d="M158 343l-60 27q-3 -10 -13 -34.5l-27 -64.5l-27.5 -64l-14.5 -33l43 -19q40 81 65.5 127.5z" />
    <glyph glyph-name="glyph406" horiz-adv-x="410" 
d="M381 446v46h-153v153h-46v-153h-153v-46h153v-153h46v153h153z" />
    <glyph glyph-name="glyph407" horiz-adv-x="410" 
d="M374 446v46h-338v-46h338z" />
    <glyph glyph-name="glyph408" horiz-adv-x="278" 
d="M268 219q-35 10 -66 30.5t-52 45.5q-23 28 -36 64t-13 78q0 37 12 73t31 65q22 32 52 57.5t72 44.5l-22 41q-42 -18 -81.5 -49t-66.5 -69q-26 -37 -40.5 -79t-14.5 -87q0 -51 17 -93t45 -76q27 -33 64 -56t77 -33z" />
    <glyph glyph-name="glyph409" horiz-adv-x="278" 
d="M235 460q0 51 -16.5 93t-45.5 76q-27 33 -64 56t-77 33l-21 -43q34 -10 65 -30t52 -46q23 -28 36 -63.5t13 -77.5q0 -38 -11.5 -74t-30.5 -65q-43 -64 -124 -102l22 -41q42 18 81.5 49t66.5 69q26 38 40 79.5t14 86.5z" />
    <glyph glyph-name="glyph410" horiz-adv-x="410" 
d="M373 200q0 34 -11 84q-10 47 -37 77q-43 49 -120 49q-40 0 -69 -11.5t-52 -37.5q-14 -16 -22.5 -36t-14 -41t-7.5 -43t-2 -41q0 -49 12.5 -92.5t33.5 -68.5q23 -25 51 -37.5t70 -12.5q38 0 67 11.5t54 38.5q19 23 33 65t14 96zM306 200q0 -29 -6.5 -61t-19.5 -56
q-11 -19 -29 -31t-46 -12q-31 0 -47.5 11t-28.5 32q-14 26 -20 59.5t-6 57.5q0 27 5.5 58.5t20.5 57.5q12 21 29.5 32t46.5 11t46 -11t29 -32q6 -12 11 -27.5t8.5 -31.5t5 -31t1.5 -26z" />
    <glyph glyph-name="glyph411" horiz-adv-x="410" 
d="M269 0v27t-1 66q-1 44 -1 72v42v72q1 31 1 57t1 49l-49 27q-4 -2 -19.5 -13l-43.5 -30l-52.5 -36l-47.5 -32l28 -37l65.5 44.5t50.5 33.5h2v-78q1 -31 1 -49v-22v-96q0 -37 -1 -56t-1 -29v-12h67z" />
    <glyph glyph-name="glyph412" horiz-adv-x="410" 
d="M378 1v53h-17q-14 0 -41 -1h-92q-14 -1 -33 -1t-38 -1l-1 3q23 13 47 29t51 39q28 24 49.5 58.5t21.5 73.5q0 46 -21 74t-51 45q-27 15 -65 23.5t-86 8.5q-10 0 -20 -0.5t-14 -0.5l-5 -55h28q38 0 64.5 -5t49.5 -17q20 -11 34.5 -29.5t14.5 -47.5q0 -30 -17.5 -57
t-51.5 -56q-11 -10 -28 -22t-39 -26t-41 -24t-36 -18l16 -46h66q31 1 57 1h46h36t52 -1h64z" />
    <glyph glyph-name="glyph413" horiz-adv-x="410" 
d="M347 127q0 36 -26.5 57.5t-71.5 28.5v1q35 14 54.5 36.5t19.5 51.5q0 31 -20 52t-51 32q-33 14 -70.5 16.5t-75.5 2.5h-22l-11 -54h36q30 0 55.5 -2.5t42.5 -6.5q19 -6 32.5 -17.5t13.5 -32.5q0 -22 -17 -34.5t-51 -21.5q-24 -7 -42 -8.5t-33 -3.5l7 -47h38
q17 0 37.5 -0.5t37.5 -5.5q21 -7 34.5 -18.5t13.5 -30.5q0 -23 -15 -36t-47 -23q-19 -7 -62 -10q-20 -2 -37.5 -2.5t-33.5 -1.5q-8 -1 -17 -1h-13l9 -53q2 0 5 -0.5t10 -0.5q24 0 49.5 1.5t52.5 3.5q55 6 88 22q39 17 59.5 46t20.5 60z" />
    <glyph glyph-name="glyph414" horiz-adv-x="410" 
d="M398 135v49h-108v87q0 34 0.5 63t1.5 54l-53 25q-2 -2 -19 -20.5l-51 -54.5l-70 -75.5l-79 -83.5l30 -44h179v-51q0 -23 -0.5 -41.5t-0.5 -30.5v-12h62q0 3 -0.5 37.5t0.5 97.5h108zM229 184q-27 -1 -46 -1h-31q-23 0 -37 0.5t-23 0.5v1l136 149h1v-150z" />
    <glyph glyph-name="glyph415" horiz-adv-x="410" 
d="M348 343v55h-14q-11 0 -34 -1h-77h-84q-23 1 -35 1h-12v-43v-57v-59v-47q40 0 75.5 -2.5t51.5 -7.5q29 -9 42 -22.5t13 -32.5q0 -22 -12.5 -37t-32.5 -22q-33 -12 -65.5 -15t-74.5 -4q-3 0 -11.5 -0.5t-11.5 -0.5l7 -53h29q49 2 91.5 9t70.5 19q40 19 60 47.5t20 59.5
q0 63 -71 93q-23 9 -53.5 13t-67.5 5v103h67q33 0 64 -1h65z" />
    <glyph glyph-name="glyph416" horiz-adv-x="410" 
d="M371 132q0 43 -23.5 71t-59.5 45q-24 12 -51 19t-45 10v2q13 11 28.5 26t35.5 32t30.5 27l12.5 12l-44 39l-72.5 -69t-71.5 -70q-36 -37 -53 -74t-17 -73q0 -33 11.5 -57.5t32.5 -41.5q25 -21 57 -31t66 -10q37 0 65 10.5t51 30.5q23 18 35 45t12 57zM304 129
q0 -21 -6 -37t-20 -28q-12 -12 -30 -17.5t-40 -5.5q-44 0 -71 23q-13 11 -21 29t-8 37q0 35 14.5 61t29.5 41l17 -2.5t24 -4.5q28 -5 45 -12q29 -13 47.5 -34t18.5 -50z" />
    <glyph glyph-name="glyph417" horiz-adv-x="410" 
d="M376 360l-29 38h-19q-15 0 -44 -1h-96h-93q-26 1 -41 1h-16v-55h70q34 1 64 1h58h65v-1l-70 -118.5l-130 -211.5l51 -30q7 10 75 123l73.5 120z" />
    <glyph glyph-name="glyph418" horiz-adv-x="410" 
d="M368 109q0 33 -20 55.5t-58 39.5v3q12 7 23.5 17.5t21 23t15.5 27t6 29.5q0 25 -11.5 45t-32 33.5t-48 20.5t-58.5 7q-60 0 -104 -31q-45 -30 -45 -78q0 -33 17.5 -53.5t46.5 -34.5v-3q-46 -30 -62.5 -55.5t-16.5 -48.5q0 -26 12 -47.5t34 -37.5t52 -24.5t66 -8.5
q69 0 115 34q47 35 47 87zM291 295q0 -24 -15 -41.5t-35 -30.5q-18 4 -39.5 11t-37.5 15q-18 8 -29.5 20.5t-11.5 31.5q0 27 22.5 43.5t60.5 16.5q34 0 59.5 -16.5t25.5 -49.5zM302 104q0 -33 -26 -49.5t-71 -16.5q-39 0 -68 18.5t-29 49.5q0 28 20.5 51.5t41.5 35.5
l22 -6.5t24 -7.5t22.5 -8.5t16.5 -7.5q20 -9 33.5 -23.5t13.5 -35.5z" />
    <glyph glyph-name="glyph419" horiz-adv-x="410" 
d="M368 272q0 33 -12 57.5t-32 41.5q-22 20 -53.5 29.5t-68.5 9.5q-36 0 -67.5 -12t-51.5 -31q-23 -21 -34 -44t-11 -54q0 -39 17 -65t45 -43t61 -26t55 -12v-2l-56.5 -53l-50.5 -48l43 -37q4 3 21.5 19.5l49.5 46.5l54 53l36 36q30 35 42.5 66t12.5 68zM300 269
q0 -30 -11 -54t-33 -48q-24 3 -47.5 8.5t-42.5 13.5q-28 12 -44.5 32.5t-16.5 50.5q0 17 6.5 34t19.5 28q15 12 32 18.5t38 6.5q20 0 39 -6t31 -16q29 -24 29 -68z" />
    <glyph glyph-name="glyph420" horiz-adv-x="410" 
d="M115 2h23q42 0 80.5 7t63.5 21q26 14 40.5 36.5t14.5 50.5q0 32 -17.5 52.5t-42.5 32.5q-10 6 -45 19l-30 12.5t-23 10.5q-13 6 -24.5 16t-11.5 26q0 11 7.5 22.5t25.5 18.5q18 8 38 10t36 2h22q12 0 25 -1h31q0 3 -0.5 23t-0.5 58v31t1 35h-51l1 -94h-18q-28 0 -62.5 -4
t-57.5 -15q-29 -14 -46.5 -36.5t-17.5 -52.5q0 -27 15 -49.5t43 -36.5q8 -4 20 -9l29 -12q17 -6 30 -12l24 -11q14 -7 23.5 -17t9.5 -25q0 -18 -10.5 -28.5t-30.5 -17.5q-19 -7 -42.5 -9.5t-40.5 -2.5q-19 0 -36 1t-44 3q0 -4 0.5 -22.5t0.5 -61.5v-16t-0.5 -21.5
t-0.5 -22.5v-18h50z" />
    <glyph glyph-name="glyph421" horiz-adv-x="410" 
d="M303 2l-1 -128h50v25q0 13 -0.5 26.5t-0.5 25.5v19q0 43 0.5 62t0.5 26h-39q-35 0 -67 5.5t-56 15.5q-30 13 -50.5 38t-20.5 62q0 33 21.5 59.5t55.5 38.5q15 6 28.5 9.5t27 5.5t30 2.5t37.5 0.5h30q0 4 -0.5 24.5t-0.5 62.5q0 16 0.5 37.5t0.5 44.5h-51l2 -113
q-42 0 -86.5 -10.5t-76.5 -29.5q-36 -21 -60 -55.5t-24 -77.5q0 -46 25.5 -84.5t70.5 -60.5q32 -16 74 -23.5t80 -7.5z" />
    <glyph glyph-name="glyph422" horiz-adv-x="205" 
d="M143 0v86h-81v-86h81z" />
    <glyph glyph-name="glyph423" horiz-adv-x="205" 
d="M158 81l-60 27q-3 -10 -13 -34.5l-27 -64.5l-27.5 -64l-14.5 -33l43 -19q40 81 65.5 127.5z" />
    <glyph glyph-name="glyph424" horiz-adv-x="410" 
d="M381 184v46h-153v153h-46v-153h-153v-46h153v-153h46v153h153z" />
    <glyph glyph-name="glyph425" horiz-adv-x="410" 
d="M374 184v46h-338v-46h338z" />
    <glyph glyph-name="glyph426" horiz-adv-x="278" 
d="M268 -43q-35 10 -66 30.5t-52 45.5q-23 28 -36 64t-13 78q0 37 12 73t31 65q22 32 52 57.5t72 44.5l-22 41q-42 -18 -81.5 -49t-66.5 -69q-26 -37 -40.5 -79t-14.5 -87q0 -51 17 -93t45 -76q27 -33 64 -56t77 -33z" />
    <glyph glyph-name="glyph427" horiz-adv-x="278" 
d="M235 198q0 51 -16.5 93t-45.5 76q-27 33 -64 56t-77 33l-21 -43q34 -10 65 -30t52 -46q23 -28 36 -63.5t13 -77.5q0 -38 -11.5 -74t-30.5 -65q-43 -64 -124 -102l22 -41q42 18 81.5 49t66.5 69q26 38 40 79.5t14 86.5z" />
    <glyph glyph-name="glyph428" horiz-adv-x="374" 
d="M310 440q0 45 -10.5 69t-30.5 41q-21 17 -52 24.5t-73 7.5q-25 0 -42 -0.5t-22 -0.5l-7 -53q22 1 34 2t25 1q21 0 40 -2t34 -7q18 -6 29.5 -20t12.5 -36q-11 -1 -27.5 -2t-36.5 -3q-41 -3 -74 -16q-34 -13 -55.5 -34t-21.5 -54q0 -31 18 -51t45 -31q22 -8 49 -13t56 -5
q45 0 73 2t35 3q0 9 0.5 56t0.5 122zM249 365v-60q-10 -1 -19 -1h-14q-17 0 -35 1t-41 7q-18 5 -30.5 16.5t-12.5 31.5q0 15 15 27.5t29 17.5q30 11 59.5 11.5t48.5 1.5v-53z" />
    <glyph glyph-name="glyph429" horiz-adv-x="403" 
d="M369 424q0 39 -15.5 67t-45.5 48q-26 17 -67 28t-111 12l1 137h-63q0 -45 0.5 -98.5t0.5 -114.5v-76q0 -38 -1 -80v-90h35q55 0 92.5 5t70.5 18q48 17 75.5 55t27.5 89zM305 423q0 -36 -15.5 -58t-46.5 -38q-19 -9 -49.5 -13.5t-63.5 -4.5v19q0 10 -1 18v70q0 38 0.5 68
t0.5 43h12q46 0 84 -12q35 -11 57 -34t22 -58z" />
    <glyph glyph-name="glyph430" horiz-adv-x="332" 
d="M300 314h-27q-32 0 -60 4.5t-50 14.5q-29 12 -47 33.5t-18 55.5q0 29 19.5 53.5t49.5 35.5q27 10 51.5 12.5t59.5 2.5h16l-3 54h-19q-43 0 -86.5 -9.5t-74.5 -27.5q-34 -21 -55.5 -52.5t-21.5 -68.5q0 -43 23.5 -77.5t65.5 -54.5q29 -16 67.5 -22.5t81.5 -6.5h23z" />
    <glyph glyph-name="glyph431" horiz-adv-x="403" 
d="M335 257q-1 30 -1 56v50v106v154q1 43 1 66v27h-63l1 -137q-25 -1 -62.5 -5.5t-73.5 -19.5q-54 -23 -78.5 -60.5t-24.5 -82.5q0 -48 27 -79.5t67 -48.5q17 -8 34 -13t37.5 -8t44.5 -4t56 -1h35zM273 416v-50q0 -19 -1 -29v-28h-3q-33 0 -59.5 4.5t-51.5 15.5
q-26 13 -43 33t-17 51q0 67 68 96q18 7 46 12.5t61 5.5v-56v-55z" />
    <glyph glyph-name="glyph432" horiz-adv-x="372" 
d="M339 417q0 45 -11 79t-33 54q-36 36 -99 36q-34 0 -63.5 -11.5t-49.5 -32.5q-21 -22 -34.5 -50.5t-13.5 -67.5q0 -35 15.5 -65t38.5 -50q26 -22 67 -35t95 -13q20 0 36 1t22 1l7 52q-4 0 -22.5 -1t-37.5 -1q-35 0 -58.5 5t-43.5 16q-28 17 -42 38.5t-17 44.5h244z
M276 460h-177q6 38 32.5 59t60.5 21q36 0 58.5 -21.5t25.5 -58.5z" />
    <glyph glyph-name="glyph433" horiz-adv-x="269" 
d="M274 666l-7 50h-28q-42 0 -70.5 -10.5t-44.5 -26.5q-20 -20 -28.5 -42t-8.5 -50v-8h-65v-46h65v-97q0 -45 -1 -86v-88h63v25t-1 64t-1 87v95h119v46h-119v7q0 41 22 60q12 11 30 15.5t48 4.5h27z" />
    <glyph glyph-name="glyph434" horiz-adv-x="401" 
d="M334 581h-44q-51 0 -88 -5t-70 -20q-42 -18 -70 -52t-28 -79t19 -74t50 -48q15 -9 34 -16t40.5 -11.5t43 -6.5t40.5 -2h11q-1 -33 -18.5 -49.5t-47.5 -27.5q-22 -7 -58.5 -10.5t-73.5 -3.5l6 -51q73 0 107 7q18 4 35.5 9.5t34.5 13.5q43 20 59.5 53t16.5 78v127
q0 67 0.5 114t0.5 54zM272 414q1 -36 0.5 -61t-0.5 -35h-7q-64 0 -103 16q-30 13 -47 35t-17 53q0 32 18 55.5t51 37.5q27 9 47.5 11.5t53.5 2.5h3q1 -34 1 -64v-51z" />
    <glyph glyph-name="glyph435" horiz-adv-x="422" 
d="M356 262v15t-1 33v70q0 18 0.5 44.5t0.5 65.5q0 45 -27.5 70.5t-72.5 25.5q-23 0 -52.5 -9t-72.5 -31l-1 2l1 168h-63q1 -64 1 -120v-94v-93q0 -41 -1 -75v-72h63l-2 233q31 16 59.5 26.5t47.5 10.5q29 0 43 -12.5t15 -48.5v-20q0 -11 0.5 -23.5t0.5 -24.5v-20v-39
t-1 -39t-1 -31v-12h63z" />
    <glyph glyph-name="glyph436" horiz-adv-x="199" 
d="M135 645v63h-71v-63h71zM131 262q0 5 -1 48.5t-1 115.5v59q1 14 1 38t1 56h-63q1 -49 1 -91v-70q0 -67 -0.5 -107.5t-0.5 -48.5h63z" />
    <glyph glyph-name="glyph437" horiz-adv-x="205" 
d="M147 645v63h-71v-63h71zM143 271q0 36 -0.5 75t-0.5 78q0 60 0.5 103.5t0.5 51.5h-63v-111q1 -55 1 -102v-85q0 -33 -6.5 -51t-21.5 -30t-37 -17.5t-62 -9.5l7 -48q58 4 87.5 15t51.5 28q24 20 33.5 47.5t9.5 55.5z" />
    <glyph glyph-name="glyph438" horiz-adv-x="382" 
d="M131 262v28q0 27 -1 78t-1 85v51v81q1 33 1 66t1 65h-63q1 -63 1 -118v-91v-94q0 -42 -1 -77v-74h63zM377 273l-161 155v3q6 6 19.5 17l32 26l40.5 33.5l46 39.5l-39 40l-49.5 -46.5l-46.5 -41.5l-39.5 -35t-29.5 -26v-30l72.5 -64.5l113.5 -103.5z" />
    <glyph glyph-name="glyph439" horiz-adv-x="199" 
d="M131 262v22q0 21 -1 60q-1 40 -1 77v75t0.5 89t1.5 131h-63q1 -66 1 -125v-98v-74q0 -37 -1 -75v-82h63z" />
    <glyph glyph-name="glyph440" horiz-adv-x="632" 
d="M565 262q0 7 -0.5 42.5t-0.5 86.5q0 25 0.5 46.5t0.5 53.5q0 43 -27 69t-78 26q-34 0 -70 -16q-19 -8 -32.5 -14.5l-23.5 -11.5h-1q-9 18 -31 30t-57 12q-27 0 -63 -15q-36 -14 -50 -24l-1 2v30h-63q1 -22 1 -45v-48v-75q0 -76 -0.5 -110.5t-0.5 -38.5h63v16t-1 40v89v89
q20 11 48 23.5t51 12.5q27 0 41 -12t15 -48q1 -8 1 -19v-26v-45q0 -45 -0.5 -80t-0.5 -40h63v14t-0.5 28t-0.5 39v46v61v50q20 10 46.5 21t50.5 11q29 0 43 -12t15 -47v-46q1 -15 1 -26v-18q0 -23 -0.5 -43.5t-0.5 -37.5q0 -16 -0.5 -26.5t-0.5 -13.5h64z" />
    <glyph glyph-name="glyph441" horiz-adv-x="422" 
d="M357 262v15t-1 33t-1 38v31q0 17 0.5 45t0.5 66q0 45 -27 70.5t-73 25.5q-35 0 -71 -16q-38 -16 -53 -24l-2 2v31h-62q1 -48 1 -95v-76q0 -69 -0.5 -105.5t-0.5 -40.5h63v15q0 14 -1 40t-1 47v40q0 28 0.5 54.5t0.5 37.5q31 16 59.5 26t47.5 10q28 0 42 -12t15 -48v-45
q1 -15 1 -26v-19v-32t-1 -40t-1 -34v-14h64z" />
    <glyph glyph-name="glyph442" horiz-adv-x="414" 
d="M376 420q0 76 -51 123q-46 43 -118 43q-36 0 -66 -11.5t-53 -32.5q-25 -25 -38 -54.5t-13 -66.5q0 -38 14.5 -71t40.5 -56q23 -19 52 -29.5t63 -10.5q32 0 60 9.5t54 30.5q26 23 40.5 57t14.5 69zM313 418q0 -51 -39 -87q-12 -12 -30 -19t-37 -7q-18 0 -34.5 5t-29.5 16
q-42 36 -42 95q0 24 9.5 48.5t27.5 40.5q26 26 69 26q40 0 65 -23q21 -18 31 -42.5t10 -52.5z" />
    <glyph glyph-name="glyph443" horiz-adv-x="404" 
d="M369 429q0 40 -20 71.5t-55 49.5t-75 24q-20 4 -47 5.5t-62 1.5h-42q0 -63 0.5 -115t0.5 -97v-91t-1 -77v-76h63l-1 137q34 0 75 6t76 23q42 21 65 55.5t23 82.5zM305 427q0 -36 -16.5 -59t-50.5 -39q-21 -9 -48 -13t-60 -5v23q0 16 -1 40v62v51q1 16 1 26v16h11
q34 0 62.5 -4.5t47.5 -15.5q24 -11 39 -32t15 -50z" />
    <glyph glyph-name="glyph444" horiz-adv-x="402" 
d="M336 125v26t-1 69q-1 46 -1 84v71v79q1 34 1 65q0 32 1 62h-39q-57 0 -98 -6t-76 -24q-38 -19 -63.5 -52t-25.5 -76q0 -102 104 -142q33 -14 70.5 -17t65.5 -3l-1 -136h63zM274 393v-82h-5q-64 0 -103 16q-68 29 -68 95q0 29 16 52t44 36q45 19 115 19q1 -8 1 -47v-89z
" />
    <glyph glyph-name="glyph445" horiz-adv-x="286" 
d="M278 530l-13 55q-20 -4 -56 -17t-78 -33l-1 1v43h-62q1 -24 1 -49v-51v-80q0 -69 -0.5 -101t-0.5 -36h63v18t-1 39t-1 46v41q0 24 0.5 44.5t0.5 31.5q52 23 91.5 33.5t56.5 14.5z" />
    <glyph glyph-name="glyph446" horiz-adv-x="298" 
d="M259 356q0 27 -15 44.5t-35 29.5q-11 7 -33 16t-39 17q-25 13 -25 30q0 19 23 29q13 5 26 6.5t25 1.5q21 0 42 -1t24 -1l-5 52q-3 0 -18 0.5t-35 0.5q-25 0 -48 -3.5t-43 -13.5q-25 -12 -39 -30t-14 -43q0 -48 49 -74q19 -12 35.5 -17.5t39.5 -18.5q23 -12 23 -29
q0 -23 -30 -35q-15 -5 -29 -6t-28 -1h-19q-10 0 -23 1q-12 1 -18.5 1.5t-7.5 0.5l2 -51q4 0 23 -1.5t36 -1.5q32 0 61 6t49 18q20 11 33 30t13 43z" />
    <glyph glyph-name="glyph447" horiz-adv-x="288" 
d="M265 310h-36q-51 0 -71 17t-20 52v76q0 19 0.5 42.5t0.5 35.5h125v46h-125v80h-58v-80h-58v-46h56q0 -55 -0.5 -92t-0.5 -69q0 -60 36.5 -86t105.5 -26q3 0 8.5 0.5t11.5 0.5t11 0.5t7 0.5z" />
    <glyph glyph-name="glyph448" horiz-adv-x="422" 
d="M354 262q0 49 -0.5 93t-0.5 86q0 70 0.5 102t0.5 36h-62v-51q1 -23 1 -43v-36q0 -32 -0.5 -62t-0.5 -41q-7 -5 -18.5 -11.5t-28.5 -13.5q-34 -14 -66 -14q-24 0 -37 14t-14 51q0 15 -0.5 44t-0.5 51v27t1 38t1 33v14h-63v-48q1 -22 1 -40v-31v-20t-1 -29v-57
q0 -49 28 -74.5t76 -25.5q32 0 69 14q37 15 52 25l2 -1v-30h61z" />
    <glyph glyph-name="glyph449" horiz-adv-x="388" 
d="M364 564l-55 20l-111 -246h-2l-115 246l-57 -23l53 -107l47 -95l34 -69l14 -28h45q2 5 51 106l48 99.5z" />
    <glyph glyph-name="glyph450" horiz-adv-x="580" 
d="M556 564l-55 20l-93 -240h-2l-87 229h-48l-95 -229h-2l-91 240l-58 -22l39 -90t40 -99q43 -104 44 -111h48q1 2 8.5 21.5l22.5 56.5l32 74.5l33 76.5h1q16 -38 30 -75.5l28 -74.5q29 -74 30 -79h49l12 30.5l29 73.5l40.5 97.5z" />
    <glyph glyph-name="glyph451" horiz-adv-x="366" 
d="M338 290q-2 3 -12.5 14.5l-28.5 31.5l-37.5 42.5l-41.5 47.5v2l60 65l55 60l-45 32l-22.5 -27.5l-28.5 -34.5l-28.5 -34l-22.5 -28h-2l-26 30l-23.5 28.5l-24.5 30l-28 34.5l-47 -33l59 -68l54 -62v-2l-82.5 -91.5t-38.5 -39.5l45 -33q3 5 38 47l34.5 41l36.5 43h2
q45 -52 73.5 -88l33.5 -42z" />
    <glyph glyph-name="glyph452" horiz-adv-x="390" 
d="M366 563l-55 21l-72 -156l-26.5 -57t-15.5 -35h-3l-15 33.5l-26 57.5l-33 73.5l-37 83.5l-59 -23l50.5 -104l41.5 -85.5l30 -63l17 -36.5l-68 -129l54 -18q2 3 21 41.5l56 113.5l71.5 145.5z" />
    <glyph glyph-name="glyph453" horiz-adv-x="349" 
d="M321 264v49q-5 0 -37 -0.5t-99 -0.5h-66l-1 2q9 11 30 34.5l53 61.5l60.5 70l52.5 60l-21 35h-57h-72h-66h-57v-47h55q26 1 47 1h37h46l1 -2l-56 -65l-65 -76l-54 -61.5t-21 -23.5l14 -37h52h82h91h51z" />
    <glyph glyph-name="glyph454" horiz-adv-x="372" 
d="M285 649l-154 77l-25 -45l161 -67zM339 417q0 45 -11 79t-33 54q-36 36 -99 36q-34 0 -63.5 -11.5t-49.5 -32.5q-21 -22 -34.5 -50.5t-13.5 -67.5q0 -35 15.5 -65t38.5 -50q26 -22 67 -35t95 -13q20 0 36 1t22 1l7 52q-4 0 -22.5 -1t-37.5 -1q-35 0 -58.5 5t-43.5 16
q-28 17 -42 38.5t-17 44.5h244zM276 460h-177q6 38 32.5 59t60.5 21q36 0 58.5 -21.5t25.5 -58.5z" />
    <glyph glyph-name="glyph455" 
d="M331 296v25t-1 59t-1 63v38v67q1 29 1 53q0 25 1 47l-49 25q-5 -3 -20 -13.5l-41 -28.5l-51 -35l-50 -33l27 -38q33 20 65.5 43.5t50.5 34.5l2 -1v-71q1 -28 1 -44v-20q0 -72 -1 -119.5t-1 -51.5h67zM474 -211v51h-60h-94q-13 -1 -31 -1t-37 -1l-1 2q18 9 43.5 24
t52.5 35q30 24 50 53.5t20 65.5t-18 62t-53 45q-29 15 -67 20.5t-83 5.5q-10 0 -19.5 -0.5t-13.5 -0.5l-5 -54h28q35 0 63.5 -3t50.5 -13q19 -10 33.5 -25t14.5 -41q0 -27 -16.5 -50t-51.5 -50q-27 -21 -69 -45q-38 -23 -75 -37l15 -43h18q17 0 48 1h101h90q32 -1 48 -1h18z
M510 201v46h-435v-46h435z" />
    <glyph glyph-name="glyph456" 
d="M510 201v46h-435v-46h435zM476 -100v50q-34 -1 -63 -1h-45v76v60t1 59l-52 23l-20 -20l-52 -53l-70.5 -70.5l-76.5 -75.5l30 -48h179q0 -51 -0.5 -84t-0.5 -37h62q0 5 -0.5 34t0.5 87h108zM307 -51h-77h-61l-1 1l138 141l1 -1v-141zM336 296v25t-1 59t-1 63v38v67
q1 29 1 53q0 25 1 47l-49 25q-5 -3 -20 -13.5l-41 -28.5l-51 -35l-50 -33l27 -38q33 20 65.5 43.5t50.5 34.5l2 -1v-71q1 -28 1 -44v-20q0 -72 -1 -119.5t-1 -51.5h67z" />
    <glyph glyph-name="glyph457" 
d="M510 201v46h-435v-46h435zM441 413q0 33 -26.5 53t-68.5 26v1q28 9 49.5 30.5t21.5 49.5q0 29 -19.5 47.5t-49.5 28.5q-28 11 -68 14.5t-73 3.5h-21l-11 -53h35q21 0 49.5 -1.5t43.5 -6.5q20 -5 32.5 -14.5t12.5 -28.5q0 -21 -18 -31.5t-47 -17.5q-20 -5 -38.5 -6.5
t-34.5 -3.5l8 -46h36q23 0 41 -0.5t31 -4.5q21 -6 34 -16.5t13 -27.5q0 -20 -14.5 -32t-45.5 -21q-22 -6 -59.5 -7t-68.5 -2q-8 -1 -17 -1h-12l8 -52q2 0 5 -0.5t9 -0.5q54 0 103.5 4.5t81.5 18.5q38 16 58 42.5t20 54.5zM481 -100v50q-34 -1 -63 -1h-45v76v60t1 59l-52 23
l-20 -20l-52 -53l-70.5 -70.5l-76.5 -75.5l30 -48h179q0 -51 -0.5 -84t-0.5 -37h62q0 5 -0.5 34t0.5 87h108zM312 -51h-77h-61l-1 1l138 141l1 -1v-141z" />
    <glyph glyph-name="glyph458" horiz-adv-x="514" 
d="M429 278q0 36 -3.5 62.5t-11 46.5t-18 35t-23.5 27q-30 27 -75.5 39t-102.5 12q-38 0 -59.5 -1t-29.5 -2l-7 -65q26 2 41.5 3t37.5 1q69 0 109 -17q61 -24 67 -99q-69 -6 -121.5 -16.5t-84.5 -23.5q-51 -21 -79.5 -55t-28.5 -80q0 -45 24 -75.5t63 -48.5
q30 -14 70.5 -21.5t80.5 -7.5q64 0 104.5 3.5t45.5 3.5v24q0 22 0.5 58.5t0.5 86.5v110zM354 161v-110q-16 -1 -30 -1.5t-24 -0.5q-32 0 -61.5 4t-52.5 12q-32 11 -50 31t-18 53q0 31 21.5 51.5t48.5 30.5q37 13 90 21q54 8 76 9v-100zM410 605v55h-18q-15 0 -44 -1h-99h-95
q-28 1 -44 1h-19v-55h63h98h96h62z" />
    <glyph glyph-name="glyph459" horiz-adv-x="514" 
d="M354 161v-110q-16 -1 -30 -1.5t-24 -0.5q-31 0 -61 4t-53 12q-31 10 -49.5 30.5t-18.5 53.5q0 30 21.5 51t48.5 31q38 14 93 22q26 4 44.5 5.5t28.5 2.5v-45v-55zM360 -6q28 2 46.5 3.5t21.5 1.5v81q1 38 1 87v111q0 36 -3.5 62.5t-11 46.5t-18 35t-23.5 27
q-30 27 -75.5 39t-102.5 12q-37 0 -59 -1t-30 -2l-7 -65q26 2 42 3t37 1q69 0 109 -17q61 -24 67 -99q-69 -6 -120.5 -16t-85.5 -24q-51 -20 -79.5 -54.5t-28.5 -80.5q0 -45 24.5 -76t62.5 -48q30 -14 70.5 -21.5t80.5 -7.5h24q-2 -10 -3 -20t-1 -17q0 -30 9.5 -53t33.5 -40
q16 -11 42.5 -18.5t59.5 -7.5l21 54q-38 0 -60.5 7t-31.5 18q-7 7 -10.5 18t-3.5 29q0 5 0.5 13.5t1.5 18.5z" />
    <glyph glyph-name="glyph460" horiz-adv-x="454" 
d="M415 63h-31q-48 0 -91 7.5t-77 24.5q-45 21 -71 59.5t-26 95.5q0 48 28.5 90t76.5 62q36 15 74.5 21.5t92.5 6.5h15l-4 66h-20q-66 0 -126.5 -15t-105.5 -43q-48 -32 -78.5 -81t-30.5 -107q0 -66 33 -119t93 -86q43 -23 97.5 -35t117.5 -12h27zM422 666l-34 55l-209 -123
l29 -46z" />
    <glyph glyph-name="glyph461" horiz-adv-x="454" 
d="M415 63h-31q-48 0 -91 7.5t-77 24.5q-45 21 -71 59.5t-26 95.5q0 48 28.5 90t76.5 62q36 15 74.5 21.5t92.5 6.5h15l-4 66h-20q-66 0 -126.5 -15t-105.5 -43q-48 -32 -78.5 -81t-30.5 -107q0 -66 33 -119t93 -86q43 -23 97.5 -35t117.5 -12h27zM433 683l-43 33l-114 -126
h-1l-114 126l-43 -33l127 -141h60z" />
    <glyph glyph-name="glyph462" horiz-adv-x="554" 
d="M465 -8q-1 60 -1.5 143.5t-0.5 186.5v129q0 64 1 128t1 98v39h-77l1 -225q-52 0 -105.5 -10t-95.5 -30q-70 -32 -108 -89t-38 -132q0 -63 33.5 -115t99.5 -83q51 -25 102 -32q26 -4 62 -6t82 -2h44zM389 335q0 -141 -0.5 -209t-0.5 -72h-13q-46 0 -88 9t-76 27
q-39 20 -64.5 56t-25.5 87q0 57 26.5 98.5t75.5 63.5q31 14 74 22.5t92 8.5v-91zM652 690l-58 31l-87 -189l47 -22z" />
    <glyph glyph-name="glyph463" horiz-adv-x="554" 
d="M568 565v46h-12q-9 0 -23.5 -0.5t-32.5 -0.5h-36v106h-76l1 -106h-92q-25 1 -38 1h-14v-46h56q26 1 48 1h40v-77q-52 0 -105.5 -9t-95.5 -29q-70 -32 -108 -89t-38 -132q0 -63 33.5 -115t99.5 -83q51 -25 102 -32q26 -4 62 -6t82 -2h44q-1 60 -1.5 143.5t-0.5 186.5v244
q40 0 71 -0.5t34 -0.5zM389 335q0 -141 -0.5 -209t-0.5 -72h-13q-46 0 -88 9t-76 27q-39 20 -64.5 56t-25.5 87q0 57 27 98.5t76 63.5q30 14 73 21.5t92 7.5v-89z" />
    <glyph glyph-name="glyph464" horiz-adv-x="551" 
d="M502 218q0 32 -6 61.5t-19.5 59t-34 60t-49.5 65.5l-31.5 36.5l-37.5 42.5q-41 45 -51 57l64.5 51.5l28.5 22.5l-29 34q-5 -5 -29 -26l-62 -53l-41 45l-39 43l-52 -44l43.5 -44l38.5 -41q-21 -18 -45.5 -37l-46.5 -37l28 -35l22.5 19.5l25 21.5l24 21l20.5 18l50 -55
t34 -37v-1q-30 -9 -64 -21t-72 -33q-60 -34 -92.5 -85.5t-32.5 -109.5q0 -49 18 -92.5t50 -74.5q31 -31 69.5 -47t89.5 -16q54 0 92 17t75 53q28 27 44.5 68t16.5 93zM425 218q0 -38 -11 -72t-34 -56q-43 -43 -104 -43q-38 0 -61 11t-44 32q-24 25 -35 56.5t-11 67.5
q0 27 8.5 52t23 46t34 37t41.5 27q32 16 61.5 25t50.5 14q39 -45 60 -94t21 -103z" />
    <glyph glyph-name="glyph465" horiz-adv-x="510" 
d="M470 265q0 64 -15.5 109.5t-43.5 77.5q-53 55 -142 55q-46 0 -88.5 -18t-71.5 -51q-33 -39 -50 -83.5t-17 -101.5t22.5 -103t54.5 -76q37 -35 94.5 -55.5t136.5 -20.5q29 0 51 1t26 2l9 65q-5 -1 -28.5 -2t-51.5 -1q-51 0 -87 9t-64 27q-45 28 -66 71t-22 95h353z
M395 320h-272q14 60 50.5 94.5t91.5 34.5t88.5 -34.5t41.5 -94.5zM434 605v55h-18q-15 0 -44 -1h-99h-95q-28 1 -44 1h-19v-55h63h98h96h62z" />
    <glyph glyph-name="glyph466" horiz-adv-x="510" 
d="M470 265q0 64 -15.5 109.5t-43.5 77.5q-53 55 -142 55q-46 0 -88.5 -18t-71.5 -51q-33 -39 -50 -83.5t-17 -101.5t22.5 -103t54.5 -76q37 -35 94.5 -55.5t136.5 -20.5q29 0 51 1t26 2l9 65q-5 -1 -28.5 -2t-51.5 -1q-51 0 -87 9t-64 27q-45 28 -66 71t-22 95h353z
M395 320h-272q14 60 50.5 94.5t91.5 34.5t88.5 -34.5t41.5 -94.5zM311 589v83h-84v-83h84z" />
    <glyph glyph-name="glyph467" horiz-adv-x="510" 
d="M395 320h-272q14 60 49.5 94.5t92.5 34.5q55 0 88.5 -34.5t41.5 -94.5zM283 2q16 -2 33 -3t34 -1q29 0 51.5 1.5t25.5 1.5l9 65q-5 0 -28.5 -1.5t-51.5 -1.5q-51 0 -87 9t-64 27q-45 27 -66.5 70.5t-21.5 95.5h353q0 64 -15.5 109.5t-43.5 77.5q-50 55 -142 55
q-45 0 -88.5 -18.5t-71.5 -50.5q-32 -37 -49.5 -83.5t-17.5 -101.5q0 -57 22.5 -103t54.5 -76q42 -42 109 -60q-3 -14 -5.5 -30.5t-2.5 -28.5q0 -29 9 -52t34 -41q16 -11 42 -18.5t60 -7.5l21 54q-39 0 -61.5 7t-31.5 18q-7 8 -10.5 19t-3.5 28q0 7 1 18t3 22z" />
    <glyph glyph-name="glyph468" horiz-adv-x="510" 
d="M470 265q0 64 -15.5 109.5t-43.5 77.5q-53 55 -142 55q-46 0 -88.5 -18t-71.5 -51q-33 -39 -50 -83.5t-17 -101.5t22.5 -103t54.5 -76q37 -35 94.5 -55.5t136.5 -20.5q29 0 51 1t26 2l9 65q-5 -1 -28.5 -2t-51.5 -1q-51 0 -87 9t-64 27q-45 28 -66 71t-22 95h353z
M395 320h-272q14 60 50.5 94.5t91.5 34.5t88.5 -34.5t41.5 -94.5zM428 683l-43 33l-114 -126h-1l-114 126l-43 -33l127 -141h60z" />
    <glyph glyph-name="glyph469" horiz-adv-x="551" 
d="M463 499h-56q-75 0 -128 -9t-98 -31q-63 -30 -101 -82t-38 -121t27 -115t70 -75q45 -30 106 -44t119 -14h23q-1 -51 -23.5 -86.5t-79.5 -56.5q-37 -14 -82.5 -19t-102.5 -6l8 -62q85 0 144.5 12.5t101.5 33.5q52 29 80.5 76t28.5 131q0 45 -0.5 100t-0.5 107v80t1 84
t1 67v30zM388 239v-63t-0.5 -52.5t-0.5 -37.5v-17h-18q-45 0 -83.5 9t-68.5 23q-45 21 -70.5 59t-25.5 92q0 52 25.5 93.5t76.5 63.5q38 16 72 22t79 6h13q1 -58 1 -111v-87zM459 697l-51 20q-20 -63 -46 -88.5t-60 -25.5q-35 0 -60.5 25.5t-46.5 88.5l-51 -20
q15 -61 55 -101.5t103 -40.5t103 40.5t54 101.5z" />
    <glyph glyph-name="glyph470" horiz-adv-x="551" 
d="M463 499h-56q-75 0 -128 -9t-98 -31q-63 -30 -101 -82t-38 -121t27 -115t70 -75q45 -30 106 -44t119 -14h23q-1 -51 -23.5 -86.5t-79.5 -56.5q-37 -14 -82.5 -19t-102.5 -6l8 -62q85 0 144.5 12.5t101.5 33.5q52 29 80.5 76t28.5 131q0 45 -0.5 100t-0.5 107v80t1 84
t1 67v30zM388 239v-63t-0.5 -52.5t-0.5 -37.5v-17h-18q-45 0 -83.5 9t-68.5 23q-45 21 -70.5 59t-25.5 92q0 52 25.5 93.5t76.5 63.5q38 16 72 22t79 6h13q1 -58 1 -111v-87zM465 666l-34 55l-209 -123l29 -46z" />
    <glyph glyph-name="glyph471" horiz-adv-x="551" 
d="M463 499h-56q-75 0 -128 -9t-98 -31q-63 -30 -101 -82t-38 -121t27 -115t70 -75q45 -30 106 -44t119 -14h23q-1 -51 -23.5 -86.5t-79.5 -56.5q-37 -14 -82.5 -19t-102.5 -6l8 -62q85 0 144.5 12.5t101.5 33.5q52 29 80.5 76t28.5 131q0 45 -0.5 100t-0.5 107v80t1 84
t1 67v30zM388 239v-63t-0.5 -52.5t-0.5 -37.5v-17h-18q-45 0 -83.5 9t-68.5 23q-45 21 -70.5 59t-25.5 92q0 52 25.5 93.5t76.5 63.5q38 16 72 22t79 6h13q1 -58 1 -111v-87zM389 -258l-43 48l-165 -143l36 -39z" />
    <glyph glyph-name="glyph472" horiz-adv-x="266" 
d="M172 0q0 1 -0.5 19.5t-1 51.5t-1 79t-0.5 103q0 48 1 109.5t2 131.5h-77q1 -81 1.5 -141t0.5 -111v-65t-1 -81t-1 -69v-27h77zM267 605v55h-16q-13 0 -38 -1h-81h-79q-23 1 -37 1h-17v-55h54h81h79h54z" />
    <glyph glyph-name="glyph473" horiz-adv-x="266" 
d="M176 589v84h-86v-84h86zM172 0q0 1 -0.5 19.5t-1 51.5t-1 79t-0.5 103q0 48 1 109.5t2 131.5h-77q1 -81 1.5 -141t0.5 -111v-65t-1 -81t-1 -69v-27h77z" />
    <glyph glyph-name="glyph474" horiz-adv-x="266" 
d="M176 589v84h-86v-84h86zM95 0q-2 -14 -3.5 -23.5t-1.5 -21.5q0 -29 9 -52t34 -41q16 -11 42 -18.5t60 -7.5l21 54q-39 0 -61.5 7t-31.5 18q-7 8 -10.5 19t-3.5 28q0 7 1 16.5t3 21.5h19q0 1 -0.5 19.5t-1 51.5t-1 79t-0.5 103q0 48 1 109.5t2 131.5h-77q1 -81 1.5 -141
t0.5 -111v-65t-1 -81t-1 -69v-27z" />
    <glyph glyph-name="glyph475" horiz-adv-x="266" 
d="M172 0q0 1 -0.5 19.5t-1 51.5t-1 79t-0.5 103q0 48 1 109.5t2 131.5h-77q1 -81 1.5 -141t0.5 -111v-65t-1 -81t-1 -69v-27h77z" />
    <glyph glyph-name="glyph476" horiz-adv-x="525" 
d="M167 0v45q0 42 -1 123t-1 133v78v136q0 57 0.5 107t1.5 94h-78q2 -109 2 -193v-139v-128q0 -62 -1 -124v-95q0 -32 -1 -37h19q0 -33 -7.5 -51.5t-21.5 -31.5q-10 -11 -34 -19.5t-60 -10.5l9 -53q32 2 59.5 11t42.5 18q37 20 54 58.5t17 78.5zM516 10l-166 175l-53 56.5
l-18 18.5v1l27.5 27l51.5 50l62.5 61.5l59.5 57.5l-47 49l-147 -153l-71.5 -72.5l-30.5 -30.5v-1q4 -5 27 -27l66 -64l91 -88.5l102 -102.5z" />
    <glyph glyph-name="glyph477" horiz-adv-x="525" 
d="M167 0v45q0 42 -1 123t-1 133v78v136q0 57 0.5 107t1.5 94h-78q2 -109 2 -193v-139v-128q0 -62 -1 -124v-95q0 -32 -1 -37h78zM516 10l-166 175l-53 56.5l-18 18.5v1l27.5 27l51.5 50l62.5 61.5l59.5 57.5l-47 49l-147 -153l-71.5 -72.5l-30.5 -30.5v-1q4 -5 27 -27
l66 -64l91 -88.5l102 -102.5zM369 -78l-43 48l-165 -143l36 -39z" />
    <glyph glyph-name="glyph478" horiz-adv-x="267" 
d="M267 872l-38 54l-175 -125l30 -45zM172 0v31t-1 85t-1 120v139v167q1 50 1 93t1 81h-77q1 -112 1.5 -200t0.5 -146v-102q0 -56 -1 -125t-1 -105v-38h77z" />
    <glyph glyph-name="glyph479" horiz-adv-x="267" 
d="M172 0v31t-1 85t-1 120v139v167q1 50 1 93t1 81h-77q1 -112 1.5 -200t0.5 -146v-102q0 -56 -1 -125t-1 -105v-38h19q0 -33 -7.5 -51.5t-22.5 -31.5q-10 -11 -33.5 -19.5t-60.5 -10.5l9 -53q32 2 59.5 11t43.5 18q37 20 53.5 58.5t16.5 78.5z" />
    <glyph glyph-name="glyph480" horiz-adv-x="267" 
d="M172 0v31t-1 85t-1 120v139v167q1 50 1 93t1 81h-77q1 -112 1.5 -200t0.5 -146v-102q0 -56 -1 -125t-1 -105v-38h77zM354 690l-58 31l-87 -189l47 -22z" />
    <glyph glyph-name="glyph481" horiz-adv-x="323" 
d="M172 0v31t-1 85t-1 120v139v167q1 50 1 93t1 81h-77q1 -112 1.5 -200t0.5 -146v-102q0 -56 -1 -125t-1 -105v-38h77zM336 220v83h-83v-83h83z" />
    <glyph glyph-name="glyph482" horiz-adv-x="267" 
d="M170 392v73q0 40 1 87t1 88v76h-77q1 -115 1.5 -206t0.5 -148l-72 -33q-17 -8 -27.5 -12.5t-14.5 -6.5l23 -46l33 17l58 29v-98q0 -49 -1 -103t-1 -81v-28h77v27q0 26 -1 77t-1 110v128l41.5 18.5l37.5 16.5l29 12.5t12 5.5l-23 46l-30 -15.5z" />
    <glyph glyph-name="glyph483" horiz-adv-x="267" 
d="M172 0v31t-1 85t-1 120v139v167q1 50 1 93t1 81h-77q1 -112 1.5 -200t0.5 -146v-102q0 -56 -1 -125t-1 -105v-38h77zM238 -78l-43 48l-165 -143l36 -39z" />
    <glyph glyph-name="glyph484" horiz-adv-x="581" 
d="M495 0q0 2 -0.5 19l-1.5 51t-1 61v50q0 28 1 72t1 107q0 69 -38 108t-101 39q-30 0 -75 -15.5t-114 -54.5l-1 1l1 56h-77q2 -78 2 -147v-119q0 -112 -1 -168.5t-1 -59.5h78q0 2 -0.5 23l-1.5 61t-1 74v63v96q1 26 1 41v17q45 27 89 45t74 18q49 0 69 -24t21 -81
q1 -11 1 -30v-43v-75v-33t-1 -62v-61q0 -22 -1 -29h78zM455 666l-34 55l-209 -123l29 -46z" />
    <glyph glyph-name="glyph485" horiz-adv-x="581" 
d="M495 0q0 2 -0.5 19l-1.5 51t-1 61v50q0 28 1 72t1 107q0 69 -38 108t-101 39q-30 0 -75 -15.5t-114 -54.5l-1 1l1 56h-77q2 -78 2 -147v-119q0 -112 -1 -168.5t-1 -59.5h19q0 -33 -7.5 -51.5t-21.5 -31.5q-10 -11 -34 -19.5t-60 -10.5l9 -53q32 2 59.5 11t42.5 18
q37 20 54 58.5t17 78.5q0 2 -0.5 23l-1.5 61t-1 74v63v96q1 26 1 41v17q45 27 89 45t74 18q49 0 69 -24t21 -81q1 -11 1 -30v-43v-75v-33t-1 -62v-61q0 -22 -1 -29h78z" />
    <glyph glyph-name="glyph486" horiz-adv-x="581" 
d="M495 0q0 2 -0.5 19l-1.5 51t-1 61v50q0 28 1 72t1 107q0 69 -38 108t-101 39q-30 0 -75 -15.5t-114 -54.5l-1 1l1 56h-77q2 -78 2 -147v-119q0 -112 -1 -168.5t-1 -59.5h78q0 2 -0.5 23l-1.5 61t-1 74v63v96q1 26 1 41v17q45 27 89 45t74 18q49 0 69 -24t21 -81
q1 -11 1 -30v-43v-75v-33t-1 -62v-61q0 -22 -1 -29h78zM453 683l-43 33l-114 -126h-1l-114 126l-43 -33l127 -141h60z" />
    <glyph glyph-name="glyph487" horiz-adv-x="581" 
d="M495 0q0 2 -0.5 19l-1.5 51t-1 61v50q0 28 1 72t1 107q0 69 -38 108t-101 39q-30 0 -75 -15.5t-114 -54.5l-1 1l1 56h-77q2 -78 2 -147v-119q0 -112 -1 -168.5t-1 -59.5h78q0 2 -0.5 23l-1.5 61t-1 74v63v96q1 26 1 41v17q45 27 89 45t74 18q49 0 69 -24t21 -81
q1 -11 1 -30v-43v-75v-33t-1 -62v-61q0 -22 -1 -29h78zM373 -78l-43 48l-165 -143l36 -39z" />
    <glyph glyph-name="glyph488" horiz-adv-x="569" 
d="M523 247q0 116 -73 192q-65 68 -165 68q-49 0 -92.5 -18.5t-75.5 -52.5q-72 -75 -72 -188q0 -58 20.5 -110.5t57.5 -87.5q66 -63 161 -63q51 0 90 16.5t71 46.5q38 37 58 88.5t20 108.5zM445 244q0 -45 -14.5 -84.5t-42.5 -68.5q-42 -42 -104 -42q-58 0 -96 35
q-34 31 -49 72t-15 92q0 45 14.5 85.5t40.5 66.5q22 23 47 34t59 11q28 0 54 -10t45 -29q32 -30 46.5 -73t14.5 -89zM444 605v55h-18q-15 0 -44 -1h-99h-95q-28 1 -44 1h-19v-55h63h98h96h62z" />
    <glyph glyph-name="glyph489" horiz-adv-x="569" 
d="M523 247q0 116 -73 192q-65 68 -165 68q-49 0 -92.5 -18.5t-75.5 -52.5q-72 -75 -72 -188q0 -58 20.5 -110.5t57.5 -87.5q66 -63 161 -63q51 0 90 16.5t71 46.5q38 37 58 88.5t20 108.5zM445 244q0 -45 -14.5 -84.5t-42.5 -68.5q-42 -42 -104 -42q-58 0 -96 35
q-34 31 -49 72t-15 92q0 45 14.5 85.5t40.5 66.5q22 23 47 34t59 11q28 0 54 -10t45 -29q32 -30 46.5 -73t14.5 -89zM360 683l-48 40l-130 -141l38 -32zM510 682l-47 39l-130 -140l38 -33z" />
    <glyph glyph-name="glyph490" horiz-adv-x="385" 
d="M375 437l-15 68q-16 -4 -38 -12t-47.5 -19t-53.5 -25t-55 -30l-1 1v74h-76q1 -36 1 -74v-80q1 -41 1 -73v-54v-97q0 -39 -1 -62t-1 -37v-17h78q0 5 -0.5 26.5l-1.5 61.5t-1 74v63v81q1 22 1 34v15q72 34 127.5 54.5t82.5 27.5zM360 666l-34 55l-209 -123l29 -46z" />
    <glyph glyph-name="glyph491" horiz-adv-x="385" 
d="M375 437l-15 68q-16 -4 -38 -12t-47.5 -19t-53.5 -25t-55 -30l-1 1v74h-76q1 -36 1 -74v-80q1 -41 1 -73v-54v-97q0 -39 -1 -62t-1 -37v-17h19q0 -33 -7.5 -51.5t-21.5 -31.5q-10 -11 -34 -19.5t-60 -10.5l9 -53q32 2 59.5 11t42.5 18q37 20 54 58.5t17 78.5
q0 5 -0.5 26.5l-1.5 61.5t-1 74v63v81q1 22 1 34v15q72 34 127.5 54.5t82.5 27.5z" />
    <glyph glyph-name="glyph492" horiz-adv-x="385" 
d="M375 437l-15 68q-16 -4 -38 -12t-47.5 -19t-53.5 -25t-55 -30l-1 1v74h-76q1 -36 1 -74v-80q1 -41 1 -73v-54v-97q0 -39 -1 -62t-1 -37v-17h78q0 5 -0.5 26.5l-1.5 61.5t-1 74v63v81q1 22 1 34v15q72 34 127.5 54.5t82.5 27.5zM364 683l-43 33l-114 -126h-1l-114 126
l-43 -33l127 -141h60z" />
    <glyph glyph-name="glyph493" horiz-adv-x="385" 
d="M375 437l-15 68q-16 -4 -38 -12t-47.5 -19t-53.5 -25t-55 -30l-1 1v74h-76q1 -36 1 -74v-80q1 -41 1 -73v-54v-97q0 -39 -1 -62t-1 -37v-17h78q0 5 -0.5 26.5l-1.5 61.5t-1 74v63v81q1 22 1 34v15q72 34 127.5 54.5t82.5 27.5zM301 -78l-43 48l-165 -143l36 -39z" />
    <glyph glyph-name="glyph494" horiz-adv-x="407" 
d="M358 143q0 36 -18 62.5t-52 47.5q-8 5 -21 11.5l-30 14.5t-30.5 15t-23.5 13q-17 10 -29.5 24t-12.5 34q0 14 9 29t30 26q14 7 34 11t43 4q32 0 58.5 -2t29.5 -2l-5 65q-3 0 -22 1t-49 1q-33 0 -67.5 -5t-63.5 -21q-34 -17 -53.5 -46t-19.5 -65t17.5 -63.5t49.5 -47.5
q12 -7 27 -14l30 -14.5l29.5 -14.5t24.5 -14q18 -11 28 -23.5t10 -32.5q0 -45 -48 -64q-17 -8 -44 -11t-44 -3q-15 0 -30 0.5t-28.5 1.5t-22.5 2t-12 1l3 -64q2 0 10 -1t19.5 -1.5t24.5 -1.5t25 -1q49 0 90 9.5t70 28.5q29 17 46.5 45.5t17.5 64.5zM369 666l-34 55
l-209 -123l29 -46z" />
    <glyph glyph-name="glyph495" horiz-adv-x="407" 
d="M358 143q0 36 -18 62.5t-52 47.5q-8 5 -21 11.5l-30 14.5t-30.5 15t-23.5 13q-17 10 -29.5 24t-12.5 34q0 14 9 29t30 26q14 7 34 11t43 4q32 0 58.5 -2t29.5 -2l-5 65q-3 0 -22 1t-49 1q-33 0 -67.5 -5t-63.5 -21q-34 -17 -53.5 -46t-19.5 -65t17.5 -63.5t49.5 -47.5
q12 -7 27 -14l30 -14.5l29.5 -14.5t24.5 -14q18 -11 28 -23.5t10 -32.5q0 -45 -48 -64q-17 -8 -44 -11t-44 -3q-15 0 -30 0.5t-28.5 1.5t-22.5 2t-12 1l3 -64q2 0 10 -1t19.5 -1.5t24.5 -1.5t25 -1q16 0 31.5 1t29.5 4q0 -34 -6.5 -54.5t-21.5 -34.5q-11 -11 -34.5 -19.5
t-59.5 -10.5l9 -53q32 2 59 11.5t43 17.5q37 20 53 58t16 98q12 4 22 9t19 11q29 17 46.5 45.5t17.5 64.5z" />
    <glyph glyph-name="glyph496" horiz-adv-x="407" 
d="M358 143q0 36 -18 62.5t-52 47.5q-8 5 -21 11.5l-30 14.5t-30.5 15t-23.5 13q-17 10 -29.5 24t-12.5 34q0 14 9 29t30 26q14 7 34 11t43 4q32 0 58.5 -2t29.5 -2l-5 65q-3 0 -22 1t-49 1q-33 0 -67.5 -5t-63.5 -21q-34 -17 -53.5 -46t-19.5 -65t17.5 -63.5t49.5 -47.5
q12 -7 27 -14l30 -14.5l29.5 -14.5t24.5 -14q18 -11 28 -23.5t10 -32.5q0 -45 -48 -64q-17 -8 -44 -11t-44 -3q-15 0 -30 0.5t-28.5 1.5t-22.5 2t-12 1l3 -64q2 0 10 -1t19.5 -1.5t24.5 -1.5t25 -1q49 0 90 9.5t70 28.5q29 17 46.5 45.5t17.5 64.5zM381 683l-43 33
l-114 -126h-1l-114 126l-43 -33l127 -141h60z" />
    <glyph glyph-name="glyph497" horiz-adv-x="392" 
d="M358 12v49q-4 0 -16 -0.5t-21 -0.5q-72 0 -105.5 28t-33.5 92v121v78q1 27 1 41v17h175v57h-175v116h-71v-116h-86v-57h82q0 -46 -0.5 -84t-0.5 -70t-0.5 -60.5t-0.5 -55.5q0 -85 50 -127t144 -42q0 -28 -7.5 -47.5t-21.5 -33.5q-11 -10 -34.5 -19t-60.5 -11l9 -53
q32 2 59.5 11t43.5 18q37 20 53.5 58.5t16.5 90.5z" />
    <glyph glyph-name="glyph498" horiz-adv-x="392" 
d="M358 61q-4 0 -16 -0.5t-21 -0.5q-72 0 -105.5 28t-33.5 92v121v75q1 26 1 41v20h175v57h-175v116h-71v-116h-86v-57h82q0 -46 -0.5 -84t-0.5 -70t-0.5 -60.5t-0.5 -55.5q0 -87 51.5 -128.5t151.5 -41.5q10 0 23.5 0.5t16.5 1.5zM370 690l-57 31l-83 -171l49 -23z" />
    <glyph glyph-name="glyph499" horiz-adv-x="581" 
d="M492 0q-1 61 -1 103q0 43 -1 66v111q0 57 0.5 96t0.5 63q0 25 0.5 38t0.5 17h-77v-23q0 -19 1 -55q1 -35 1 -66v-57q0 -71 -0.5 -119.5t-0.5 -53.5q-25 -19 -76 -42q-54 -23 -96 -23t-61 27t-20 85v28q0 18 -1 43v84v44q0 26 1 58t1 49v21h-78v-23q0 -18 1 -51
q1 -32 1.5 -59.5t0.5 -49.5v-32q0 -19 -1 -46t-1 -50v-43q0 -73 38.5 -113t105.5 -40q49 0 100 24q26 12 47.5 23.5t38.5 22.5v-57h75zM386 624q0 20 -7.5 37t-20.5 29.5t-30 19.5t-36 7t-36 -7t-30 -19.5t-20.5 -29.5t-7.5 -37q0 -39 27 -65.5t66 -26.5q19 0 36.5 7
t30.5 19.5t20.5 29.5t7.5 36zM343 625q0 -22 -14.5 -37t-36.5 -15q-21 0 -36 14.5t-15 37.5q0 22 14.5 36.5t36.5 14.5t36.5 -14.5t14.5 -36.5z" />
    <glyph glyph-name="glyph500" horiz-adv-x="581" 
d="M492 0q-1 61 -1 103q0 43 -1 66v111q0 57 0.5 96t0.5 63q0 25 0.5 38t0.5 17h-77v-23q0 -19 1 -55q1 -35 1 -66v-57q0 -71 -0.5 -119.5t-0.5 -53.5q-25 -19 -76 -42q-54 -23 -96 -23t-61 27t-20 85v28q0 18 -1 43v84v44q0 26 1 58t1 49v21h-78v-23q0 -18 1 -51
q1 -32 1.5 -59.5t0.5 -49.5v-32q0 -19 -1 -46t-1 -50v-43q0 -73 38.5 -113t105.5 -40q49 0 100 24q26 12 47.5 23.5t38.5 22.5v-57h75zM453 605v55h-18q-15 0 -44 -1h-99h-95q-28 1 -44 1h-19v-55h63h98h96h62z" />
    <glyph glyph-name="glyph501" horiz-adv-x="581" 
d="M417 0q-2 -14 -3.5 -23.5t-1.5 -21.5q0 -29 9 -53t34 -40q16 -9 42 -17.5t60 -8.5l21 54q-38 0 -60.5 7t-32.5 18q-7 8 -10 19t-3 28q0 7 1 16.5t2 21.5h17q-1 61 -1 103q0 43 -1 66v111q0 57 0.5 96t0.5 63q0 25 0.5 38t0.5 17h-77v-23q0 -19 1 -55q1 -35 1 -66v-57
q0 -71 -0.5 -119.5t-0.5 -53.5q-25 -19 -76 -42q-54 -23 -96 -23t-61 27t-20 85v28q0 18 -1 43v84v44q0 26 1 58t1 49v21h-78v-23q0 -18 1 -51q1 -32 1.5 -59.5t0.5 -49.5v-32q0 -19 -1 -46t-1 -50v-43q0 -73 38.5 -113t105.5 -40q49 0 100 24q26 12 47.5 23.5t38.5 22.5
v-57z" />
    <glyph glyph-name="glyph502" horiz-adv-x="581" 
d="M492 0q-1 61 -1 103q0 43 -1 66v111q0 57 0.5 96t0.5 63q0 25 0.5 38t0.5 17h-77v-23q0 -19 1 -55q1 -35 1 -66v-57q0 -71 -0.5 -119.5t-0.5 -53.5q-25 -19 -76 -42q-54 -23 -96 -23t-61 27t-20 85v28q0 18 -1 43v84v44q0 26 1 58t1 49v21h-78v-23q0 -18 1 -51
q1 -32 1.5 -59.5t0.5 -49.5v-32q0 -19 -1 -46t-1 -50v-43q0 -73 38.5 -113t105.5 -40q49 0 100 24q26 12 47.5 23.5t38.5 22.5v-57h75zM355 683l-48 40l-130 -141l38 -32zM505 682l-47 39l-130 -140l38 -33z" />
    <glyph glyph-name="glyph503" horiz-adv-x="535" 
d="M507 474l-67 27l-60 -144.5l-55 -131.5l-40 -95.5t-15 -34.5h-1q-2 4 -16.5 38.5l-42.5 100.5l-55.5 133.5l-53.5 135.5l-74 -32l76.5 -171.5l63.5 -145.5l44.5 -102.5t17.5 -40.5l-102 -209l68 -25q4 8 31.5 70.5l80.5 180.5l102.5 229zM447 666l-34 55l-209 -123
l29 -46z" />
    <glyph glyph-name="glyph504" horiz-adv-x="477" 
d="M445 3v63q-3 0 -48 -1t-144 -1q-34 0 -64 0.5t-49 0.5v1l36 47.5l76 99.5l93.5 120.5l86.5 109.5l-25 46h-78h-106h-93h-79v-61h21t55 1q37 1 67 1h53q20 0 41.5 -0.5t42.5 -0.5l1 -1l-165 -213l-73 -93.5l-56 -72.5l16 -46h73h118h117h83zM392 666l-34 55l-209 -123
l29 -46z" />
    <glyph glyph-name="glyph505" horiz-adv-x="477" 
d="M445 3v63q-3 0 -48 -1t-144 -1q-34 0 -64 0.5t-49 0.5v1l36 47.5l76 99.5l93.5 120.5l86.5 109.5l-25 46h-78h-106h-93h-79v-61h21t55 1q37 1 67 1h53q20 0 41.5 -0.5t42.5 -0.5l1 -1l-165 -213l-73 -93.5l-56 -72.5l16 -46h73h118h117h83zM282 589v83h-84v-83h84z" />
    <glyph glyph-name="glyph506" horiz-adv-x="477" 
d="M445 3v63q-3 0 -48 -1t-144 -1q-34 0 -64 0.5t-49 0.5v1l36 47.5l76 99.5l93.5 120.5l86.5 109.5l-25 46h-78h-106h-93h-79v-61h21t55 1q37 1 67 1h53q20 0 41.5 -0.5t42.5 -0.5l1 -1l-165 -213l-73 -93.5l-56 -72.5l16 -46h73h118h117h83zM398 683l-43 33l-114 -126h-1
l-114 126l-43 -33l127 -141h60z" />
    <glyph glyph-name="glyph507" horiz-adv-x="555" 
d="M512 262q0 63 -27.5 111t-78.5 77q-44 26 -99 37q-54 11 -142 12l2 217h-78q1 -51 1 -109v-125q1 -67 1 -126v-111q0 -220 -1 -338t-1 -129h78l-2 224q54 0 113 10.5t110 37.5q57 31 90.5 84t33.5 128zM434 260q0 -60 -26 -100.5t-75 -64.5q-30 -15 -76 -23.5t-92 -8.5
v86v83v127q1 34 1 53v25h22q99 0 165 -36q36 -21 58.5 -57t22.5 -84z" />
    <glyph glyph-name="glyph508" horiz-adv-x="954" 
d="M448 295h-237l26 57l32 71l32 73l28 60h2l61.5 -136.5zM946 631l-68 35q-2 -6 -26 -62l-71 -163l-85 -192.5l-68 -151.5h-2l-80 176.5l-72 159.5l-60 133.5l-43 96.5h-67l-97.5 -214l-93.5 -204l-72 -155t-33 -68l65 -35l31 69l80 177h295l107 -243h69l114 251.5
l92 202.5l62 136.5t23 50.5z" />
    <glyph glyph-name="glyph509" horiz-adv-x="1164" 
d="M948 295h-237l26 57l32 71l32 73l28 60h2l61.5 -136.5zM805 663l-107.5 -232.5l-86.5 -188.5l-59 -128.5t-25 -53.5q-72 0 -136 14t-115 43q-64 37 -94 91t-30 120q0 63 33.5 118t94.5 90q48 27 112.5 40.5t127.5 13.5h16q-2 23 -3 41t-2 29h-22q-110 0 -203 -34
q-95 -33 -151 -89q-38 -39 -62 -91.5t-24 -116.5q0 -72 24 -126.5t66 -94.5q118 -114 372 -114q14 0 27 0.5t20 0.5l29.5 67.5l76.5 170.5h292q48 -106 75 -171.5t31 -74.5l76 39q-2 5 -26 58l-72 156l-192 423h-63z" />
    <glyph glyph-name="glyph510" horiz-adv-x="615" 
d="M544 211h-17q-32 0 -60.5 4.5t-49.5 15.5q-29 14 -46.5 37.5t-17.5 59.5q0 31 18.5 57t49.5 39q15 6 26.5 9.5t24 5t26.5 2t34 0.5h8l-4 62h-11q-42 0 -86 -9.5t-77 -30.5q-34 -23 -56 -58t-22 -77q0 -46 24 -85t66 -62q29 -16 69 -24t82 -8h15zM547 60h-23
q-66 0 -130 13.5t-118 43.5q-66 37 -95.5 91t-29.5 120q0 63 34 118t95 90q48 27 112.5 40.5t127.5 13.5h16q-2 23 -3.5 43t-1.5 27h-22q-110 0 -203 -34q-95 -33 -151 -89q-38 -39 -62 -91.5t-24 -116.5q0 -72 24 -126.5t66 -94.5q60 -57 152 -87t212 -30h17q2 24 4 43.5
t3 25.5z" />
    <glyph glyph-name="glyph511" horiz-adv-x="672" 
d="M617 327q0 75 -52 123q-46 43 -118 43q-36 0 -66 -12t-53 -33q-51 -49 -51 -120q0 -79 56 -127q22 -19 51.5 -29.5t62.5 -10.5q32 0 60.5 9.5t53.5 30.5q26 23 41 57t15 69zM547 60h-23q-66 0 -130 13.5t-118 43.5q-66 37 -95.5 91t-29.5 120q0 63 34 118t95 90
q48 27 112.5 40.5t127.5 13.5h16q-2 23 -3.5 43t-1.5 27h-22q-110 0 -203 -34q-95 -33 -151 -89q-38 -39 -62 -91.5t-24 -116.5q0 -72 24 -126.5t66 -94.5q60 -57 152 -87t212 -30h17q2 30 3.5 43.5t3.5 25.5zM550 325q0 -25 -10 -47.5t-27 -37.5q-27 -25 -66 -25
q-37 0 -61 21q-22 17 -32 40.5t-10 51.5q0 53 36 86q28 25 68 25q38 0 63 -22q20 -18 29.5 -41.5t9.5 -50.5z" />
    <glyph glyph-name="glyph512" horiz-adv-x="1033" 
d="M746 651h-193q-144 0 -239 -26t-158 -89q-38 -38 -62.5 -91t-24.5 -117q0 -72 24 -126t66 -94q60 -57 151.5 -86t212.5 -29h7l7 68h-13q-66 0 -130 13t-118 43q-64 37 -94 90.5t-30 119.5q0 64 33 119t96 91q51 29 120 38.5t167 9.5h142q1 -94 1 -169v-120
q0 -131 -1 -208t-1 -88h81v25q0 22 -1 63q-1 42 -1 92v112q0 78 0.5 152.5t1.5 140.5q117 0 175 -0.5t64 -0.5v68h-26q-21 0 -61 -1h-196z" />
    <glyph glyph-name="glyph513" horiz-adv-x="1076" 
d="M586 652q0 -41 0.5 -80.5t0.5 -76.5t0.5 -68.5t0.5 -55.5h-80h-126h-125h-65q0 66 1 137t1 146h-80q1 -91 1.5 -167.5t0.5 -130.5q0 -178 -1 -264t-1 -92h80q0 7 -1 88.5t-1 217.5h75h115h131h75q0 -68 -0.5 -123t-0.5 -95q0 -39 -0.5 -61.5t-0.5 -25.5q51 0 102 0.5
t99 0.5h83t66 -0.5t45 -0.5h20v68q-7 0 -56 -0.5t-121 -0.5h-89t-69 1q-1 36 -1.5 90.5t-0.5 146.5h62q19 1 34 1h29q91 0 145.5 -1t60.5 -1v68q-10 0 -65 -1t-146 -1h-120q0 49 1 104t1 110q21 0 56 0.5t71 0.5q84 0 140 -1t62 -1v68q-7 0 -64 -0.5t-151 -0.5
q-55 0 -107 0.5t-87 0.5z" />
    <glyph glyph-name="glyph514" horiz-adv-x="1088" 
d="M314 2q88 0 137.5 -0.5t54.5 -0.5q2 4 11.5 26.5l28.5 65.5l34.5 77.5l28.5 62.5h292q48 -106 75 -170.5t31 -75.5l76 39q-2 3 -26 56l-72 156l-95.5 209l-96.5 216h-64l-101 -221.5l-77 -168.5l-57 -122.5t-38 -82.5q-38 -1 -75 -1h-68h-29t-32.5 0.5t-31.5 0.5h-27v30
q0 25 -0.5 64.5t-0.5 92.5v118v135q1 42 1 78t1 68h-80q0 -17 1 -95.5t1 -218.5q0 -84 -0.5 -169t-1.5 -170q35 0 89 0.5t111 0.5zM873 295h-237l26 57l32 71l32 73l28 60h2l61.5 -136.5z" />
    <glyph glyph-name="glyph515" horiz-adv-x="643" 
d="M519 1v68h-22q-17 0 -49 -1t-69 -1h-81q-26 0 -54 0.5t-51 0.5v26q0 23 -1 66v213v135q1 42 1 78t1 68h-80q0 -11 1 -92.5t1 -221.5q0 -84 -0.5 -169t-1.5 -170q35 0 89 0.5t111 0.5q88 0 143 -0.5t62 -0.5zM417 471v55q0 28 1 70h77h27t36 -1h43v58h-13t-32 -1h-70
q-39 0 -72 0.5t-65 0.5v-25t1 -60t1 -74v-64v-46q0 -22 -1 -45v-53q0 -29 -1 -66q32 0 65 0.5t72 0.5h31q18 0 40 -1h48v58h-13t-31 -1h-66h-77v15q0 14 -1 39v86h69h62h37v55h-11q-8 0 -24 -1h-55h-43h-35z" />
    <glyph glyph-name="glyph516" horiz-adv-x="539" 
d="M514 1v68h-21t-48 -1q-30 -1 -67 -1h-80q-26 0 -54 0.5t-51 0.5v26q0 23 -1 66v213v135q1 42 1 78t1 68h-80q0 -11 1 -92.5t1 -221.5q0 -84 -0.5 -169t-1.5 -170q35 0 89 0.5t111 0.5q88 0 140.5 -0.5t59.5 -0.5zM456 220q0 51 -0.5 112t-0.5 127v50v46q0 23 0.5 47
t0.5 52h-72v-24q0 -21 1 -61t1 -75v-64v-46q0 -22 -1 -45v-53q0 -29 -1 -66h72z" />
    <glyph glyph-name="glyph517" horiz-adv-x="588" 
d="M519 1v68h-22q-17 0 -49 -1t-69 -1h-81q-26 0 -54 0.5t-51 0.5v26q0 23 -1 66v213v135q1 42 1 78t1 68h-80q0 -11 1 -92.5t1 -221.5q0 -84 -0.5 -169t-1.5 -170q35 0 89 0.5t111 0.5q88 0 143 -0.5t62 -0.5zM605 220v59h-14t-31 -1h-65q-15 0 -37 0.5t-39 0.5v20t-1 45
v115v50q0 24 0.5 46.5l1 46.5t0.5 52h-71v-24q0 -21 1 -61t1 -75v-64v-46q0 -22 -1 -45v-53q0 -29 -1 -66q32 0 65 0.5t72 0.5h31t39 -1h49z" />
    <glyph glyph-name="glyph518" horiz-adv-x="1248" 
d="M792 1q8 -1 30 -1.5t51 -0.5q66 0 119 10t95 32q48 24 73.5 63.5t25.5 87.5q0 37 -11 62.5t-32 46.5q-24 24 -55 37t-65 16v5q42 15 76 53q33 39 33 89q0 48 -25 81t-70 50q-30 12 -74 18.5t-101 6.5q-19 0 -40.5 -0.5t-46.5 -1.5q-50 -2 -78 -3q-4 -7 -25.5 -54.5
l-62.5 -137.5l-74.5 -163l-60.5 -135h-1l-79 176.5l-67 159.5l-47.5 117l-18.5 46l-77 -11q-2 -9 -13.5 -65l-33.5 -160l-43.5 -206.5l-47.5 -209.5l75 -14q17 97 35 188l36 176l27.5 130.5t10.5 51.5h2l28.5 -67.5l48.5 -115.5l60.5 -144l64.5 -152h65l75 170l66 147
l51 109.5l26 54.5h1zM861 63q-1 2 -4 24t-10 64q-7 43 -13 84t-11 82l-13.5 99t-11.5 87q-10 80 -12 88h9q8 0 21 1t25 1h23q85 0 130 -20q25 -13 39.5 -34.5t14.5 -51.5q0 -54 -47 -89q-22 -15 -49 -22t-54 -9l8 -58q3 0 13.5 0.5t38.5 0.5q34 0 63 -10.5t46 -27.5
q17 -18 26 -37.5t9 -44.5q0 -33 -15 -57.5t-42 -39.5q-34 -19 -80.5 -24.5t-103.5 -5.5z" />
    <glyph glyph-name="glyph519" horiz-adv-x="1318" 
d="M793 -3h11q91 0 162.5 17t129.5 52q69 40 111 106t42 151q0 166 -141 257q-63 39 -140 57t-179 18h-13t-31 -1h-47q-2 -3 -87 -188l-76 -167.5l-61 -136.5h-1l-79 176.5l-67 159.5l-47.5 117l-18.5 46l-77 -11q-2 -9 -13.5 -65l-33.5 -160l-43.5 -206.5l-47.5 -209.5
l75 -14q17 97 35 188l36 176l27.5 130.5t10.5 51.5h2l28.5 -67.5l48.5 -115.5l60.5 -144l64.5 -152h65l75 170l66 147l51 109.5l26 54.5h1zM1042 115q-40 -23 -86.5 -34.5t-94.5 -16.5q-1 3 -4.5 28.5t-11.5 73.5t-14 89l-11 75l-10.5 79l-11.5 86q-10 86 -12 95h21
q69 0 134 -16.5t110 -45.5q60 -37 87 -89t27 -115q0 -72 -34 -124t-89 -85z" />
    <glyph glyph-name="glyph520" horiz-adv-x="1208" 
d="M792 1h61q26 1 49 1h44q91 0 141 -0.5t55 -0.5v68q-5 0 -44 -0.5t-115 -0.5h-60q-29 0 -64 1l-37 237q23 0 56 0.5t58 0.5q91 0 139.5 -1t53.5 -1v68q-7 0 -62.5 -1t-145.5 -1q-24 0 -55.5 0.5t-53.5 0.5l-28 213h63q22 1 41 1h39q85 0 138 -1t62 -1v68q-5 0 -62.5 -0.5
t-151.5 -0.5h-57q-29 0 -57.5 0.5t-54.5 0.5h-47q-5 -9 -87 -189l-75.5 -165.5l-60.5 -135.5h-1l-79 176.5l-67 159.5l-47.5 117l-18.5 46l-77 -11q-2 -9 -13.5 -65l-33.5 -160l-43.5 -206.5l-47.5 -209.5l75 -14q17 97 35 188l36 176l27.5 130.5t10.5 51.5h2l28.5 -67.5
l48.5 -115.5l60.5 -144l64.5 -152h65l75 170l66 147l51 109.5l26 54.5h1z" />
    <glyph glyph-name="glyph521" horiz-adv-x="1175" 
d="M830 269l-46 321q6 0 17.5 0.5t20.5 0.5q36 0 70 -3.5t64 -15.5q93 -41 93 -142q0 -52 -24.5 -86.5t-69.5 -54.5q-28 -12 -59.5 -16t-65.5 -4zM838 207q60 1 112 12.5t94 41.5q42 29 65 73t23 96q0 84 -44 136.5t-123 72.5q-33 7 -74.5 11t-93.5 4h-22q-12 0 -26 -0.5
l-28 -1t-24 -0.5q-2 -4 -23 -50.5l-63 -137.5l-76 -166l-61 -136h-1l-79 176.5l-67 159.5l-47.5 117l-18.5 46l-77 -11q-2 -9 -13.5 -65l-33.5 -160l-43.5 -206.5l-47.5 -209.5l75 -14q17 97 35 188l36 176l27.5 130.5t10.5 51.5h2l28.5 -67.5l48.5 -115.5l60.5 -144
l64.5 -152h65l75 170l66 147l51 109.5l26 54.5h1l75 -548l77 13z" />
    <glyph glyph-name="glyph522" horiz-adv-x="1116" 
d="M676 654h-76q0 -43 0.5 -108.5t1.5 -155.5t1.5 -152.5t0.5 -100.5l-1 -1l-128.5 160l-136.5 172l-108 137.5t-42 52.5l-74 -35q1 -100 1.5 -187t0.5 -141q0 -134 -1 -208.5t-1 -86.5h76q-1 28 -3 220q-1 96 -1 176v146h1l47 -59l101 -127l132.5 -170l143.5 -189l65 32
q0 3 -0.5 25t-0.5 62t-0.5 95.5t-0.5 124.5v142q1 50 1 94t1 82zM1104 45l-114.5 104l-94.5 86l-67 62.5t-30 27.5v1l111 114l88 88.5l85 83.5l-55 49l-199 -211l-82 -85l-47 -48v-2l38.5 -35l84.5 -78l111 -101.5l115 -109.5z" />
    <glyph glyph-name="glyph523" horiz-adv-x="923" 
d="M687 585l232 -1v68q-8 0 -75.5 -0.5t-190.5 -0.5q-81 0 -151.5 0.5t-121.5 0.5v-68q7 0 66.5 1t165.5 0v-96t1 -127t1.5 -128.5t0.5 -101.5l-1 -1l-150 186l-136 168l-100 123.5t-40 49.5l-74 -35q1 -100 1.5 -187t0.5 -141q0 -134 -1 -208.5t-1 -86.5h76q-1 28 -3 220
q-1 96 -1 176v146h1l48 -59.5l104 -127.5l137.5 -171.5l145.5 -191.5l65 32q0 12 -1 90t-1 218v106q1 37 1 73q0 37 1 74z" />
    <glyph glyph-name="glyph524" horiz-adv-x="1250" 
d="M1034 295h-236h-1l26 57l32 71l33 73l28 60h1l61.5 -136.5zM396 295v4q60 40 86.5 84t26.5 93q0 54 -28 93.5t-77 60.5q-38 16 -78 21t-82 5h-33t-42 -1t-37 -1h-18q1 -88 1.5 -148t0.5 -93v-90v-137q0 -57 -1 -92t-1 -59v-35h80v46q0 34 -1 91t-1 104v85q0 29 0.5 100
t1.5 163q3 0 13 0.5t27 0.5q27 0 58 -2.5t60 -12.5q34 -13 54 -40t20 -65q0 -42 -13.5 -66t-31.5 -40q-11 -9 -24.5 -18.5t-27.5 -17t-27 -13t-22 -8.5l-1 -10l134 -115l67 -58l55.5 -47l98.5 -84l42 17l94 223h292l75 -172t31 -74l76 39q-2 5 -26.5 58.5l-72.5 155.5
l-94.5 208l-96.5 215h-63l-87.5 -194.5l-70.5 -154.5l-56 -122l-45 -98l-120 99l-55 47.5z" />
    <glyph glyph-name="glyph525" horiz-adv-x="950" 
d="M662 651h-273q-48 0 -84 -2.5t-64.5 -7.5t-50 -13.5t-39.5 -20.5q-30 -22 -51 -53.5t-21 -76.5q0 -54 25 -88t67 -60q13 -9 29.5 -18.5l32 -18.5l30 -17l24.5 -14q30 -19 48.5 -41.5t18.5 -58.5q0 -34 -16 -51t-44 -30q-22 -10 -54.5 -15t-61.5 -5q-20 0 -39 1t-36 2
t-30.5 2.5t-20.5 2.5l4 -69q6 0 18.5 -1.5t29 -2.5t35.5 -2t38 -1q103 0 172 37q39 21 63 57t24 87q0 48 -23.5 85t-74.5 68l-56 32.5t-53 31.5q-37 24 -52 46t-15 47q0 27 15 47t34 31q13 8 47 16t131 8h236q2 -94 2 -169v-120q0 -130 -1 -208.5t-1 -87.5h80v27t-1 62
q-1 41 -1 91v112q0 78 0.5 152.5t1.5 140.5h100q43 0 71.5 -0.5t44.5 -0.5h24v68h-26q-21 0 -61 -1h-196z" />
    <glyph glyph-name="glyph526" horiz-adv-x="718" 
d="M639 652h-29t-51 -1h-214h-184q-52 1 -96 1h-79v-68h31q24 0 62 1q76 1 176 0q1 -64 1.5 -136.5t0.5 -130.5q0 -88 -0.5 -148.5t-1.5 -94.5t-1 -52v-22q36 0 87 0.5t114 0.5q91 0 138.5 -0.5t52.5 -0.5v68q-7 0 -43 -0.5t-111 -0.5h-89q-40 0 -69 1q-1 36 -1 90v147
q21 0 53.5 0.5t56.5 0.5q91 0 140 -1t56 -1v68q-5 0 -57.5 -1t-143.5 -1q-23 0 -53.5 0.5t-51.5 0.5q0 48 0.5 103t0.5 110q21 0 56 0.5t72 0.5q85 0 125 -1t52 -1v68z" />
    <glyph glyph-name="glyph527" horiz-adv-x="950" 
d="M947 26q-3 7 -27.5 60l-70.5 153l-93.5 206l-98.5 218h-63l-64.5 -138.5l-68.5 -147.5l-67 -145.5l-61 -135.5h-2l-86.5 191l-80.5 184l-60 139l-24 55l-76 -38q2 -4 25.5 -55.5l70.5 -153.5l95 -208l99 -220h66l111 243h294q48 -106 75 -171.5t31 -74.5zM736 295h-1
h-237l59 130l60 131h2l61 -136.5z" />
    <glyph glyph-name="glyph528" horiz-adv-x="310" 
d="M195 0v42q0 36 -1 102t-1 132v134v72q0 42 0.5 89.5t1 100.5t0.5 107h-80q1 -118 1.5 -219t0.5 -170v-176t-1 -116t-1 -67v-31h80z" />
    <glyph glyph-name="glyph529" horiz-adv-x="531" 
d="M512 1v68q-5 0 -23.5 -0.5t-47.5 -0.5t-67 -0.5t-81 -0.5q-23 0 -51.5 0.5t-48.5 0.5v39q0 32 -1 89v231v153q1 51 1 100q0 50 1 99h-80v-41q0 -33 1 -95t1 -124v-125v-89q0 -48 -1 -106v-107q0 -49 -1 -91q35 0 86.5 0.5t109.5 0.5q88 0 138 -0.5t64 -0.5z" />
    <glyph glyph-name="glyph530" horiz-adv-x="472" 
d="M516 711v68h-25t-61 -1h-197q-82 0 -153.5 0.5t-122.5 0.5v-68q9 0 72 1t168 0q1 -102 1 -190v-143v-167q0 -69 -1 -114t-1 -69v-29h80v36q0 35 -1 101t-1 125v113v67t0.5 82l1 92t0.5 96q117 0 173 -0.5t67 -0.5z" />
    <glyph glyph-name="glyph531" horiz-adv-x="511" 
d="M545 748l-57 43q-3 -3 -81 -107l-74 -98l-71 -92h-1l-70 91l-74 97l-82 109l-64 -49q2 -4 26.5 -34.5l70.5 -88.5l153 -195q0 -51 -0.5 -115.5t-1.5 -143.5q-1 -78 -1 -119v-46h81q0 3 -0.5 44l-1.5 120q-2 158 0 266l88 111.5l72 92.5l54 70z" />
    <glyph glyph-name="glyph532" horiz-adv-x="786" 
d="M752 61q-3 0 -15 -0.5t-21 -0.5q-72 0 -106 28t-34 92v121v31q0 20 1 46t1 41v18h174v57h-174v126h-71v-126h-112q-81 0 -141 -14t-105 -42q-48 -32 -78 -81.5t-30 -106.5q0 -66 32.5 -119t92.5 -86q86 -47 214 -47h7l6 65h-11q-48 0 -90 7.5t-77 24.5q-45 21 -70.5 59.5
t-25.5 95.5q0 51 29 93.5t77 64.5q21 9 41 14.5t42.5 9t47.5 4.5t57 1h89v-84t-0.5 -70t-0.5 -61v-55q0 -87 51.5 -128.5t151.5 -41.5q9 0 22 0.5t18 1.5z" />
    <glyph glyph-name="glyph533" horiz-adv-x="687" 
d="M692 654l-9 62h-27q-60 0 -100.5 -16t-64.5 -41q-29 -30 -40 -64t-11 -77v-24h-48h-74h-79h-44v22q0 33 8.5 59.5t24.5 41.5q21 20 47.5 28.5t72.5 8.5h24l-9 62h-27q-60 0 -100 -16t-64 -41q-28 -30 -39.5 -64t-11.5 -77v-24h-96v-57l96 1v-161q0 -74 -1 -140
q-1 -65 -1 -99v-38h77v39q0 36 -1 104v295h50h75h68h52v-161q0 -74 -1 -140q-1 -65 -1 -99v-38h78v39q0 36 -1 104v295h66h99v56h-61h-51h-36h-17v22q0 33 8.5 59.5t24.5 41.5q21 20 47.5 28.5t71.5 8.5h25z" />
    <glyph glyph-name="glyph534" horiz-adv-x="604" 
d="M524 589v84h-86v-84h86zM515 3q0 55 -0.5 122.5t-0.5 128.5v165q1 35 1 53v22h-169h-97h-54v22q0 33 8.5 59.5t24.5 41.5q21 20 47.5 28.5t72.5 8.5h21l-10 62h-23q-60 0 -100.5 -16t-64.5 -41q-28 -30 -39 -64t-11 -77v-24h-96v-57l96 1v-161q0 -74 -1 -140
q-1 -65 -1 -99v-38h77v39q0 36 -1 104v295h46h72h73h53v-153q1 -74 1 -141v-126q0 -54 -9.5 -84.5t-31.5 -50.5q-21 -18 -54.5 -29t-85.5 -16l17 -60q66 7 110 24.5t71 42.5q28 27 43 65.5t15 92.5z" />
    <glyph glyph-name="glyph535" horiz-adv-x="709" 
d="M675 61q-3 0 -15.5 -0.5t-21.5 -0.5q-72 0 -105.5 28t-33.5 92v121v75q1 26 1 41v21l175 -1v57h-175v116h-71v-116h-43h-70h-78h-43v22q0 33 8.5 59.5t24.5 41.5q21 20 47.5 28.5t72.5 8.5h24l-9 62h-27q-60 0 -100 -16t-64 -41q-28 -30 -39.5 -64t-11.5 -77v-24h-96v-57
l96 1v-161q0 -74 -1 -140q-1 -65 -1 -99v-38h77v39q0 36 -1 104v295h47h75h68h40q0 -47 -0.5 -85t-0.5 -70t-0.5 -60.5t-0.5 -55.5q0 -87 51.5 -128.5t151.5 -41.5q10 0 23 0.5t17 1.5z" />
    <glyph glyph-name="glyph536" horiz-adv-x="925" 
d="M844 589v84h-86v-84h86zM835 0v18q0 15 -1 40t-1 67v103q0 45 0.5 107t1.5 159h-66h-103h-96h-55v22q0 33 8.5 59.5t24.5 41.5q21 20 47.5 28.5t71.5 8.5h21l-9 62h-23q-60 0 -100.5 -16t-64.5 -41q-29 -30 -40 -64t-11 -77v-24h-51h-71h-123v22q0 33 8.5 59.5t24.5 41.5
q21 20 47.5 28.5t72.5 8.5h24l-9 62h-27q-60 0 -100 -16t-64 -41q-28 -30 -39.5 -64t-11.5 -77v-24h-96v-57l96 1v-161q0 -74 -1 -140q-1 -65 -1 -99v-38h77v39q0 36 -1 104v295h49h76h68h52v-161q0 -74 -1 -140q-1 -65 -1 -99v-38h78v39q0 36 -1 104v295h47h71h73h53
q1 -69 1 -125v-89v-101t-1 -66t-1 -39v-18h77z" />
    <glyph glyph-name="glyph537" horiz-adv-x="939" 
d="M845 0v31q0 28 -1 80t-1 115v139q0 94 0.5 183t1.5 168h-77q2 -112 2 -205v-151q0 -175 -1 -263.5t-1 -96.5h77zM688 654l-9 62h-23q-60 0 -100.5 -16t-64.5 -41q-29 -30 -40 -64t-11 -77v-24h-48h-74h-79h-44v22q0 33 8.5 59.5t24.5 41.5q21 20 47.5 28.5t72.5 8.5h24
l-9 62h-27q-60 0 -100 -16t-64 -41q-28 -30 -39.5 -64t-11.5 -77v-24h-96v-57l96 1v-161q0 -74 -1 -140q-1 -65 -1 -99v-38h77v39q0 36 -1 104v295h49h76h69h51v-161q0 -74 -1 -140q-1 -65 -1 -99v-38h78v39q0 36 -1 104v295h69h101v56q-22 -1 -48 -1h-57q-30 1 -47 1h-18
v22q0 33 8.5 59.5t24.5 41.5q21 20 47.5 28.5t71.5 8.5h21z" />
    <glyph glyph-name="glyph538" horiz-adv-x="506" 
d="M506 39q-5 6 -22 22.5l-45 43.5q-55 55 -109 115v2q42 25 66 59.5t24 76.5t-23 73t-63 48q-32 13 -60.5 16.5t-64.5 3.5h-28t-40 -1q-22 -1 -35 -1h-17q2 -84 2 -144v-110v-93q0 -41 -1 -75t-1 -53v-22h78q0 5 -0.5 29l-1.5 69t-1 81v66v78q1 29 1 57v57q4 0 18.5 0.5
t22.5 0.5q20 0 43 -3t42 -11q23 -9 37 -28t14 -42q0 -30 -9 -45.5t-23 -27.5q-13 -12 -37.5 -24t-42.5 -16v-12l80 -87.5l69 -75.5l50.5 -54t22.5 -24z" />
    <glyph glyph-name="glyph539" horiz-adv-x="755" 
d="M721 61q-5 0 -16.5 -0.5t-20.5 -0.5q-72 0 -106 28t-34 92v121v29q0 18 1 41t1 39v27h175v57h-175v126h-71v-126h-145q-67 0 -111.5 -5t-80.5 -26q-34 -18 -53.5 -47t-19.5 -64q0 -70 67 -107l23 -11.5t30 -13.5t30 -13.5t23 -12.5q19 -12 28.5 -23.5t9.5 -30.5
q0 -21 -12.5 -38t-34.5 -27q-20 -10 -57 -13q-35 -3 -56 -3q-23 0 -42 0.5t-27 1.5l3 -63q7 -1 22 -1.5t36 -0.5q60 0 103 9.5t79 32.5q27 18 45 45.5t18 64.5t-19 62.5t-51 43.5q-17 10 -46 22.5t-54 25.5q-18 10 -30.5 23.5t-12.5 32.5q0 13 8.5 31t29.5 29q29 15 66 17
t88 2h139q0 -46 -0.5 -84t-0.5 -70t-0.5 -60.5t-0.5 -55.5q0 -87 51.5 -128.5t151.5 -41.5q10 0 22 0.5t18 1.5z" />
    <glyph glyph-name="glyph540" horiz-adv-x="382" 
d="M366 437v57h-353v-57h104v-281q0 -79 43.5 -119t127.5 -40h18t21 1l9 62q-10 0 -15.5 -0.5t-14.5 -0.5q-116 0 -116 109v34q0 15 -1 23v48v56q1 17 1 44t1 64h175z" />
    <glyph glyph-name="glyph541" horiz-adv-x="878" 
d="M851 474l-67 27l-58.5 -141l-51.5 -122l-38.5 -91.5l-22.5 -51.5h-1l-57 135l-51.5 123.5l-55.5 140.5h-265v116h-71v-116h-86v-57h82q0 -46 -0.5 -84t-0.5 -70t-0.5 -60.5t-0.5 -55.5q0 -87 51.5 -128.5t151.5 -41.5q10 0 22 0.5t18 1.5l9 62q-5 0 -16.5 -0.5
t-20.5 -0.5q-72 0 -105.5 28t-33.5 92v121v75q1 26 1 41v20h203l128 -292l41.5 -96t16.5 -38l-101 -209l68 -25l31.5 71.5l80.5 180.5l102.5 228.5z" />
    <glyph glyph-name="glyph542" horiz-adv-x="374" 
d="M310 178q0 45 -10.5 69t-30.5 41q-21 17 -52 24.5t-73 7.5q-25 0 -42 -0.5t-22 -0.5l-7 -53q22 1 34 2t25 1q21 0 40 -2t34 -7q18 -6 29.5 -20t12.5 -36q-11 -1 -27.5 -2t-36.5 -3q-41 -3 -74 -16q-34 -13 -55.5 -34t-21.5 -54q0 -31 18 -51t45 -31q22 -8 49 -13t56 -5
q45 0 73 2t35 3q0 9 0.5 56t0.5 122zM249 103v-60q-10 -1 -19 -1h-14q-17 0 -35 1t-41 7q-18 5 -30.5 16.5t-12.5 31.5q0 15 15 27.5t29 17.5q30 11 59.5 11.5t48.5 1.5v-53z" />
    <glyph glyph-name="glyph543" horiz-adv-x="403" 
d="M369 162q0 39 -15.5 67t-45.5 48q-26 17 -67 28t-111 12l1 137h-63q0 -45 0.5 -98.5t0.5 -114.5v-76q0 -38 -1 -80v-90h35q55 0 92.5 5t70.5 18q48 17 75.5 55t27.5 89zM305 161q0 -36 -15.5 -58t-46.5 -38q-19 -9 -49.5 -13.5t-63.5 -4.5v19q0 10 -1 18v70q0 38 0.5 68
t0.5 43h12q46 0 84 -12q35 -11 57 -34t22 -58z" />
    <glyph glyph-name="glyph544" horiz-adv-x="332" 
d="M300 52h-27q-32 0 -60 4.5t-50 14.5q-29 12 -47 33.5t-18 55.5q0 29 19.5 53.5t49.5 35.5q27 10 51.5 12.5t59.5 2.5h16l-3 54h-19q-43 0 -86.5 -9.5t-74.5 -27.5q-34 -21 -55.5 -52.5t-21.5 -68.5q0 -43 23.5 -77.5t65.5 -54.5q29 -16 67.5 -22.5t81.5 -6.5h23z" />
    <glyph glyph-name="glyph545" horiz-adv-x="403" 
d="M335 -5q-1 30 -1 56v50v106v154q1 43 1 66v27h-63l1 -137q-25 -1 -62.5 -5.5t-73.5 -19.5q-54 -23 -78.5 -60.5t-24.5 -82.5q0 -48 27 -79.5t67 -48.5q17 -8 34 -13t37.5 -8t44.5 -4t56 -1h35zM273 154v-50q0 -19 -1 -29v-28h-3q-33 0 -59.5 4.5t-51.5 15.5
q-26 13 -43 33t-17 51q0 67 68 96q18 7 46 12.5t61 5.5v-56v-55z" />
    <glyph glyph-name="glyph546" horiz-adv-x="372" 
d="M339 155q0 45 -11 79t-33 54q-36 36 -99 36q-34 0 -63.5 -11.5t-49.5 -32.5q-21 -22 -34.5 -50.5t-13.5 -67.5q0 -35 15.5 -65t38.5 -50q26 -22 67 -35t95 -13q20 0 36 1t22 1l7 52q-4 0 -22.5 -1t-37.5 -1q-35 0 -58.5 5t-43.5 16q-28 17 -42 38.5t-17 44.5h244z
M276 198h-177q6 38 32.5 59t60.5 21q36 0 58.5 -21.5t25.5 -58.5z" />
    <glyph glyph-name="glyph547" horiz-adv-x="269" 
d="M274 404l-7 50h-28q-42 0 -70.5 -10.5t-44.5 -26.5q-20 -20 -28.5 -42t-8.5 -50v-8h-65v-46h65v-97q0 -45 -1 -86v-88h63v25t-1 64t-1 87v95h119v46h-119v7q0 41 22 60q12 11 30 15.5t48 4.5h27z" />
    <glyph glyph-name="glyph548" horiz-adv-x="401" 
d="M334 319h-44q-51 0 -88 -5t-70 -20q-42 -18 -70 -52t-28 -79t19 -74t50 -48q15 -9 34 -16t40.5 -11.5t43 -6.5t40.5 -2h11q-1 -33 -18.5 -49.5t-47.5 -27.5q-22 -7 -58.5 -10.5t-73.5 -3.5l6 -51q73 0 107 7q18 4 35.5 9.5t34.5 13.5q43 20 59.5 53t16.5 78v127
q0 67 0.5 114t0.5 54zM272 152q1 -36 0.5 -61t-0.5 -35h-7q-64 0 -103 16q-30 13 -47 35t-17 53q0 32 18 55.5t51 37.5q27 9 47.5 11.5t53.5 2.5h3q1 -34 1 -64v-51z" />
    <glyph glyph-name="glyph549" horiz-adv-x="422" 
d="M356 0v15t-1 33v70q0 18 0.5 44.5t0.5 65.5q0 45 -27.5 70.5t-72.5 25.5q-23 0 -52.5 -9t-72.5 -31l-1 2l1 168h-63q1 -64 1 -120v-94v-93q0 -41 -1 -75v-72h63l-2 233q31 16 59.5 26.5t47.5 10.5q29 0 43 -12.5t15 -48.5v-20q0 -11 0.5 -23.5t0.5 -24.5v-20v-39t-1 -39
t-1 -31v-12h63z" />
    <glyph glyph-name="glyph550" horiz-adv-x="199" 
d="M135 383v63h-71v-63h71zM131 0q0 5 -1 48.5t-1 115.5v59q1 14 1 38t1 56h-63q1 -49 1 -91v-70q0 -67 -0.5 -107.5t-0.5 -48.5h63z" />
    <glyph glyph-name="glyph551" horiz-adv-x="205" 
d="M147 383v63h-71v-63h71zM143 9q0 36 -0.5 75t-0.5 78q0 60 0.5 103.5t0.5 51.5h-63v-111q1 -55 1 -102v-85q0 -33 -6.5 -51t-21.5 -30t-37 -17.5t-62 -9.5l7 -48q58 4 87.5 15t51.5 28q24 20 33.5 47.5t9.5 55.5z" />
    <glyph glyph-name="glyph552" horiz-adv-x="382" 
d="M131 0v28q0 27 -1 78t-1 85v51v81q1 33 1 66t1 65h-63q1 -63 1 -118v-91v-94q0 -42 -1 -77v-74h63zM377 11l-161 155v3q6 6 19.5 17l32 26l40.5 33.5l46 39.5l-39 40l-49.5 -46.5l-46.5 -41.5l-39.5 -35t-29.5 -26v-30l72.5 -64.5l113.5 -103.5z" />
    <glyph glyph-name="glyph553" horiz-adv-x="199" 
d="M131 0v22q0 21 -1 60q-1 40 -1 77v75t0.5 89t1.5 131h-63q1 -66 1 -125v-98v-74q0 -37 -1 -75v-82h63z" />
    <glyph glyph-name="glyph554" horiz-adv-x="632" 
d="M565 0q0 7 -0.5 42.5t-0.5 86.5q0 25 0.5 46.5t0.5 53.5q0 43 -27 69t-78 26q-34 0 -70 -16q-19 -8 -32.5 -14.5l-23.5 -11.5h-1q-9 18 -31 30t-57 12q-27 0 -63 -15q-36 -14 -50 -24l-1 2v30h-63q1 -22 1 -45v-48v-75q0 -76 -0.5 -110.5t-0.5 -38.5h63v16t-1 40v89v89
q20 11 48 23.5t51 12.5q27 0 41 -12t15 -48q1 -8 1 -19v-26v-45q0 -45 -0.5 -80t-0.5 -40h63v14t-0.5 28t-0.5 39v46v61v50q20 10 46.5 21t50.5 11q29 0 43 -12t15 -47v-46q1 -15 1 -26v-18q0 -23 -0.5 -43.5t-0.5 -37.5q0 -16 -0.5 -26.5t-0.5 -13.5h64z" />
    <glyph glyph-name="glyph555" horiz-adv-x="422" 
d="M357 0v15t-1 33t-1 38v31q0 17 0.5 45t0.5 66q0 45 -27 70.5t-73 25.5q-35 0 -71 -16q-38 -16 -53 -24l-2 2v31h-62q1 -48 1 -95v-76q0 -69 -0.5 -105.5t-0.5 -40.5h63v15q0 14 -1 40t-1 47v40q0 28 0.5 54.5t0.5 37.5q31 16 59.5 26t47.5 10q28 0 42 -12t15 -48v-45
q1 -15 1 -26v-19v-32t-1 -40t-1 -34v-14h64z" />
    <glyph glyph-name="glyph556" horiz-adv-x="414" 
d="M376 158q0 76 -51 123q-46 43 -118 43q-36 0 -66 -11.5t-53 -32.5q-25 -25 -38 -54.5t-13 -66.5q0 -38 14.5 -71t40.5 -56q23 -19 52 -29.5t63 -10.5q32 0 60 9.5t54 30.5q26 23 40.5 57t14.5 69zM313 156q0 -51 -39 -87q-12 -12 -30 -19t-37 -7q-18 0 -34.5 5t-29.5 16
q-42 36 -42 95q0 24 9.5 48.5t27.5 40.5q26 26 69 26q40 0 65 -23q21 -18 31 -42.5t10 -52.5z" />
    <glyph glyph-name="glyph557" horiz-adv-x="404" 
d="M369 167q0 40 -20 71.5t-55 49.5t-75 24q-20 4 -47 5.5t-62 1.5h-42q0 -63 0.5 -115t0.5 -97v-91t-1 -77v-76h63l-1 137q34 0 75 6t76 23q42 21 65 55.5t23 82.5zM305 165q0 -36 -16.5 -59t-50.5 -39q-21 -9 -48 -13t-60 -5v23q0 16 -1 40v62v51q1 16 1 26v16h11
q34 0 62.5 -4.5t47.5 -15.5q24 -11 39 -32t15 -50z" />
    <glyph glyph-name="glyph558" horiz-adv-x="402" 
d="M336 -137v26t-1 69q-1 46 -1 84v71v79q1 34 1 65q0 32 1 62h-39q-57 0 -98 -6t-76 -24q-38 -19 -63.5 -52t-25.5 -76q0 -102 104 -142q33 -14 70.5 -17t65.5 -3l-1 -136h63zM274 131v-82h-5q-64 0 -103 16q-68 29 -68 95q0 29 16 52t44 36q45 19 115 19q1 -8 1 -47v-89z
" />
    <glyph glyph-name="glyph559" horiz-adv-x="286" 
d="M278 268l-13 55q-20 -4 -56 -17t-78 -33l-1 1v43h-62q1 -24 1 -49v-51v-80q0 -69 -0.5 -101t-0.5 -36h63v18t-1 39t-1 46v41q0 24 0.5 44.5t0.5 31.5q52 23 91.5 33.5t56.5 14.5z" />
    <glyph glyph-name="glyph560" horiz-adv-x="298" 
d="M259 94q0 27 -15 44.5t-35 29.5q-11 7 -33 16t-39 17q-25 13 -25 30q0 19 23 29q13 5 26 6.5t25 1.5q21 0 42 -1t24 -1l-5 52q-3 0 -18 0.5t-35 0.5q-25 0 -48 -3.5t-43 -13.5q-25 -12 -39 -30t-14 -43q0 -48 49 -74q19 -12 35.5 -17.5t39.5 -18.5q23 -12 23 -29
q0 -23 -30 -35q-15 -5 -29 -6t-28 -1h-19q-10 0 -23 1q-12 1 -18.5 1.5t-7.5 0.5l2 -51q4 0 23 -1.5t36 -1.5q32 0 61 6t49 18q20 11 33 30t13 43z" />
    </font>
</defs>
</svg>
