<?xml version="1.0" standalone="no"?>
<!DOCTYPE svg PUBLIC "-//W3C//DTD SVG 1.1//EN" "http://www.w3.org/Graphics/SVG/1.1/DTD/svg11.dtd" >
<svg xmlns="http://www.w3.org/2000/svg" xmlns:xlink="http://www.w3.org/1999/xlink" version="1.1">
<metadata>
Created by FontForge 20170731 at Thu Aug 20 10:32:33 2020
 By Aleksey,,,
Copyright (c) 2014, Natanael Gama (www.ndiscovered.com . info(at)ndiscovered.com)
</metadata>
<defs>
<font id="Exo2-BoldCondensed" horiz-adv-x="997" >
  <font-face 
    font-family="Exo 2 Condensed"
    font-weight="700"
    font-stretch="condensed"
    units-per-em="2048"
    panose-1="0 0 8 6 0 0 0 0 0 0"
    ascent="1638"
    descent="-410"
    x-height="1010"
    cap-height="1413"
    bbox="-289 -598 2179 1944"
    underline-thickness="102"
    underline-position="-307"
    unicode-range="U+0020-FB02"
  />
<missing-glyph 
 />
    <glyph glyph-name="fi" unicode="fi" horiz-adv-x="1165" 
d="M1073 1010v-1010h-303v807h-305v-807h-303v807h-139v192l139 11v135q0 159 68 244.5t221 85.5q143 0 237 -21v-201h-129q-53 0 -73.5 -32t-20.5 -115v-96h608zM858 1464h129q88 0 88 -88v-110q0 -88 -88 -88h-129q-88 0 -88 88v110q0 88 88 88z" />
    <glyph glyph-name="fl" unicode="fl" horiz-adv-x="1247" 
d="M1210 209l33 -193q-31 -19 -99 -30t-118 -11q-117 0 -183.5 70t-66.5 193v1019h-223q-51 0 -70.5 -33t-19.5 -118v-96h188v-203h-188v-807h-303v807h-140v192l140 11v135q0 160 66.5 245t219.5 85q442 0 633 -37v-1125q0 -104 76 -104h55z" />
    <glyph glyph-name="f_f" unicode="ff" horiz-adv-x="1300" 
d="M1319 1253h-156q-53 0 -73.5 -29t-20.5 -102v-112h217v-203h-217v-807h-295v807h-317v-807h-295v807h-139v192l139 11v133q3 149 70.5 230t216.5 81q165 0 253 -20l-28 -201h-123q-55 0 -74.5 -27t-19.5 -104v-92h317v153q0 312 287 312q182 0 287 -21z" />
    <glyph glyph-name="f_f_i" unicode="ffi" horiz-adv-x="1765" 
d="M1673 1010v-1010h-303v807h-305v-807h-293v807h-317v-807h-295v807h-137v192l137 11v133q3 311 284 311q166 0 254 -20l-28 -201h-123q-54 0 -73 -26.5t-19 -104.5v-92h317v135q0 159 67 244.5t220 85.5q135 0 229 -21v-201h-121q-59 0 -80.5 -31.5t-21.5 -115.5v-96h608
zM1458 1464h129q88 0 88 -88v-110q0 -88 -88 -88h-129q-88 0 -88 88v110q0 88 88 88z" />
    <glyph glyph-name="f_f_l" unicode="ffl" horiz-adv-x="1857" 
d="M1825 209l33 -193q-31 -18 -99.5 -29.5t-118.5 -11.5q-117 0 -183 70t-66 193v1019h-232q-46 0 -68 -34t-22 -117v-96h197v-203h-197v-807h-295v807h-317v-807h-295v807h-139v192l139 11v133q3 149 70.5 230t216.5 81q165 0 253 -20l-28 -201h-123q-55 0 -74.5 -27
t-19.5 -104v-92h317v135q0 159 67 244.5t220 85.5q442 0 633 -37v-1125q0 -104 75 -104h56z" />
    <glyph glyph-name=".notdef" 
 />
    <glyph glyph-name=".null" horiz-adv-x="0" 
 />
    <glyph glyph-name="nonmarkingreturn" horiz-adv-x="682" 
 />
    <glyph glyph-name="space" unicode=" " horiz-adv-x="354" 
 />
    <glyph glyph-name="exclam" unicode="!" horiz-adv-x="524" 
d="M410 870l-31 -421h-238l-30 421v553h299v-553zM227 309h70q60 0 81 -22t21 -82v-99q0 -61 -21.5 -83.5t-80.5 -22.5h-70q-60 0 -82 23t-22 83v99q0 60 22 82t82 22z" />
    <glyph glyph-name="quotedbl" unicode="&#x22;" horiz-adv-x="641" 
d="M266 961h-178l-16 452h213zM551 961h-178l-17 452h213z" />
    <glyph glyph-name="numbersign" unicode="#" horiz-adv-x="1208" 
d="M952 872l-41 -286h185l-35 -183h-176l-58 -403h-225l57 403h-190l-57 -403h-228l58 403h-197l35 183h188l41 286h-194l35 181h184l51 360h225l-51 -360h191l51 360h227l-51 -360h188l-35 -181h-178zM725 872h-190l-41 -286h190z" />
    <glyph glyph-name="dollar" unicode="$" horiz-adv-x="993" 
d="M940 381q0 -229 -86.5 -315.5t-314.5 -92.5l-21 -219h-227l20 230q-132 15 -239 43l18 225q342 -10 399 -10q85 0 112.5 26t27.5 111q0 72 -19 101.5t-73 54.5l-230 100q-133 58 -190.5 156.5t-57.5 257.5q0 116 21.5 190.5t73 118.5t124.5 62t187 20l20 184h228
l-21 -194q112 -13 213 -46l-18 -213q-172 7 -383 7q-43 0 -64.5 -3t-40 -16t-24.5 -39t-6 -71q0 -71 23 -101.5t87 -58.5l211 -92q137 -58 193.5 -157t56.5 -259z" />
    <glyph glyph-name="percent" unicode="%" horiz-adv-x="1519" 
d="M338 1440q164 0 229.5 -92.5t65.5 -327.5q0 -233 -65.5 -326.5t-229.5 -93.5q-163 0 -228 93.5t-65 326.5q0 234 65 327t228 93zM524 0h-186l657 1413h185zM338 1272q-43 0 -57.5 -49.5t-14.5 -202.5q0 -106 6.5 -158.5t21 -73t44.5 -20.5q45 0 59.5 49t14.5 203
q0 153 -14.5 202.5t-59.5 49.5zM1180 817q164 0 229.5 -93.5t65.5 -326.5q0 -235 -65.5 -328.5t-229.5 -93.5q-163 0 -228 93.5t-65 328.5q0 233 65 326.5t228 93.5zM1180 647q-31 0 -45.5 -20t-20.5 -71.5t-6 -158.5t6 -159t20.5 -72.5t45.5 -20.5q30 0 45 20.5t21.5 73.5
t6.5 158t-6.5 157.5t-21.5 72.5t-45 20z" />
    <glyph glyph-name="ampersand" unicode="&#x26;" horiz-adv-x="1267" 
d="M1192 221l33 -205q-41 -19 -111.5 -30t-120.5 -11q-169 0 -225 146q-63 -78 -142.5 -112t-203.5 -34q-190 0 -271 86t-81 297q0 169 52.5 263.5t172.5 107.5v8q-101 12 -146 92t-45 238q0 82 10 141t35.5 100.5t58.5 67t88.5 39.5t115.5 18.5t149 4.5q164 0 273 -25
l-37 -215q-183 6 -244 6q-80 0 -106.5 -34t-26.5 -150q0 -110 25 -148t94 -38h219l20 217h256v-217h158v-211h-158v-297q0 -58 14.5 -81.5t51.5 -23.5h92zM516 225q61 2 123.5 24.5t110.5 63.5v310h-228q-74 0 -98.5 -41t-24.5 -162q0 -118 22.5 -156.5t94.5 -38.5z" />
    <glyph glyph-name="quotesingle" unicode="'" horiz-adv-x="356" 
d="M266 961h-178l-16 452h213z" />
    <glyph glyph-name="parenleft" unicode="(" horiz-adv-x="612" 
d="M559 1618l33 -131q-132 -81 -190 -291t-58 -555q0 -339 58 -550.5t190 -297.5l-33 -131q-262 98 -385 335t-123 642q0 408 123 645t385 334z" />
    <glyph glyph-name="parenright" unicode=")" horiz-adv-x="612" 
d="M20 1487l35 131q262 -97 384 -334t122 -645q0 -405 -122 -642t-384 -335l-35 131q133 86 191.5 297t58.5 551q0 345 -58.5 555.5t-191.5 290.5z" />
    <glyph glyph-name="asterisk" unicode="*" horiz-adv-x="753" 
d="M434 1073l182 -264l-127 -100l-112 249l-111 -247l-131 98l184 262l-24 344h164zM289 1153v-74l-35 -45l-205 60l49 159zM707 1094l-203 -60l-37 45l-2 74l190 100z" />
    <glyph glyph-name="plus" unicode="+" horiz-adv-x="880" 
d="M825 506h-272v-342h-223v342h-275v221h275v344h223v-344h272v-221z" />
    <glyph glyph-name="comma" unicode="," horiz-adv-x="415" 
d="M174 309h64q59 0 81.5 -22t22.5 -82l2 -131q-1 -115 -26 -202.5t-74 -172.5l-117 39q26 111 29 262q-88 0 -88 94l4 111q1 60 23 82t79 22z" />
    <glyph glyph-name="hyphen" unicode="-" horiz-adv-x="655" 
d="M573 422h-489v199h489v-199z" />
    <glyph glyph-name="period" unicode="." horiz-adv-x="419" 
d="M174 309h74q60 0 82 -22t22 -82v-99q0 -60 -22 -83t-82 -23h-74q-60 0 -82 23t-22 83v99q0 60 22 82t82 22z" />
    <glyph glyph-name="slash" unicode="/" horiz-adv-x="950" 
d="M268 -147h-239l653 1560h240z" />
    <glyph glyph-name="zero" unicode="0" horiz-adv-x="1071" 
d="M537 1440q176 0 277 -72t145.5 -229.5t44.5 -431.5q0 -206 -23.5 -343t-79.5 -225.5t-144 -127t-220 -38.5q-106 0 -183 25t-133 77.5t-89 140.5t-48.5 207t-15.5 284t15.5 284t48.5 206.5t89 140t133 77.5t183 25zM535 1192q-63 0 -96 -42t-47.5 -144.5t-14.5 -298.5
q0 -148 7 -239t26 -148t48 -78t77 -21q40 0 66.5 14t45.5 45.5t29.5 90t15 138t4.5 198.5q0 149 -7 239t-25.5 147t-48.5 78t-80 21z" />
    <glyph glyph-name="one" unicode="1" horiz-adv-x="749" 
d="M612 0h-311v995q0 90 12 154l-266 -86l-37 209l291 141h311v-1413z" />
    <glyph glyph-name="two" unicode="2" horiz-adv-x="980" 
d="M483 1438q99 0 168.5 -14t125.5 -49t84 -101t28 -164q0 -131 -35 -228t-145 -239l-281 -377q66 15 160 15h330v-281h-855v174q0 76 43 127l261 373q102 139 153 235.5t51 167.5q-1 60 -28.5 77t-98.5 17q-182 0 -360 -18l-12 236q203 49 411 49z" />
    <glyph glyph-name="three" unicode="3" horiz-adv-x="952" 
d="M463 1440q215 0 301 -71t86 -257q0 -78 -8 -134.5t-27.5 -104.5t-56 -77t-90.5 -40v-8q117 -22 164 -107t49 -248q2 -224 -92.5 -322t-319.5 -98q-175 0 -414 37l11 234q218 -15 317 -15q110 0 149 41.5t39 163.5q0 105 -30.5 150.5t-118.5 44.5h-217v213h217
q45 0 73.5 13t41.5 40.5t17 57.5t3 77q0 100 -29 128t-120 28q-150 0 -318 -8l-12 225q194 37 385 37z" />
    <glyph glyph-name="four" unicode="4" horiz-adv-x="1079" 
d="M1040 532v-192l-133 -29h-6v-311h-285v311h-456q-73 0 -111 71.5t-12 158.5l287 872h290l-249 -813q-10 -34 -1.5 -51t31.5 -17h221v381l52 226h233v-607h139z" />
    <glyph glyph-name="five" unicode="5" horiz-adv-x="929" 
d="M831 1171h-471l-12 -256l193 -24q98 -14 164 -51t102.5 -98t51.5 -135t15 -175q0 -76 -12 -140.5t-41.5 -124.5t-75.5 -101.5t-119 -66t-167 -24.5q-183 0 -408 45l27 242q190 -24 299 -24q75 0 116 22t56 63t18 115q2 45 -1.5 77t-15.5 55t-25 36.5t-41 23.5t-52.5 15
t-69.5 12l-178 21q-41 4 -66.5 36.5t-23.5 78.5l31 620h717z" />
    <glyph glyph-name="six" unicode="6" 
d="M606 932q193 0 265.5 -101t72.5 -348q0 -104 -11 -179.5t-39 -140.5t-76.5 -104.5t-124 -61.5t-179.5 -22q-88 0 -152 13.5t-115 47t-83.5 85.5t-54 133.5t-30.5 187t-9 250.5q0 160 13 279t42.5 201t68 134.5t98.5 81.5t123.5 39.5t153.5 10.5q178 0 297 -37l-14 -205
q-92 4 -283 4q-80 0 -118.5 -26t-57 -99t-22.5 -227q46 46 101 65t134 19zM518 215q31 0 53 6.5t37 22.5t23.5 34t13 51.5t5.5 64.5t1 83q0 133 -27.5 180.5t-109.5 47.5q-40 0 -72 -13t-73 -45q0 -97 1.5 -156.5t7 -113t15 -80.5t27 -48t40.5 -27.5t58 -6.5z" />
    <glyph glyph-name="seven" unicode="7" horiz-adv-x="888" 
d="M33 1413h715q68 0 103 -48t13 -118l-348 -1247h-303l276 1024q20 76 56 133h-498z" />
    <glyph glyph-name="eight" unicode="8" horiz-adv-x="1046" 
d="M522 1438q130 0 213 -21t129.5 -70t64 -115.5t17.5 -170.5q0 -85 -18 -153.5t-58.5 -115.5t-99.5 -55v-8q60 -7 101 -37.5t62.5 -83.5t30.5 -114t9 -142q0 -104 -19 -171t-69.5 -115.5t-138 -70t-224.5 -22.5q-134 -1 -221.5 20.5t-138 70t-70.5 117t-20 171.5
q0 81 9 142t30.5 114t62 83.5t100.5 37.5v8q-60 8 -100 55t-57 115t-17 154q0 104 17.5 170.5t64.5 115.5t129.5 70t210.5 21zM526 1214q-88 0 -116.5 -38t-28.5 -152q0 -109 29.5 -145.5t117.5 -36.5q86 0 112 36t26 146q0 114 -27.5 152t-112.5 38zM526 625
q-98 0 -128.5 -42t-30.5 -167q0 -120 31 -160.5t128 -40.5q94 0 124 40.5t30 160.5q0 126 -30.5 167.5t-123.5 41.5z" />
    <glyph glyph-name="nine" unicode="9" 
d="M485 1438q93 0 158.5 -13.5t116.5 -48t81.5 -86t50 -135t27 -186t7.5 -248.5q0 -137 -9 -241t-26.5 -183.5t-47.5 -135t-67.5 -92t-92.5 -57.5t-116 -29t-143 -8q-189 0 -320 37l15 207q102 -4 305 -4q113 0 153 71.5t46 278.5q-46 -46 -101.5 -65t-134.5 -19
q-93 0 -159 33.5t-102.5 96t-52.5 140.5t-16 179q0 137 19.5 228.5t68.5 156.5t131.5 94t208.5 29zM350 936q0 -126 27 -177.5t104 -51.5q40 0 72 13.5t72 45.5q0 98 -1.5 156t-6.5 113t-14 82t-25.5 48.5t-38.5 28t-56 6.5q-85 0 -109 -57.5t-24 -206.5z" />
    <glyph glyph-name="colon" unicode=":" horiz-adv-x="448" 
d="M176 924h74q60 0 82 -22.5t22 -82.5v-98q0 -60 -22 -83.5t-82 -23.5h-74q-60 0 -82 23.5t-22 83.5v98q0 60 22 82.5t82 22.5zM176 309h74q60 0 82 -22t22 -82v-99q0 -60 -22 -83t-82 -23h-74q-60 0 -82 23t-22 83v99q0 60 22 82t82 22z" />
    <glyph glyph-name="semicolon" unicode=";" horiz-adv-x="446" 
d="M188 924h74q60 0 82.5 -22.5t22.5 -82.5v-98q0 -60 -22.5 -83.5t-82.5 -23.5h-74q-60 0 -82 23.5t-22 83.5v98q0 60 22 82.5t82 22.5zM188 309h64q59 0 81.5 -22t22.5 -82l2 -131q-1 -115 -26 -202.5t-74 -172.5l-117 39q26 111 29 262q-88 0 -88 94l4 111q1 60 23 82
t79 22z" />
    <glyph glyph-name="less" unicode="&#x3c;" horiz-adv-x="847" 
d="M766 836l-459 -220l459 -219v-235l-713 338v233l713 338v-235z" />
    <glyph glyph-name="equal" unicode="=" horiz-adv-x="956" 
d="M870 719h-784v215h784v-215zM870 283h-784v215h784v-215z" />
    <glyph glyph-name="greater" unicode="&#x3e;" horiz-adv-x="845" 
d="M793 733v-233l-709 -338v235l455 219l-455 220v235z" />
    <glyph glyph-name="question" unicode="?" horiz-adv-x="876" 
d="M467 1458q187 0 278 -77.5t91 -239.5q0 -61 -15 -114.5t-40 -94.5t-55.5 -80.5t-62 -81t-58.5 -86t-47 -105t-26 -130.5h-239q-4 100 16 186t51.5 145.5t64 109.5t58 99t29.5 92q8 68 -21 99.5t-98 31.5q-148 0 -340 -10l-8 207q20 4 60.5 12.5t58.5 12t55.5 9.5t68 8.5
t77.5 4.5t102 2zM377 309h69q60 0 82.5 -22t22.5 -82v-99q0 -60 -22.5 -83t-82.5 -23h-69q-59 0 -82 23t-23 83v99q0 59 23 81.5t82 22.5z" />
    <glyph glyph-name="at" unicode="@" horiz-adv-x="1298" 
d="M645 1231h260q157 0 234.5 -78.5t77.5 -261.5v-615h-222l-24 142q-45 -68 -115.5 -116t-157.5 -48q-107 0 -178 68t-71 190v98q0 105 61.5 165.5t169.5 60.5h258v51q0 69 -20 94t-74 25h-199q-45 0 -71 -0.5t-58 -4.5t-48 -9.5t-36.5 -18.5t-29 -28.5t-20 -43t-15 -58
t-7.5 -77t-5 -97t-1 -120.5q0 -92 1 -152.5t11 -113.5t16 -82.5t33 -54.5t43.5 -34.5t66 -16t82.5 -7t110 -0.5h8h492v-203q-301 -26 -494 -26q-115 0 -194.5 4t-150.5 18.5t-114.5 34.5t-80 60.5t-55 86.5t-31 123t-16 159t-3.5 204q0 120 3 201t14 156.5t27.5 121
t48.5 85.5t70 60t100.5 35t132.5 19t171 4zM938 684l-154 -8q-35 -3 -50 -22t-15 -62v-33q0 -94 69 -94q36 0 77.5 23.5t72.5 66.5v129z" />
    <glyph glyph-name="A" unicode="A" horiz-adv-x="1110" 
d="M729 371h-346l-72 -371h-319l313 1331q9 38 38.5 60t68.5 22h286q39 0 69 -22t40 -60l311 -1331h-317zM682 612l-82 432q-19 102 -22 134h-46q-5 -53 -20 -134l-84 -432h254z" />
    <glyph glyph-name="B" unicode="B" horiz-adv-x="1079" 
d="M782 737v-8q129 -13 185.5 -107t56.5 -270q0 -109 -22.5 -180t-73.5 -113t-123 -58.5t-182 -16.5q-345 0 -523 16v1413q171 17 467 17q120 0 196.5 -16.5t128.5 -59t73.5 -113t21.5 -180.5q0 -155 -48 -233.5t-157 -90.5zM688 1018q0 107 -27.5 141.5t-109.5 34.5h-145
v-358h153q77 0 103 36.5t26 145.5zM406 219h159q89 0 118.5 38t29.5 155q0 129 -30.5 172t-121.5 45h-155v-410z" />
    <glyph glyph-name="C" unicode="C" horiz-adv-x="993" 
d="M567 1438q122 0 198.5 -10.5t164.5 -36.5l-25 -234q-141 10 -338 10q-70 0 -107 -42t-53 -139t-16 -279q0 -268 36.5 -364.5t139.5 -96.5q244 0 363 18l24 -231q-86 -31 -173 -44.5t-214 -13.5q-141 0 -235 38t-155 126t-87.5 225.5t-26.5 342.5q0 273 50 431t158.5 229
t295.5 71z" />
    <glyph glyph-name="D" unicode="D" horiz-adv-x="1150" 
d="M571 1432q146 0 241 -34t157.5 -119t89 -222.5t26.5 -349.5t-26.5 -349.5t-89 -222.5t-157.5 -119t-241 -34q-224 0 -471 18v1413q264 19 471 19zM571 227q73 0 112 43.5t56 145.5t17 291t-17 291t-56 146t-112 44l-159 -2v-957q49 -2 159 -2z" />
    <glyph glyph-name="E" unicode="E" horiz-adv-x="976" 
d="M907 244l15 -230q-162 -20 -568 -20q-117 0 -189 77.5t-73 207.5v856q1 130 73 207t189 77q406 0 568 -20l-15 -232h-430q-71 0 -71 -104v-215h440v-225h-440v-273q0 -56 17.5 -81t53.5 -25h430z" />
    <glyph glyph-name="F" unicode="F" horiz-adv-x="940" 
d="M893 1167h-404q-41 0 -60 -24.5t-19 -79.5v-242h424v-227h-424v-594h-314v1126q0 135 73 214t191 79q402 0 549 -22z" />
    <glyph glyph-name="G" unicode="G" horiz-adv-x="1091" 
d="M1020 815v-815h-229l-27 139q-50 -67 -134 -116.5t-190 -49.5q-197 0 -285.5 175t-88.5 563q0 212 27 350t91.5 223.5t162 120.5t247.5 35q228 0 383 -49l-25 -230q-198 10 -354 10q-50 0 -81.5 -10t-57.5 -37.5t-39 -81t-20 -135.5t-7 -207q0 -179 15.5 -277
t50.5 -140.5t100 -42.5q87 0 162 61v514h299z" />
    <glyph glyph-name="H" unicode="H" horiz-adv-x="1167" 
d="M1067 1413v-1413h-313v631h-342v-631h-312v1413h312v-541h342v541h313z" />
    <glyph glyph-name="I" unicode="I" horiz-adv-x="512" 
d="M412 0h-312v1413h312v-1413z" />
    <glyph glyph-name="J" unicode="J" horiz-adv-x="645" 
d="M549 1413v-1116q0 -154 -75 -238t-208 -84q-58 0 -132 11t-109 30l32 209h80q103 0 103 109v1079h309z" />
    <glyph glyph-name="K" unicode="K" horiz-adv-x="1089" 
d="M469 623h-72q15 -88 15 -136v-487h-312v1413h312v-399q0 -74 -17 -168h74l270 567h336l-278 -563q-6 -11 -11.5 -20.5t-13.5 -19.5t-12.5 -15.5t-14.5 -16.5t-12.5 -13.5l-14.5 -14.5l-13 -13v-8q74 -65 106 -125l283 -604h-349z" />
    <glyph glyph-name="L" unicode="L" horiz-adv-x="907" 
d="M408 1413v-1055q0 -55 19.5 -79.5t59.5 -24.5h390l14 -238q-180 -22 -529 -22q-126 0 -196 83.5t-70 217.5v1118h312z" />
    <glyph glyph-name="M" unicode="M" horiz-adv-x="1552" 
d="M1036 1413h283q110 0 113 -117l43 -1296h-287l-37 1169h-27l-139 -874q-15 -100 -121 -100h-178q-102 0 -123 100l-141 874h-25l-30 -1169h-287l41 1296q3 117 110 117h283q100 0 121 -100l106 -705q18 -125 25 -198h18q2 17 9.5 87.5t13.5 110.5l106 705q18 100 123 100
z" />
    <glyph glyph-name="N" unicode="N" horiz-adv-x="1214" 
d="M1116 1413v-1300q0 -113 -108 -113h-187q-48 0 -77 21.5t-46 70.5l-229 696q-19 57 -70 265h-14q8 -176 8 -267v-786h-293v1300q0 55 28 84t81 29h186q49 0 77.5 -21t45.5 -71l227 -678q16 -47 42 -146.5t32 -121.5h15q-7 114 -7 278v760h289z" />
    <glyph glyph-name="O" unicode="O" horiz-adv-x="1157" 
d="M578 1440q117 0 200 -22t145.5 -72t99 -136.5t54 -208.5t17.5 -294t-17.5 -294.5t-54 -208.5t-99 -136t-145.5 -72.5t-200 -22.5q-146 0 -241 34.5t-158 120t-89.5 225t-26.5 354.5q0 172 17.5 294t54 208.5t99 136.5t145 72t199.5 22zM580 1188q-74 0 -113.5 -43
t-56.5 -145t-17 -293t17 -293t56.5 -145.5t113.5 -43.5t113.5 43.5t56 145t16.5 293.5t-16.5 293.5t-56 144.5t-113.5 43z" />
    <glyph glyph-name="P" unicode="P" horiz-adv-x="1050" 
d="M563 1432q177 0 272 -41t137 -139t42 -281q0 -138 -21 -226.5t-71 -141.5t-124.5 -74t-191.5 -21q-102 0 -194 12v-520h-312v1413q172 19 463 19zM412 748h145q84 0 113.5 46t29.5 177q0 132 -29 176.5t-114 44.5h-145v-444z" />
    <glyph glyph-name="Q" unicode="Q" horiz-adv-x="1161" 
d="M580 1440q117 0 200 -22t145.5 -72t99 -136.5t54 -208.5t17.5 -294t-17.5 -294.5t-54 -208.5t-99 -136t-145.5 -72.5t-200 -22.5q-146 0 -241 34.5t-157.5 120.5t-89 225t-26.5 354q0 172 17.5 294t54 208.5t98.5 136.5t144.5 72t199.5 22zM580 1188q-74 0 -113.5 -43
t-56.5 -145t-17 -293t17 -293t56.5 -145.5t113.5 -43.5t113.5 43.5t56 145t16.5 293.5t-16.5 293.5t-56 144.5t-113.5 43zM420 -238l69 166q211 -87 525 -139l-80 -278q-278 79 -514 251z" />
    <glyph glyph-name="R" unicode="R" horiz-adv-x="1099" 
d="M1065 0h-326l-80 432q-13 67 -37.5 93t-72.5 26h-141v-551h-308v1413q172 19 465 19q124 0 207 -20t140.5 -67.5t83.5 -128.5t26 -202q0 -158 -51.5 -245t-175.5 -105v-11q58 -15 108 -65t70 -148zM408 793h151q88 0 119 41.5t31 158.5q0 118 -31 158.5t-119 40.5h-151
v-399z" />
    <glyph glyph-name="S" unicode="S" horiz-adv-x="993" 
d="M506 1440q233 0 399 -56l-18 -213q-172 7 -383 7q-43 0 -64.5 -3t-40 -16t-24.5 -39t-6 -71q0 -71 23 -101.5t87 -58.5l211 -92q137 -58 193.5 -157t56.5 -259q0 -123 -22 -200t-76 -124.5t-136.5 -65.5t-213.5 -18q-204 0 -420 54l18 225q342 -10 399 -10q85 0 112.5 26
t27.5 111q0 72 -19 101.5t-73 54.5l-230 100q-133 58 -190.5 156.5t-57.5 257.5q0 122 23.5 198t80.5 119t136 58.5t207 15.5z" />
    <glyph glyph-name="T" unicode="T" horiz-adv-x="1017" 
d="M997 1159h-331v-1159h-314v1159h-329v254h974v-254z" />
    <glyph glyph-name="U" unicode="U" horiz-adv-x="1153" 
d="M1063 1413v-850q0 -324 -105.5 -457t-363.5 -133q-276 0 -389 133t-113 457v850h311v-850q0 -195 38 -266.5t139 -71.5q99 0 135.5 72t36.5 266v850h311z" />
    <glyph glyph-name="V" unicode="V" horiz-adv-x="1089" 
d="M1085 1413l-294 -1327q-8 -39 -37 -62.5t-70 -23.5h-278q-40 0 -70 24t-37 62l-295 1327h322l176 -1020q14 -90 22 -157h41q4 30 14 90.5t11 66.5l174 1020h321z" />
    <glyph glyph-name="W" unicode="W" horiz-adv-x="1644" 
d="M1606 1413l-160 -1327q-6 -38 -37 -62t-70 -24h-278q-42 0 -73.5 24.5t-35.5 63.5l-100 924q-12 116 -16 178h-29q-8 -124 -16 -180l-97 -922q-4 -39 -35.5 -63.5t-72.5 -24.5h-281q-40 0 -71 24t-37 62l-160 1327h311l84 -981q8 -117 10 -205h29l27 205l96 885
q4 43 34.5 69.5t73.5 26.5h240q42 0 71.5 -26.5t35.5 -69.5l98 -887q4 -49 24 -203h31q0 49 10 201l82 985h312z" />
    <glyph glyph-name="X" unicode="X" horiz-adv-x="1097" 
d="M782 0l-233 627l-232 -627h-315l291 725l-268 688h313l211 -584l211 584h313l-268 -688l291 -725h-314z" />
    <glyph glyph-name="Y" unicode="Y" horiz-adv-x="1052" 
d="M682 465v-465h-311v469l-379 944h323l164 -518q21 -64 37 -178h21q23 133 38 178l164 518h322z" />
    <glyph glyph-name="Z" unicode="Z" horiz-adv-x="989" 
d="M934 240v-240h-879v240l516 934h-499v239h848v-239l-519 -934h533z" />
    <glyph glyph-name="bracketleft" unicode="[" horiz-adv-x="589" 
d="M545 1384h-117q-14 0 -23.5 -10.5t-9.5 -27.5v-1457q0 -17 9.5 -28t23.5 -11h117v-188h-283q-149 0 -149 158v1595q0 69 41.5 113.5t107.5 44.5h283v-189z" />
    <glyph glyph-name="backslash" unicode="\" horiz-adv-x="950" 
d="M922 -147h-240l-653 1560h239z" />
    <glyph glyph-name="bracketright" unicode="]" horiz-adv-x="589" 
d="M45 1573h281q67 0 109 -44.5t42 -113.5v-1595q0 -69 -42 -113.5t-109 -44.5h-281v188h115q15 0 25 11t10 28v1457q0 17 -10 27.5t-25 10.5h-115v189z" />
    <glyph glyph-name="asciicircum" unicode="^" horiz-adv-x="800" 
d="M750 823l-119 -65l-223 340h-13l-229 -340l-117 65l242 461h221z" />
    <glyph glyph-name="underscore" unicode="_" horiz-adv-x="745" 
d="M745 -199h-745v199h745v-199z" />
    <glyph glyph-name="grave" unicode="`" horiz-adv-x="622" 
d="M545 1204l-86 -131l-402 225l123 209z" />
    <glyph glyph-name="a" unicode="a" horiz-adv-x="964" 
d="M541 1038q87 0 148.5 -18t106.5 -60t67 -114.5t22 -177.5v-668h-240l-27 135q-113 -160 -294 -160q-120 0 -199.5 77.5t-79.5 213.5v103q0 121 70 188.5t194 67.5h275v45q-1 76 -25.5 103.5t-89.5 27.5q-123 0 -352 -17l-29 205q91 20 226 34.5t227 14.5zM422 203
q78 0 162 69v170h-172q-70 -3 -70 -96v-39q0 -54 19.5 -79t60.5 -25z" />
    <glyph glyph-name="b" unicode="b" horiz-adv-x="1007" 
d="M645 1038q167 0 238 -121t71 -403q0 -99 -10 -175.5t-38 -147t-75 -116.5t-123 -73t-180 -27q-105 0 -241 21t-203 57v1381h303l2 -322q3 -113 -22 -225q57 71 128.5 111t149.5 40zM522 201q69 3 95 68.5t26 242.5q0 167 -24.5 226t-98.5 59q-37 0 -68 -19t-67 -57
l2 -506q78 -17 135 -14z" />
    <glyph glyph-name="c" unicode="c" horiz-adv-x="860" 
d="M483 1038q207 0 328 -63l-31 -189q-35 1 -87.5 2t-89.5 2t-66 1q-96 0 -131 -59.5t-35 -225.5t35 -225.5t131 -59.5q141 0 260 19l26 -197q-136 -68 -342 -68q-236 0 -332 119.5t-96 411.5q0 293 97 412.5t333 119.5z" />
    <glyph glyph-name="d" unicode="d" horiz-adv-x="1011" 
d="M928 1434v-1434h-242l-22 147q-104 -172 -312 -172q-155 0 -225 136t-70 403q0 149 20 251.5t61 162t97.5 85t137.5 25.5q160 0 258 -77q-6 95 -6 198v275h303zM479 225q45 0 77 16.5t69 55.5v483q-4 1 -15.5 5.5t-16.5 6.5t-15.5 5.5t-16.5 5t-16.5 4t-19 3.5t-19 2
t-21.5 1q-45 0 -68 -21t-35.5 -85.5t-12.5 -190.5q0 -120 12 -183.5t34.5 -85.5t63.5 -22z" />
    <glyph glyph-name="e" unicode="e" horiz-adv-x="958" 
d="M541 217q111 0 323 23l27 -189q-145 -76 -385 -76q-247 0 -350 123t-103 406q0 201 45.5 317t141.5 166.5t260 50.5q219 0 316 -87t97 -265q2 -143 -65 -213t-225 -70h-250q9 -112 45 -149t123 -37zM510 817q-79 2 -108.5 -44.5t-32.5 -186.5h172q49 0 64.5 26.5
t15.5 77.5q0 70 -24.5 98.5t-86.5 28.5z" />
    <glyph glyph-name="f" unicode="f" horiz-adv-x="694" 
d="M711 1253h-150q-53 0 -73.5 -29t-20.5 -102v-112h211v-203h-211v-807h-305v807h-139v192l139 11v153q0 312 291 312q182 0 284 -21z" />
    <glyph glyph-name="g" unicode="g" horiz-adv-x="987" 
d="M958 877l-100 -15q21 -62 21 -147q0 -175 -91.5 -249.5t-316.5 -74.5q-81 0 -133 8q-8 -23 -9 -47.5t13.5 -45t42.5 -25.5l301 -43q135 -18 193.5 -90t58.5 -211q0 -99 -24.5 -162t-82 -100t-140 -51.5t-210.5 -14.5q-187 0 -285 29.5t-134.5 91.5t-36.5 180
q0 78 30.5 127.5t108.5 89.5q-42 41 -51.5 104.5t13.5 121.5t67 87q-69 36 -100.5 103t-31.5 170q0 178 93 251.5t319 73.5q146 0 229 -28h273zM471 584q73 0 100 28.5t27 102.5q0 75 -26.5 102t-100.5 27q-75 0 -102 -27t-27 -102q0 -74 27.5 -102.5t101.5 -28.5zM653 -55
q0 52 -25.5 67t-105.5 27l-162 22q-28 -27 -39.5 -51.5t-11.5 -60.5q0 -73 32 -94t136 -21q107 0 141.5 21.5t34.5 89.5z" />
    <glyph glyph-name="h" unicode="h" horiz-adv-x="1017" 
d="M696 1038q117 0 178.5 -72t61.5 -208v-758h-303v664q0 68 -15.5 93t-54.5 25q-35 0 -75 -19.5t-101 -64.5v-698h-303v1434h303l2 -351q0 -82 -16 -196q163 151 323 151z" />
    <glyph glyph-name="i" unicode="i" horiz-adv-x="485" 
d="M176 1456h129q90 0 90 -88v-111q0 -88 -90 -88h-129q-88 0 -88 88v111q0 88 88 88zM393 0h-301v1010h301v-1010z" />
    <glyph glyph-name="j" unicode="j" horiz-adv-x="485" 
d="M174 1464h131q42 0 65 -23t23 -65v-110q0 -88 -88 -88h-131q-88 0 -88 88v110q0 88 88 88zM393 1010v-963q0 -141 -64 -263t-177 -187l-168 133q60 74 84 148t24 169v963h301z" />
    <glyph glyph-name="k" unicode="k" horiz-adv-x="972" 
d="M430 469h-57q14 -93 14 -152v-317h-303v1434h303v-592q0 -102 -14 -185h55l184 353h336l-192 -351q-33 -59 -86 -96v-4q18 -12 43.5 -44t42.5 -64l221 -451h-334z" />
    <glyph glyph-name="l" unicode="l" horiz-adv-x="571" 
d="M387 1434v-1104q0 -103 88 -103h62l32 -211q-32 -18 -101.5 -29.5t-119.5 -11.5q-122 0 -192 73t-70 206v1180h301z" />
    <glyph glyph-name="m" unicode="m" horiz-adv-x="1466" 
d="M1151 1038q116 0 175.5 -71.5t59.5 -208.5v-758h-301v664q0 65 -15 91.5t-54 26.5q-28 0 -54.5 -17t-80.5 -67v-698h-291v664q0 66 -17 92t-55 26q-28 0 -55.5 -16t-77.5 -61v-705h-301v1010h238l26 -148q76 91 145.5 133.5t155.5 42.5q168 0 215 -157q69 81 137 119
t150 38z" />
    <glyph glyph-name="n" unicode="n" horiz-adv-x="1017" 
d="M698 1038q117 0 178.5 -72t61.5 -208v-758h-303v664q0 68 -15.5 93t-54.5 25q-34 0 -72.5 -20t-107.5 -68l2 -694h-303v1010h240l28 -150q169 178 346 178z" />
    <glyph glyph-name="o" unicode="o" 
d="M498 1038q244 0 345 -121t101 -413q0 -290 -101 -410.5t-345 -120.5t-344.5 120t-100.5 411q0 292 100.5 413t344.5 121zM500 811q-77 0 -103 -61.5t-26 -245.5q0 -181 26 -242t103 -61q52 0 78.5 26t37.5 89t11 188q0 127 -11 190.5t-37.5 90t-78.5 26.5z" />
    <glyph glyph-name="p" unicode="p" horiz-adv-x="1015" 
d="M668 1036q152 0 221 -137t69 -403q0 -197 -36 -313.5t-102.5 -163t-174.5 -46.5q-165 0 -264 86q7 -112 4 -204v-244h-301v1399h244l22 -148q42 76 130.5 125t187.5 49zM530 199q46 0 69.5 21.5t35.5 85.5t12 190q0 121 -11 187t-33 91t-62 25q-44 0 -77.5 -23.5
t-78.5 -75.5v-464q4 -1 18.5 -7.5t19.5 -8t18 -6.5t21 -6.5t20 -4t23.5 -3.5t24.5 -1z" />
    <glyph glyph-name="q" unicode="q" horiz-adv-x="1005" 
d="M922 956v-1345h-304v295q0 107 19 211q-53 -63 -126.5 -103.5t-152.5 -40.5q-162 0 -233.5 128.5t-71.5 398.5q0 105 10 182.5t37.5 147.5t75 113.5t124 69t181.5 25.5q104 0 239.5 -21t203.5 -59zM481 225q66 0 137 64v510q-77 17 -133 14q-48 -3 -72.5 -30.5t-36 -94.5
t-11.5 -196q0 -148 24 -207.5t92 -59.5z" />
    <glyph glyph-name="r" unicode="r" horiz-adv-x="731" 
d="M723 1038l-29 -280h-78q-72 0 -229 -68v-690h-303v1010h238l26 -148q167 176 328 176h47z" />
    <glyph glyph-name="s" unicode="s" horiz-adv-x="901" 
d="M420 1038q246 -4 405 -39l-20 -194q-218 4 -322 4q-94 0 -116.5 -9.5t-22.5 -58.5q0 -39 15 -52.5t67 -31.5l18 -6l201 -69q113 -39 163 -103.5t50 -191.5q0 -94 -21 -154t-70.5 -94.5t-120 -48t-179.5 -13.5q-222 0 -404 35l21 197q49 -4 289 -4q123 0 157.5 13.5
t34.5 62.5q0 39 -17 53.5t-73 33.5q-13 5 -20 7l-195 67q-122 39 -165.5 110t-43.5 198q0 159 81.5 223.5t287.5 64.5z" />
    <glyph glyph-name="t" unicode="t" horiz-adv-x="708" 
d="M471 807v-477q0 -57 17.5 -80t60.5 -23h96l33 -211q-47 -19 -124 -30t-136 -11q-118 0 -185 77t-67 214v541h-143v192l143 9v284h305v-282h209v-203h-209z" />
    <glyph glyph-name="u" unicode="u" horiz-adv-x="1003" 
d="M920 1010v-1010h-240l-25 141q-84 -86 -165 -127t-171 -41q-239 0 -239 281v756h303v-664q-1 -65 16.5 -92t57.5 -27q34 0 68.5 18t90.5 60v705h304z" />
    <glyph glyph-name="v" unicode="v" horiz-adv-x="968" 
d="M967 1010l-256 -938q-11 -32 -37 -52t-60 -20h-260q-35 0 -61 19.5t-35 52.5l-256 938h320l122 -633q14 -68 29 -180h23q13 97 30 180l121 633h320z" />
    <glyph glyph-name="w" unicode="w" horiz-adv-x="1435" 
d="M1415 1010l-184 -930q-7 -36 -35.5 -58t-65.5 -22h-221q-40 0 -70 25.5t-34 66.5l-66 572q-6 59 -14 170h-20q-6 -82 -15 -170l-63 -572q-4 -41 -34.5 -66.5t-72.5 -25.5h-217q-38 0 -65.5 21.5t-34.5 58.5l-185 930h301l84 -656q15 -135 17 -166h20l19 166l63 566
q4 41 33.5 65.5t69.5 24.5h182q42 0 71 -25t33 -67l62 -564q18 -163 18 -166h21q2 19 5 51.5t6 60.5t7 54l82 656h303z" />
    <glyph glyph-name="x" unicode="x" horiz-adv-x="976" 
d="M489 424h-2l-188 -424h-293l246 518l-227 492h292l168 -389h9l168 389h290l-227 -492l246 -518h-293z" />
    <glyph glyph-name="y" unicode="y" horiz-adv-x="970" 
d="M967 1010l-277 -1024q-18 -64 -44 -121.5t-69.5 -114.5t-97.5 -96t-131 -58t-166 -8l-22 179q101 32 160 85.5t90 139.5l4 8h-60q-35 0 -61 20t-35 54l-256 936h322l122 -654q6 -28 25 -151h18q23 100 33 151l123 654h322z" />
    <glyph glyph-name="z" unicode="z" horiz-adv-x="884" 
d="M829 217v-217h-774v217l414 578h-403v215h755v-215l-415 -578h423z" />
    <glyph glyph-name="braceleft" unicode="{" horiz-adv-x="581" 
d="M528 1573v-187q-67 0 -90.5 -25t-23.5 -101v-310q2 -133 -37 -195t-146 -83q107 -36 147 -97.5t42 -173.5v-430q0 -75 23.5 -99t91.5 -24v-186q-206 -29 -305 48.5t-99 236.5v489q0 44 -9.5 69.5t-20.5 34t-44 26.5q-8 5 -12 7v197q49 22 59 32q20 22 21 99v14v373
q0 159 98.5 236.5t304.5 48.5z" />
    <glyph glyph-name="bar" unicode="|" horiz-adv-x="448" 
d="M330 -346h-211v1945h211v-1945z" />
    <glyph glyph-name="braceright" unicode="}" horiz-adv-x="581" 
d="M53 1386v187q205 30 304.5 -48t99.5 -237v-373q0 -56 6.5 -81.5t18 -35t44.5 -23.5q7 -3 11 -5v-197q-51 -27 -62 -39q-24 -26 -24 -98v-489q0 -159 -99.5 -237t-304.5 -48v186q68 0 91.5 24t23.5 99v430q2 112 42 174t146 97q-106 21 -145 83t-37 195v310
q0 75 -24 100.5t-91 25.5z" />
    <glyph glyph-name="asciitilde" unicode="~" horiz-adv-x="841" 
d="M227 743q50 -3 188.5 -52t155.5 -52q36 -7 45 12.5t9 81.5h131q22 -146 -19.5 -224t-120.5 -73q-52 2 -189 51t-157 52q-36 7 -44.5 -12.5t-8.5 -82.5h-129q-22 147 20.5 224t118.5 75z" />
    <glyph glyph-name="uni00A0" unicode="&#xa0;" horiz-adv-x="354" 
 />
    <glyph glyph-name="exclamdown" unicode="&#xa1;" horiz-adv-x="497" 
d="M215 1038h70q59 0 80.5 -22.5t21.5 -83.5v-101q0 -60 -21 -82t-81 -22h-70q-60 0 -82 22t-22 82v101q0 60 22 83t82 23zM397 168v-547h-299v547l31 422h238z" />
    <glyph glyph-name="cent" unicode="&#xa2;" horiz-adv-x="884" 
d="M797 446l26 -196q-112 -56 -276 -66l-19 -184h-227l23 199q-146 35 -208.5 155t-62.5 359q0 280 87.5 401t299.5 131l19 168h225l-20 -184q91 -17 147 -47l-31 -189q-196 4 -243 4q-96 0 -131 -59t-35 -225t35 -225.5t131 -59.5q147 0 260 18z" />
    <glyph glyph-name="sterling" unicode="&#xa3;" horiz-adv-x="989" 
d="M932 252v-252h-860v252q81 46 107.5 127t19.5 201l-6 86h-125l-2 157h118l-14 232q-6 118 12 193.5t65.5 117t112.5 57t166 15.5q152 0 369 -21l-16 -233q-63 2 -304 2q-58 0 -80.5 -30.5t-19.5 -113.5l17 -219h272l-8 -157h-254l6 -86q4 -68 -3 -120t-27.5 -93
t-38.5 -66.5t-52 -62.5q43 14 135 14h410z" />
    <glyph glyph-name="currency" unicode="&#xa4;" horiz-adv-x="962" 
d="M823 719q0 -121 -53 -221l125 -146l-125 -125l-115 135q-79 -57 -174 -57t-174 57l-110 -133l-134 133l123 148q-47 92 -47 209q0 124 54 221l-121 147l125 125l110 -135q80 58 174 58q93 0 176 -60l113 137l125 -125l-123 -149q51 -97 51 -219zM479 479q69 0 119.5 71.5
t50.5 170.5q0 101 -50.5 172.5t-119.5 71.5q-68 0 -119 -72t-51 -172q0 -99 51 -170.5t119 -71.5z" />
    <glyph glyph-name="yen" unicode="&#xa5;" horiz-adv-x="1052" 
d="M774 698h205v-188h-907v188h207l-287 715h323l164 -518q21 -64 37 -178h21q23 133 38 178l164 518h322zM72 438h907v-186h-297v-252h-311v252h-299v186z" />
    <glyph glyph-name="brokenbar" unicode="&#xa6;" horiz-adv-x="448" 
d="M330 780h-211v819h211v-819zM330 -346h-211v819h211v-819z" />
    <glyph glyph-name="section" unicode="&#xa7;" horiz-adv-x="929" 
d="M461 1440q196 0 385 -25l-21 -217q-86 6 -270 6q-40 0 -60 -1t-43.5 -4.5t-34 -11.5t-18.5 -22.5t-10 -36.5q-3 -33 9.5 -60t26.5 -40.5t44 -36.5l209 -147q97 -56 141.5 -129t43 -165.5t-35.5 -211.5h-209q2 123 -23.5 180.5t-109.5 112.5l-249 180q-65 53 -86 76
q-84 94 -84 252q0 91 24.5 150.5t77.5 92.5t121.5 45.5t171.5 12.5zM102 735h209q-2 -123 23.5 -179.5t107.5 -111.5l250 -178q68 -54 93 -84q79 -93 79 -248q0 -93 -24.5 -153t-78 -92t-121.5 -44t-171 -12q-217 0 -385 25l20 217q117 -8 273 -8q91 0 125.5 14t38.5 66
q4 47 -16.5 76.5t-63.5 60.5l-207 147q-98 57 -143 129t-44 164t35 211z" />
    <glyph glyph-name="dieresis" unicode="&#xa8;" horiz-adv-x="716" 
d="M154 1450h100q59 0 59 -68v-118q0 -68 -59 -68h-100q-60 0 -60 68v118q0 68 60 68zM465 1450h98q60 0 60 -68v-118q0 -68 -60 -68h-98q-62 0 -62 68v118q0 68 62 68z" />
    <glyph glyph-name="copyright" unicode="&#xa9;" horiz-adv-x="1320" 
d="M659 1440q168 0 306.5 -93.5t218.5 -262t80 -377.5t-80 -377.5t-218.5 -262.5t-306.5 -94q-125 0 -236 55.5t-191.5 151.5t-127.5 233t-47 294t47 294t127.5 233t191.5 151t236 55zM662 1294q-124 0 -228 -75t-165.5 -210.5t-61.5 -301.5t61.5 -301.5t165.5 -211
t228 -75.5t228 75.5t165 211t61 301.5t-61 301.5t-165 210.5t-228 75zM670 1135q125 0 229 -29l-16 -164q-148 4 -215 4q-57 0 -75 -47t-18 -188q0 -142 17.5 -189t75.5 -47q159 0 229 8l16 -164q-104 -36 -243 -36q-179 0 -251.5 96t-72.5 332q0 233 73 328.5t251 95.5z
" />
    <glyph glyph-name="ordfeminine" unicode="&#xaa;" horiz-adv-x="722" 
d="M408 1260q121 0 179 -57t58 -197v-443h-176l-18 94q-77 -112 -201 -112q-80 0 -133.5 49.5t-53.5 138.5v74q0 80 48.5 126t132.5 46h182v29q0 41 -16.5 60t-53.5 19q-90 0 -243 -10l-21 150q169 33 316 33zM328 713q41 0 98 43v110l-102 -12q-50 -6 -50 -59v-21
q0 -34 13 -47.5t41 -13.5z" />
    <glyph glyph-name="guillemotleft" unicode="&#xab;" horiz-adv-x="890" 
d="M467 850l-158 -336l158 -346l-158 -100l-264 413v66l264 405zM836 850l-158 -336l158 -346l-158 -100l-264 413v66l264 405z" />
    <glyph glyph-name="logicalnot" unicode="&#xac;" horiz-adv-x="958" 
d="M866 727v-451h-225v236h-559v215h784z" />
    <glyph glyph-name="softhyphen" unicode="&#xad;" horiz-adv-x="657" 
d="M573 422h-489v199h489v-199z" />
    <glyph glyph-name="registered" unicode="&#xae;" horiz-adv-x="841" 
d="M422 1440q101 0 186 -61t134 -165.5t49 -228.5q0 -190 -107.5 -323.5t-261.5 -133.5q-155 0 -263 133t-108 324q0 189 108 322t263 133zM422 616q116 0 199.5 108t83.5 261q0 152 -83.5 259.5t-199.5 107.5q-117 0 -201 -107.5t-84 -259.5q0 -153 84 -261t201 -108z
M616 752h-131l-24 143q-6 23 -14 31t-25 8h-41v-182h-125v477q53 6 174 6q93 0 132.5 -30t39.5 -111q0 -105 -84 -115v-4q54 -9 66 -76zM381 1018h45q30 1 39.5 14t9.5 49q0 38 -9 50t-40 12h-45v-125z" />
    <glyph glyph-name="macron" unicode="&#xaf;" horiz-adv-x="667" 
d="M594 1225h-518v194h518v-194z" />
    <glyph glyph-name="degree" unicode="&#xb0;" horiz-adv-x="555" 
d="M276 1440q96 0 165 -79t69 -192t-69 -193.5t-165 -80.5q-94 0 -162.5 80.5t-68.5 193.5q0 112 68.5 191.5t162.5 79.5zM276 1288q-36 0 -61 -33t-25 -86t25 -87.5t61 -34.5t61 34.5t25 87.5t-25 86t-61 33z" />
    <glyph glyph-name="plusminus" unicode="&#xb1;" horiz-adv-x="937" 
d="M854 874v-223h-272v-243h-224v243h-274v223h274v246h222v-246h274zM84 313h770v-221h-770v221z" />
    <glyph glyph-name="twosuperior" unicode="&#xb2;" horiz-adv-x="716" 
d="M336 1599q159 0 226 -44t67 -173q0 -51 -26.5 -101.5t-86.5 -131.5l-164 -221q44 10 99 10l196 -4v-197h-577v121q0 54 32 96l144 191q117 139 131 207q6 34 -10 44.5t-56 10.5q-79 0 -229 -6l-6 172q125 26 260 26z" />
    <glyph glyph-name="threesuperior" unicode="&#xb3;" horiz-adv-x="686" 
d="M340 1602q151 0 209.5 -42.5t58.5 -154.5q0 -99 -27 -150.5t-104 -64.5v-4q84 -13 116 -62.5t34 -150.5q2 -136 -62 -194t-221 -58q-120 0 -281 22l7 168q100 -6 209 -6q69 0 90.5 20.5t21.5 80.5q0 46 -17 68t-69 22l-143 4v151l143 2q49 1 64.5 23.5t15.5 66.5
q0 45 -17 59.5t-69 14.5q-158 0 -213 -2l-6 164q145 23 260 23z" />
    <glyph glyph-name="acute" unicode="&#xb4;" horiz-adv-x="622" 
d="M559 1298l-403 -225l-84 131l364 303z" />
    <glyph glyph-name="paragraph" unicode="&#xb6;" horiz-adv-x="1019" 
d="M891 1368v-1368h-191v1251l-84 4v-1685h-188v842q-206 23 -296.5 142t-90.5 368q0 283 125.5 399.5t421.5 116.5q183 0 305 -35z" />
    <glyph glyph-name="periodcentered" unicode="&#xb7;" horiz-adv-x="432" 
d="M180 682h74q60 0 82 -22t22 -82v-99q0 -60 -22 -83t-82 -23h-74q-60 0 -82 23t-22 83v99q0 60 22 82t82 22z" />
    <glyph glyph-name="cedilla" unicode="&#xb8;" horiz-adv-x="425" 
d="M96 -197l29 119q154 19 213 -5.5t55 -127.5q-6 -150 -108 -224t-254 -52l35 133q60 -2 99.5 27.5t43.5 90.5q1 26 -18 32.5t-95 6.5z" />
    <glyph glyph-name="onesuperior" unicode="&#xb9;" horiz-adv-x="522" 
d="M434 737h-229v555q0 68 8 103l-166 -43l-27 149l185 84h229v-848z" />
    <glyph glyph-name="ordmasculine" unicode="&#xba;" horiz-adv-x="724" 
d="M362 1260q168 0 237 -81t69 -278q0 -195 -68.5 -274.5t-237.5 -79.5t-238 79.5t-69 274.5q0 197 69 278t238 81zM362 1096q-46 0 -61.5 -38.5t-15.5 -156.5q0 -115 15.5 -153.5t61.5 -38.5t62 38.5t16 153.5q0 117 -16 156t-62 39z" />
    <glyph glyph-name="guillemotright" unicode="&#xbb;" horiz-adv-x="890" 
d="M477 547v-66l-264 -413l-158 100l158 346l-158 336l158 102zM846 547v-66l-264 -413l-158 100l158 346l-158 336l158 102z" />
    <glyph glyph-name="onequarter" unicode="&#xbc;" horiz-adv-x="1536" 
d="M213 565v555q0 68 8 103l-155 -43l-27 149l174 84h229v-848h-229zM1122 1413l-665 -1413h-187l666 1413h186zM1491 336v-141l-78 -21v-174h-213v174h-291q-47 0 -71.5 39.5t-3.5 101.5l178 533h207l-152 -479q-4 -15 1 -24t17 -9h115v215l37 131h176v-346h78z" />
    <glyph glyph-name="onehalf" unicode="&#xbd;" horiz-adv-x="1546" 
d="M442 565h-229v555q0 68 8 103l-155 -43l-27 149l174 84h229v-848zM453 0h-187l664 1413h186zM1180 862q157 0 223.5 -44t66.5 -173q0 -114 -110 -254l-160 -201q51 11 96 11l193 -4v-197h-571v121q0 64 34 96l140 191q113 143 129 206q6 34 -10 45t-54 11q-78 0 -225 -6
l-8 172q123 26 256 26z" />
    <glyph glyph-name="threequarters" unicode="&#xbe;" horiz-adv-x="1667" 
d="M616 797q2 -136 -61 -195t-217 -59q-126 0 -277 24l7 168q100 -6 206 -6q66 0 86.5 19.5t20.5 78.5q0 50 -15.5 72.5t-64.5 22.5l-141 2v147l141 4q46 0 59 22t13 68q0 47 -14 61.5t-64 14.5q-156 0 -211 -2l-6 164q126 20 258 20q149 0 205.5 -42t56.5 -152
q0 -100 -27 -152t-102 -63v-4q83 -13 114 -62t33 -151zM1260 1413l-666 -1413h-186l665 1413h187zM1624 195l-78 -21v-174h-213v174h-291q-48 0 -72 39.5t-5 101.5l178 533h207l-152 -479q-4 -15 1.5 -24t19.5 -9h114v215l37 131h176v-346h78v-141z" />
    <glyph glyph-name="questiondown" unicode="&#xbf;" horiz-adv-x="870" 
d="M426 1042h68q61 0 82.5 -22.5t21.5 -83.5v-98q0 -61 -21.5 -84t-82.5 -23h-68q-60 0 -82 23.5t-22 83.5v98q0 60 22 83t82 23zM340 594h240q4 -100 -16 -187t-51.5 -146.5t-64.5 -109t-58.5 -98.5t-29.5 -92q-8 -68 21.5 -99.5t99.5 -31.5q145 0 340 10l8 -207
q-13 -3 -52.5 -11.5t-52 -11t-46 -8.5t-54.5 -8t-57 -5t-74.5 -4t-86.5 -1q-186 0 -276.5 78t-90.5 240q0 83 28.5 153t70 123.5t84.5 108.5t77 134t41 173z" />
    <glyph glyph-name="Agrave" unicode="&#xc0;" horiz-adv-x="1110" 
d="M616 1479l-401 225l123 209l364 -303zM729 371h-346l-72 -371h-319l313 1331q9 38 38.5 60t68.5 22h286q39 0 69 -22t40 -60l311 -1331h-317zM682 612l-82 432q-19 102 -22 134h-46q-5 -53 -20 -134l-84 -432h254z" />
    <glyph glyph-name="Aacute" unicode="&#xc1;" horiz-adv-x="1110" 
d="M483 1479l-84 131l365 303l123 -209zM729 371h-346l-72 -371h-319l313 1331q9 38 38.5 60t68.5 22h286q39 0 69 -22t40 -60l311 -1331h-317zM682 612l-82 432q-19 102 -22 134h-46q-5 -53 -20 -134l-84 -432h254z" />
    <glyph glyph-name="Acircumflex" unicode="&#xc2;" horiz-adv-x="1110" 
d="M295 1473l-76 118l227 269h220l223 -275l-76 -112l-250 192h-12zM729 371h-346l-72 -371h-319l313 1331q9 38 38.5 60t68.5 22h286q39 0 69 -22t40 -60l311 -1331h-317zM682 612l-82 432q-19 102 -22 134h-46q-5 -53 -20 -134l-84 -432h254z" />
    <glyph glyph-name="Atilde" unicode="&#xc3;" horiz-adv-x="1110" 
d="M377 1550h-127q-22 144 22 221t117 70q61 -5 149.5 -48t125.5 -50q36 -7 45.5 11.5t9.5 76.5h127q22 -139 -19 -217t-120 -72q-63 6 -154.5 52t-120.5 51q-37 7 -46 -13.5t-9 -81.5zM729 371h-346l-72 -371h-319l313 1331q9 38 38.5 60t68.5 22h286q39 0 69 -22t40 -60
l311 -1331h-317zM682 612l-82 432q-19 102 -22 134h-46q-5 -53 -20 -134l-84 -432h254z" />
    <glyph glyph-name="Adieresis" unicode="&#xc4;" horiz-adv-x="1110" 
d="M449 1561h-101q-59 0 -59 67v119q0 68 59 68h101q59 0 59 -68v-119q0 -67 -59 -67zM758 1561h-99q-61 0 -61 67v119q0 68 61 68h99q59 0 59 -68v-119q0 -67 -59 -67zM729 371h-346l-72 -371h-319l313 1331q9 38 38.5 60t68.5 22h286q39 0 69 -22t40 -60l311 -1331h-317z
M682 612l-82 432q-19 102 -22 134h-46q-5 -53 -20 -134l-84 -432h254z" />
    <glyph glyph-name="Aring" unicode="&#xc5;" horiz-adv-x="1110" 
d="M555 1460q-87 0 -147 67.5t-60 166.5t61 168t146 69q84 0 145.5 -69t61.5 -168t-60.5 -166.5t-146.5 -67.5zM555 1800q-33 0 -55.5 -30t-22.5 -76t22.5 -75.5t55.5 -29.5t55.5 29.5t22.5 75.5t-22.5 76t-55.5 30zM729 371h-346l-72 -371h-319l313 1331q9 38 38.5 60
t68.5 22h286q39 0 69 -22t40 -60l311 -1331h-317zM682 612l-82 432q-19 102 -22 134h-46q-5 -53 -20 -134l-84 -432h254z" />
    <glyph glyph-name="AE" unicode="&#xc6;" horiz-adv-x="1568" 
d="M1499 244l14 -230q-170 -20 -548 -20q-105 0 -167.5 79.5t-62.5 205.5v110h-301l-139 -389h-320l439 1143q42 106 98.5 162t159.5 83t280 27q373 0 561 -16l-14 -230h-397q-35 0 -56.5 -29.5t-21.5 -80.5v-213h416v-221h-416v-275q0 -106 78 -106h397zM735 623v458
q0 88 29 138h-21q-27 -34 -51 -109l-174 -487h217z" />
    <glyph glyph-name="Ccedilla" unicode="&#xc7;" horiz-adv-x="993" 
d="M567 1438q122 0 198.5 -10.5t164.5 -36.5l-25 -234q-141 10 -338 10q-70 0 -107 -42t-53 -139t-16 -279q0 -268 36.5 -364.5t139.5 -96.5q244 0 363 18l24 -231q-86 -31 -173 -44.5t-214 -13.5q-141 0 -235 38t-155 126t-87.5 225.5t-26.5 342.5q0 273 50 431t158.5 229
t295.5 71zM403 -238l29 119q154 19 213 -5.5t55 -127.5q-6 -150 -108 -224t-254 -52l35 133q59 -2 99 28t44 91q1 26 -18 32t-95 6z" />
    <glyph glyph-name="Egrave" unicode="&#xc8;" horiz-adv-x="976" 
d="M594 1503l-401 226l122 208l365 -303zM907 244l15 -230q-162 -20 -568 -20q-117 0 -189 77.5t-73 207.5v856q1 130 73 207t189 77q406 0 568 -20l-15 -232h-430q-71 0 -71 -104v-215h440v-225h-440v-273q0 -56 17.5 -81t53.5 -25h430z" />
    <glyph glyph-name="Eacute" unicode="&#xc9;" horiz-adv-x="976" 
d="M461 1503l-84 131l364 303l123 -208zM907 244l15 -230q-162 -20 -568 -20q-117 0 -189 77.5t-73 207.5v856q1 130 73 207t189 77q406 0 568 -20l-15 -232h-430q-71 0 -71 -104v-215h440v-225h-440v-273q0 -56 17.5 -81t53.5 -25h430z" />
    <glyph glyph-name="Ecircumflex" unicode="&#xca;" horiz-adv-x="976" 
d="M272 1497l-75 119l227 268h219l223 -274l-75 -113l-250 193h-13zM907 244l15 -230q-162 -20 -568 -20q-117 0 -189 77.5t-73 207.5v856q1 130 73 207t189 77q406 0 568 -20l-15 -232h-430q-71 0 -71 -104v-215h440v-225h-440v-273q0 -56 17.5 -81t53.5 -25h430z" />
    <glyph glyph-name="Edieresis" unicode="&#xcb;" horiz-adv-x="976" 
d="M426 1585h-100q-60 0 -60 68v119q0 67 60 67h100q59 0 59 -67v-119q0 -68 -59 -68zM735 1585h-98q-62 0 -62 68v119q0 67 62 67h98q60 0 60 -67v-119q0 -68 -60 -68zM907 244l15 -230q-162 -20 -568 -20q-117 0 -189 77.5t-73 207.5v856q1 130 73 207t189 77
q406 0 568 -20l-15 -232h-430q-71 0 -71 -104v-215h440v-225h-440v-273q0 -56 17.5 -81t53.5 -25h430z" />
    <glyph glyph-name="Igrave" unicode="&#xcc;" horiz-adv-x="512" 
d="M403 1610l-86 -131l-401 225l123 209zM412 0h-312v1413h312v-1413z" />
    <glyph glyph-name="Iacute" unicode="&#xcd;" horiz-adv-x="512" 
d="M588 1704l-404 -225l-84 131l365 303zM412 0h-312v1413h312v-1413z" />
    <glyph glyph-name="Icircumflex" unicode="&#xce;" horiz-adv-x="512" 
d="M590 1585l-76 -112l-250 192h-12l-256 -192l-76 118l227 269h220zM412 0h-312v1413h312v-1413z" />
    <glyph glyph-name="Idieresis" unicode="&#xcf;" horiz-adv-x="512" 
d="M49 1815h101q59 0 59 -68v-119q0 -67 -59 -67h-101q-59 0 -59 67v119q0 68 59 68zM360 1815h99q59 0 59 -68v-119q0 -67 -59 -67h-99q-61 0 -61 67v119q0 68 61 68zM412 0h-312v1413h312v-1413z" />
    <glyph glyph-name="Eth" unicode="&#xd0;" horiz-adv-x="1150" 
d="M573 1432q146 0 241 -34t157.5 -119t89 -222.5t26.5 -349.5t-26.5 -349.5t-89 -222.5t-157.5 -119t-241 -34q-224 0 -471 18v662h-84v157h84v594q264 19 471 19zM573 227q73 0 112 43.5t56 145.5t17 291t-17 291t-56 146t-112 44l-159 -2v-367h184v-157h-184v-433
q49 -2 159 -2z" />
    <glyph glyph-name="Ntilde" unicode="&#xd1;" horiz-adv-x="1214" 
d="M455 1841q61 -5 149 -48t125 -50q36 -7 45.5 11.5t9.5 76.5h127q22 -139 -19 -217t-120 -72q-63 6 -154 52t-120 51q-37 7 -46.5 -13.5t-9.5 -81.5h-127q-22 144 22.5 221t117.5 70zM1116 1413v-1300q0 -113 -108 -113h-187q-48 0 -77 21.5t-46 70.5l-229 696
q-19 57 -70 265h-14q8 -176 8 -267v-786h-293v1300q0 55 28 84t81 29h186q49 0 77.5 -21t45.5 -71l227 -678q16 -47 42 -146.5t32 -121.5h15q-7 114 -7 278v760h289z" />
    <glyph glyph-name="Ograve" unicode="&#xd2;" horiz-adv-x="1157" 
d="M725 1610l-86 -131l-401 225l122 209zM578 1440q117 0 200 -22t145.5 -72t99 -136.5t54 -208.5t17.5 -294t-17.5 -294.5t-54 -208.5t-99 -136t-145.5 -72.5t-200 -22.5q-146 0 -241 34.5t-158 120t-89.5 225t-26.5 354.5q0 172 17.5 294t54 208.5t99 136.5t145 72
t199.5 22zM580 1188q-74 0 -113.5 -43t-56.5 -145t-17 -293t17 -293t56.5 -145.5t113.5 -43.5t113.5 43.5t56 145t16.5 293.5t-16.5 293.5t-56 144.5t-113.5 43z" />
    <glyph glyph-name="Oacute" unicode="&#xd3;" horiz-adv-x="1157" 
d="M909 1704l-403 -225l-84 131l364 303zM578 1440q117 0 200 -22t145.5 -72t99 -136.5t54 -208.5t17.5 -294t-17.5 -294.5t-54 -208.5t-99 -136t-145.5 -72.5t-200 -22.5q-146 0 -241 34.5t-158 120t-89.5 225t-26.5 354.5q0 172 17.5 294t54 208.5t99 136.5t145 72
t199.5 22zM580 1188q-74 0 -113.5 -43t-56.5 -145t-17 -293t17 -293t56.5 -145.5t113.5 -43.5t113.5 43.5t56 145t16.5 293.5t-16.5 293.5t-56 144.5t-113.5 43z" />
    <glyph glyph-name="Ocircumflex" unicode="&#xd4;" horiz-adv-x="1157" 
d="M911 1585l-75 -112l-250 192h-13l-256 -192l-75 118l227 269h219zM578 1440q117 0 200 -22t145.5 -72t99 -136.5t54 -208.5t17.5 -294t-17.5 -294.5t-54 -208.5t-99 -136t-145.5 -72.5t-200 -22.5q-146 0 -241 34.5t-158 120t-89.5 225t-26.5 354.5q0 172 17.5 294
t54 208.5t99 136.5t145 72t199.5 22zM580 1188q-74 0 -113.5 -43t-56.5 -145t-17 -293t17 -293t56.5 -145.5t113.5 -43.5t113.5 43.5t56 145t16.5 293.5t-16.5 293.5t-56 144.5t-113.5 43z" />
    <glyph glyph-name="Otilde" unicode="&#xd5;" horiz-adv-x="1157" 
d="M412 1841q61 -5 149 -48t125 -50q36 -7 45.5 11.5t9.5 76.5h127q22 -139 -19 -217t-120 -72q-63 6 -154 52t-120 51q-37 7 -46.5 -13.5t-9.5 -81.5h-127q-22 144 22.5 221t117.5 70zM578 1440q117 0 200 -22t145.5 -72t99 -136.5t54 -208.5t17.5 -294t-17.5 -294.5
t-54 -208.5t-99 -136t-145.5 -72.5t-200 -22.5q-146 0 -241 34.5t-158 120t-89.5 225t-26.5 354.5q0 172 17.5 294t54 208.5t99 136.5t145 72t199.5 22zM580 1188q-74 0 -113.5 -43t-56.5 -145t-17 -293t17 -293t56.5 -145.5t113.5 -43.5t113.5 43.5t56 145t16.5 293.5
t-16.5 293.5t-56 144.5t-113.5 43z" />
    <glyph glyph-name="Odieresis" unicode="&#xd6;" horiz-adv-x="1157" 
d="M371 1815h100q59 0 59 -68v-119q0 -67 -59 -67h-100q-60 0 -60 67v119q0 68 60 68zM682 1815h98q60 0 60 -68v-119q0 -67 -60 -67h-98q-61 0 -61 67v119q0 68 61 68zM578 1440q117 0 200 -22t145.5 -72t99 -136.5t54 -208.5t17.5 -294t-17.5 -294.5t-54 -208.5t-99 -136
t-145.5 -72.5t-200 -22.5q-146 0 -241 34.5t-158 120t-89.5 225t-26.5 354.5q0 172 17.5 294t54 208.5t99 136.5t145 72t199.5 22zM580 1188q-74 0 -113.5 -43t-56.5 -145t-17 -293t17 -293t56.5 -145.5t113.5 -43.5t113.5 43.5t56 145t16.5 293.5t-16.5 293.5t-56 144.5
t-113.5 43z" />
    <glyph glyph-name="multiply" unicode="&#xd7;" horiz-adv-x="831" 
d="M565 596l230 -248l-142 -170l-235 256l-238 -256l-139 170l227 248l-227 248l139 172l238 -258l235 258l142 -172z" />
    <glyph glyph-name="Oslash" unicode="&#xd8;" horiz-adv-x="1157" 
d="M1038 1513l-88 -192q76 -81 110 -228.5t34 -385.5q0 -172 -17.5 -294.5t-54 -208.5t-99 -136t-145.5 -72.5t-200 -22.5q-74 0 -138 9l-96 -205l-235 114l96 203q-74 81 -108 228.5t-34 384.5q0 172 17.5 294t54 208.5t99 136.5t145 72t199.5 22q80 0 135 -8l90 194z
M580 225q74 0 113.5 43.5t56 145t16.5 293.5t-16.5 293.5t-56 144.5t-113.5 43t-113.5 -43t-56.5 -145t-17 -293t17 -293t56.5 -145.5t113.5 -43.5z" />
    <glyph glyph-name="Ugrave" unicode="&#xd9;" horiz-adv-x="1153" 
d="M725 1610l-86 -131l-401 225l122 209zM1063 1413v-850q0 -324 -105.5 -457t-363.5 -133q-276 0 -389 133t-113 457v850h311v-850q0 -195 38 -266.5t139 -71.5q99 0 135.5 72t36.5 266v850h311z" />
    <glyph glyph-name="Uacute" unicode="&#xda;" horiz-adv-x="1153" 
d="M909 1704l-403 -225l-84 131l364 303zM1063 1413v-850q0 -324 -105.5 -457t-363.5 -133q-276 0 -389 133t-113 457v850h311v-850q0 -195 38 -266.5t139 -71.5q99 0 135.5 72t36.5 266v850h311z" />
    <glyph glyph-name="Ucircumflex" unicode="&#xdb;" horiz-adv-x="1153" 
d="M911 1585l-75 -112l-250 192h-13l-256 -192l-75 118l227 269h219zM1063 1413v-850q0 -324 -105.5 -457t-363.5 -133q-276 0 -389 133t-113 457v850h311v-850q0 -195 38 -266.5t139 -71.5q99 0 135.5 72t36.5 266v850h311z" />
    <glyph glyph-name="Udieresis" unicode="&#xdc;" horiz-adv-x="1153" 
d="M371 1815h100q59 0 59 -68v-119q0 -67 -59 -67h-100q-60 0 -60 67v119q0 68 60 68zM682 1815h98q60 0 60 -68v-119q0 -67 -60 -67h-98q-61 0 -61 67v119q0 68 61 68zM1063 1413v-850q0 -324 -105.5 -457t-363.5 -133q-276 0 -389 133t-113 457v850h311v-850
q0 -195 38 -266.5t139 -71.5q99 0 135.5 72t36.5 266v850h311z" />
    <glyph glyph-name="Yacute" unicode="&#xdd;" horiz-adv-x="1052" 
d="M455 1479l-84 131l364 303l123 -209zM682 465v-465h-311v469l-379 944h323l164 -518q21 -64 37 -178h21q23 133 38 178l164 518h322z" />
    <glyph glyph-name="Thorn" unicode="&#xde;" horiz-adv-x="1034" 
d="M414 1176h141q86 0 149.5 -9t114 -31t83 -56t54 -87t30.5 -121.5t9 -162.5q0 -185 -39.5 -285t-123 -140t-236.5 -40q-84 0 -182 10v-254h-314v1413h314v-237zM414 485h133q80 0 107.5 45t27.5 179q0 136 -27.5 181.5t-107.5 45.5h-133v-451z" />
    <glyph glyph-name="germandbls" unicode="&#xdf;" horiz-adv-x="1202" 
d="M938 639l104 -92q80 -64 109 -119t29 -156q0 -164 -72.5 -229.5t-259.5 -65.5q-117 0 -291 23l18 203q126 -4 201 -4q62 0 81.5 14.5t19.5 71.5q0 18 -5 32.5t-20.5 31t-24 24.5t-37 30.5t-38.5 30.5l-80 78q-121 94 -121 240q0 30 5 57t11 45t21 42t24 35.5t31.5 39.5
t32.5 41q39 53 53 85t14 77q0 55 -27 78.5t-110 23.5q-89 0 -116 -34t-27 -142v-1100h-303v805h-140v201l140 4v125q0 111 24 181.5t80 111t135 56t203 15.5q168 0 258.5 -31t125 -96t34.5 -184q0 -69 -19 -124.5t-73 -129.5q-8 -10 -24.5 -31t-23 -29t-17 -24t-14.5 -26.5
t-7.5 -25.5t-3.5 -30q0 -13 4.5 -25.5t8.5 -20.5t17 -21t19 -18.5t25 -21.5t26 -22z" />
    <glyph glyph-name="agrave" unicode="&#xe0;" horiz-adv-x="964" 
d="M551 1106l-401 225l122 209l365 -303zM541 1038q87 0 148.5 -18t106.5 -60t67 -114.5t22 -177.5v-668h-240l-27 135q-113 -160 -294 -160q-120 0 -199.5 77.5t-79.5 213.5v103q0 121 70 188.5t194 67.5h275v45q-1 76 -25.5 103.5t-89.5 27.5q-123 0 -352 -17l-29 205
q91 20 226 34.5t227 14.5zM422 203q78 0 162 69v170h-172q-70 -3 -70 -96v-39q0 -54 19.5 -79t60.5 -25z" />
    <glyph glyph-name="aacute" unicode="&#xe1;" horiz-adv-x="964" 
d="M418 1106l-84 131l364 303l123 -209zM541 1038q87 0 148.5 -18t106.5 -60t67 -114.5t22 -177.5v-668h-240l-27 135q-113 -160 -294 -160q-120 0 -199.5 77.5t-79.5 213.5v103q0 121 70 188.5t194 67.5h275v45q-1 76 -25.5 103.5t-89.5 27.5q-123 0 -352 -17l-29 205
q91 20 226 34.5t227 14.5zM422 203q78 0 162 69v170h-172q-70 -3 -70 -96v-39q0 -54 19.5 -79t60.5 -25z" />
    <glyph glyph-name="acircumflex" unicode="&#xe2;" horiz-adv-x="964" 
d="M229 1100l-75 119l227 268h219l223 -275l-75 -112l-250 192h-13zM541 1038q87 0 148.5 -18t106.5 -60t67 -114.5t22 -177.5v-668h-240l-27 135q-113 -160 -294 -160q-120 0 -199.5 77.5t-79.5 213.5v103q0 121 70 188.5t194 67.5h275v45q-1 76 -25.5 103.5t-89.5 27.5
q-123 0 -352 -17l-29 205q91 20 226 34.5t227 14.5zM422 203q78 0 162 69v170h-172q-70 -3 -70 -96v-39q0 -54 19.5 -79t60.5 -25z" />
    <glyph glyph-name="atilde" unicode="&#xe3;" horiz-adv-x="964" 
d="M311 1178h-127q-22 144 22.5 220.5t117.5 69.5q61 -5 149 -48t125 -50q36 -7 45.5 11.5t9.5 76.5h127q22 -139 -19 -217t-120 -72q-63 6 -154 52t-120 51q-37 7 -46.5 -13.5t-9.5 -80.5zM541 1038q87 0 148.5 -18t106.5 -60t67 -114.5t22 -177.5v-668h-240l-27 135
q-113 -160 -294 -160q-120 0 -199.5 77.5t-79.5 213.5v103q0 121 70 188.5t194 67.5h275v45q-1 76 -25.5 103.5t-89.5 27.5q-123 0 -352 -17l-29 205q91 20 226 34.5t227 14.5zM422 203q78 0 162 69v170h-172q-70 -3 -70 -96v-39q0 -54 19.5 -79t60.5 -25z" />
    <glyph glyph-name="adieresis" unicode="&#xe4;" horiz-adv-x="964" 
d="M383 1188h-100q-60 0 -60 67v119q0 68 60 68h100q59 0 59 -68v-119q0 -67 -59 -67zM692 1188h-98q-62 0 -62 67v119q0 68 62 68h98q60 0 60 -68v-119q0 -67 -60 -67zM541 1038q87 0 148.5 -18t106.5 -60t67 -114.5t22 -177.5v-668h-240l-27 135q-113 -160 -294 -160
q-120 0 -199.5 77.5t-79.5 213.5v103q0 121 70 188.5t194 67.5h275v45q-1 76 -25.5 103.5t-89.5 27.5q-123 0 -352 -17l-29 205q91 20 226 34.5t227 14.5zM422 203q78 0 162 69v170h-172q-70 -3 -70 -96v-39q0 -54 19.5 -79t60.5 -25z" />
    <glyph glyph-name="aring" unicode="&#xe5;" horiz-adv-x="964" 
d="M489 1087q-87 0 -146.5 67.5t-59.5 166.5t60.5 168.5t145.5 69.5q84 0 145.5 -69.5t61.5 -168.5t-60.5 -166.5t-146.5 -67.5zM489 1427q-33 0 -55 -29.5t-22 -76.5q0 -46 22 -75t55 -29t55.5 29t22.5 75t-22.5 76t-55.5 30zM541 1038q87 0 148.5 -18t106.5 -60t67 -114.5
t22 -177.5v-668h-240l-27 135q-113 -160 -294 -160q-120 0 -199.5 77.5t-79.5 213.5v103q0 121 70 188.5t194 67.5h275v45q-1 76 -25.5 103.5t-89.5 27.5q-123 0 -352 -17l-29 205q91 20 226 34.5t227 14.5zM422 203q78 0 162 69v170h-172q-70 -3 -70 -96v-39
q0 -54 19.5 -79t60.5 -25z" />
    <glyph glyph-name="ae" unicode="&#xe6;" horiz-adv-x="1464" 
d="M1051 217q108 0 317 23l29 -189q-145 -76 -381 -76q-145 0 -237.5 43t-143.5 134q-48 -75 -126.5 -126t-191.5 -51q-118 0 -195 77t-77 214v103q0 119 69.5 186.5t190.5 67.5h266v47q0 76 -23 103.5t-85 27.5q-120 0 -346 -17l-29 205q90 20 223.5 34.5t223.5 14.5
q143 0 219 -51q91 51 258 51q215 0 310 -87t95 -265q2 -143 -64.5 -213t-222.5 -70h-249q9 -113 44.5 -149.5t125.5 -36.5zM1020 817q-82 2 -111 -44t-32 -187h167q49 0 65.5 27t16.5 77q0 70 -23.5 98.5t-82.5 28.5zM418 203q85 0 170 82q-14 85 -17 157h-161
q-68 -3 -68 -96v-39q0 -54 18 -79t58 -25z" />
    <glyph glyph-name="ccedilla" unicode="&#xe7;" horiz-adv-x="860" 
d="M483 1038q207 0 328 -63l-31 -189q-35 1 -87.5 2t-89.5 2t-66 1q-96 0 -131 -59.5t-35 -225.5t35 -225.5t131 -59.5q141 0 260 19l26 -197q-136 -68 -342 -68q-236 0 -332 119.5t-96 411.5q0 293 97 412.5t333 119.5zM326 -225l28 119q153 19 213 -6t56 -128
q-6 -150 -108.5 -224t-254.5 -52l35 133q59 -2 99 28t44 91q1 26 -17.5 32.5t-94.5 6.5z" />
    <glyph glyph-name="egrave" unicode="&#xe8;" horiz-adv-x="958" 
d="M565 1106l-401 225l123 209l364 -303zM541 217q111 0 323 23l27 -189q-145 -76 -385 -76q-247 0 -350 123t-103 406q0 201 45.5 317t141.5 166.5t260 50.5q219 0 316 -87t97 -265q2 -143 -65 -213t-225 -70h-250q9 -112 45 -149t123 -37zM510 817q-79 2 -108.5 -44.5
t-32.5 -186.5h172q49 0 64.5 26.5t15.5 77.5q0 70 -24.5 98.5t-86.5 28.5z" />
    <glyph glyph-name="eacute" unicode="&#xe9;" horiz-adv-x="958" 
d="M432 1106l-84 131l365 303l123 -209zM541 217q111 0 323 23l27 -189q-145 -76 -385 -76q-247 0 -350 123t-103 406q0 201 45.5 317t141.5 166.5t260 50.5q219 0 316 -87t97 -265q2 -143 -65 -213t-225 -70h-250q9 -112 45 -149t123 -37zM510 817q-79 2 -108.5 -44.5
t-32.5 -186.5h172q49 0 64.5 26.5t15.5 77.5q0 70 -24.5 98.5t-86.5 28.5z" />
    <glyph glyph-name="ecircumflex" unicode="&#xea;" horiz-adv-x="958" 
d="M244 1100l-76 119l227 268h219l224 -275l-76 -112l-250 192h-12zM541 217q111 0 323 23l27 -189q-145 -76 -385 -76q-247 0 -350 123t-103 406q0 201 45.5 317t141.5 166.5t260 50.5q219 0 316 -87t97 -265q2 -143 -65 -213t-225 -70h-250q9 -112 45 -149t123 -37z
M510 817q-79 2 -108.5 -44.5t-32.5 -186.5h172q49 0 64.5 26.5t15.5 77.5q0 70 -24.5 98.5t-86.5 28.5z" />
    <glyph glyph-name="edieresis" unicode="&#xeb;" horiz-adv-x="958" 
d="M397 1188h-100q-59 0 -59 67v119q0 68 59 68h100q60 0 60 -68v-119q0 -67 -60 -67zM707 1188h-99q-61 0 -61 67v119q0 68 61 68h99q59 0 59 -68v-119q0 -67 -59 -67zM541 217q111 0 323 23l27 -189q-145 -76 -385 -76q-247 0 -350 123t-103 406q0 201 45.5 317
t141.5 166.5t260 50.5q219 0 316 -87t97 -265q2 -143 -65 -213t-225 -70h-250q9 -112 45 -149t123 -37zM510 817q-79 2 -108.5 -44.5t-32.5 -186.5h172q49 0 64.5 26.5t15.5 77.5q0 70 -24.5 98.5t-86.5 28.5z" />
    <glyph glyph-name="igrave" unicode="&#xec;" horiz-adv-x="487" 
d="M391 1237l-86 -131l-401 225l123 209zM395 0h-303v1010h303v-1010z" />
    <glyph glyph-name="iacute" unicode="&#xed;" horiz-adv-x="487" 
d="M575 1331l-403 -225l-84 131l365 303zM395 0h-303v1010h303v-1010z" />
    <glyph glyph-name="icircumflex" unicode="&#xee;" horiz-adv-x="487" 
d="M578 1212l-76 -112l-250 192h-12l-256 -192l-76 119l227 268h219zM395 0h-303v1010h303v-1010z" />
    <glyph glyph-name="idieresis" unicode="&#xef;" horiz-adv-x="487" 
d="M37 1442h100q60 0 60 -68v-119q0 -67 -60 -67h-100q-60 0 -60 67v119q0 68 60 68zM348 1442h98q60 0 60 -68v-119q0 -67 -60 -67h-98q-61 0 -61 67v119q0 68 61 68zM395 0h-303v1010h303v-1010z" />
    <glyph glyph-name="eth" unicode="&#xf0;" horiz-adv-x="1007" 
d="M899 1327l-131 -127q170 -220 170 -612q0 -321 -100 -468t-346 -147q-225 0 -332 113.5t-107 355.5q0 246 86 364t289 118q91 0 168 -21q-41 193 -147 265t-289 61l28 201q228 15 396 -74l147 143zM494 201q81 0 105 82t24 309q0 65 -2 96q-52 8 -127 8q-69 0 -96 -54.5
t-27 -192.5q0 -142 27 -195t96 -53z" />
    <glyph glyph-name="ntilde" unicode="&#xf1;" horiz-adv-x="1017" 
d="M344 1178h-127q-22 144 22 220.5t117 69.5q61 -5 149.5 -48t125.5 -50q36 -7 45.5 11.5t9.5 76.5h127q22 -139 -19 -217t-120 -72q-63 6 -154.5 52t-120.5 51q-37 7 -46 -13t-9 -81zM698 1038q117 0 178.5 -72t61.5 -208v-758h-303v664q0 68 -15.5 93t-54.5 25
q-34 0 -72.5 -20t-107.5 -68l2 -694h-303v1010h240l28 -150q169 178 346 178z" />
    <glyph glyph-name="ograve" unicode="&#xf2;" 
d="M651 1237l-86 -131l-401 225l123 209zM498 1038q244 0 345 -121t101 -413q0 -290 -101 -410.5t-345 -120.5t-344.5 120t-100.5 411q0 292 100.5 413t344.5 121zM500 811q-77 0 -103 -61.5t-26 -245.5q0 -181 26 -242t103 -61q52 0 78.5 26t37.5 89t11 188
q0 127 -11 190.5t-37.5 90t-78.5 26.5z" />
    <glyph glyph-name="oacute" unicode="&#xf3;" 
d="M836 1331l-404 -225l-84 131l365 303zM498 1038q244 0 345 -121t101 -413q0 -290 -101 -410.5t-345 -120.5t-344.5 120t-100.5 411q0 292 100.5 413t344.5 121zM500 811q-77 0 -103 -61.5t-26 -245.5q0 -181 26 -242t103 -61q52 0 78.5 26t37.5 89t11 188
q0 127 -11 190.5t-37.5 90t-78.5 26.5z" />
    <glyph glyph-name="ocircumflex" unicode="&#xf4;" 
d="M838 1212l-76 -112l-250 192h-12l-256 -192l-76 119l227 268h219zM498 1038q244 0 345 -121t101 -413q0 -290 -101 -410.5t-345 -120.5t-344.5 120t-100.5 411q0 292 100.5 413t344.5 121zM500 811q-77 0 -103 -61.5t-26 -245.5q0 -181 26 -242t103 -61q52 0 78.5 26
t37.5 89t11 188q0 127 -11 190.5t-37.5 90t-78.5 26.5z" />
    <glyph glyph-name="otilde" unicode="&#xf5;" 
d="M338 1468q61 -5 149 -48t125 -50q36 -7 46 12t10 76h127q22 -139 -19.5 -217t-120.5 -72q-63 6 -154 52t-120 51q-37 7 -46 -13t-9 -81h-127q-22 144 22 220.5t117 69.5zM498 1038q244 0 345 -121t101 -413q0 -290 -101 -410.5t-345 -120.5t-344.5 120t-100.5 411
q0 292 100.5 413t344.5 121zM500 811q-77 0 -103 -61.5t-26 -245.5q0 -181 26 -242t103 -61q52 0 78.5 26t37.5 89t11 188q0 127 -11 190.5t-37.5 90t-78.5 26.5z" />
    <glyph glyph-name="odieresis" unicode="&#xf6;" 
d="M297 1442h100q60 0 60 -68v-119q0 -67 -60 -67h-100q-59 0 -59 67v119q0 68 59 68zM608 1442h99q59 0 59 -68v-119q0 -67 -59 -67h-99q-61 0 -61 67v119q0 68 61 68zM498 1038q244 0 345 -121t101 -413q0 -290 -101 -410.5t-345 -120.5t-344.5 120t-100.5 411
q0 292 100.5 413t344.5 121zM500 811q-77 0 -103 -61.5t-26 -245.5q0 -181 26 -242t103 -61q52 0 78.5 26t37.5 89t11 188q0 127 -11 190.5t-37.5 90t-78.5 26.5z" />
    <glyph glyph-name="divide" unicode="&#xf7;" horiz-adv-x="903" 
d="M414 1126h71q63 0 87 -23.5t24 -86.5v-70q0 -61 -24 -84.5t-87 -23.5h-71q-63 0 -87 23.5t-24 84.5v70q0 63 24 86.5t87 23.5zM844 494h-785v215h785v-215zM414 360h71q63 0 87 -23.5t24 -86.5v-68q0 -63 -24 -86.5t-87 -23.5h-71q-63 0 -87 23.5t-24 86.5v68
q0 63 24 86.5t87 23.5z" />
    <glyph glyph-name="oslash" unicode="&#xf8;" 
d="M885 1071l-64 -131q123 -117 123 -436q0 -290 -101 -410.5t-345 -120.5q-75 0 -148 13l-65 -138l-183 97l64 133q-113 119 -113 426q0 292 100.5 413t344.5 121q69 0 137 -10l67 141zM500 201q52 0 78.5 26t37.5 89t11 188q0 127 -11 190.5t-37.5 90t-78.5 26.5
q-77 0 -103 -61.5t-26 -245.5q0 -181 26 -242t103 -61z" />
    <glyph glyph-name="ugrave" unicode="&#xf9;" horiz-adv-x="1003" 
d="M567 1120l-401 226l123 208l364 -303zM920 1010v-1010h-240l-25 141q-84 -86 -165 -127t-171 -41q-239 0 -239 281v756h303v-664q-1 -65 16.5 -92t57.5 -27q34 0 68.5 18t90.5 60v705h304z" />
    <glyph glyph-name="uacute" unicode="&#xfa;" horiz-adv-x="1003" 
d="M434 1120l-84 131l365 303l123 -208zM920 1010v-1010h-240l-25 141q-84 -86 -165 -127t-171 -41q-239 0 -239 281v756h303v-664q-1 -65 16.5 -92t57.5 -27q34 0 68.5 18t90.5 60v705h304z" />
    <glyph glyph-name="ucircumflex" unicode="&#xfb;" horiz-adv-x="1003" 
d="M246 1114l-76 119l227 268h219l224 -274l-76 -113l-250 193h-12zM920 1010v-1010h-240l-25 141q-84 -86 -165 -127t-171 -41q-239 0 -239 281v756h303v-664q-1 -65 16.5 -92t57.5 -27q34 0 68.5 18t90.5 60v705h304z" />
    <glyph glyph-name="udieresis" unicode="&#xfc;" horiz-adv-x="1003" 
d="M399 1202h-100q-59 0 -59 68v119q0 67 59 67h100q60 0 60 -67v-119q0 -68 -60 -68zM709 1202h-99q-61 0 -61 68v119q0 67 61 67h99q59 0 59 -67v-119q0 -68 -59 -68zM920 1010v-1010h-240l-25 141q-84 -86 -165 -127t-171 -41q-239 0 -239 281v756h303v-664
q-1 -65 16.5 -92t57.5 -27q34 0 68.5 18t90.5 60v705h304z" />
    <glyph glyph-name="yacute" unicode="&#xfd;" horiz-adv-x="970" 
d="M420 1106l-84 131l364 303l123 -209zM967 1010l-277 -1024q-18 -64 -44 -121.5t-69.5 -114.5t-97.5 -96t-131 -58t-166 -8l-22 179q101 32 160 85.5t90 139.5l4 8h-60q-35 0 -61 20t-35 54l-256 936h322l122 -654q6 -28 25 -151h18q23 100 33 151l123 654h322z" />
    <glyph glyph-name="thorn" unicode="&#xfe;" horiz-adv-x="1007" 
d="M653 1034q161 0 231 -131t70 -407q0 -200 -35.5 -316t-101 -161.5t-172.5 -45.5q-155 0 -264 78q6 -94 6 -196v-244h-303v1823h303v-277q0 -83 -8 -235q97 112 274 112zM524 193q45 0 69.5 24t37 89t12.5 188q0 125 -12 192t-35.5 91t-65.5 24q-41 0 -72.5 -21t-70.5 -65
v-479q74 -43 137 -43z" />
    <glyph glyph-name="ydieresis" unicode="&#xff;" horiz-adv-x="970" 
d="M385 1188h-100q-60 0 -60 67v119q0 68 60 68h100q59 0 59 -68v-119q0 -67 -59 -67zM694 1188h-98q-61 0 -61 67v119q0 68 61 68h98q60 0 60 -68v-119q0 -67 -60 -67zM967 1010l-277 -1024q-18 -64 -44 -121.5t-69.5 -114.5t-97.5 -96t-131 -58t-166 -8l-22 179
q101 32 160 85.5t90 139.5l4 8h-60q-35 0 -61 20t-35 54l-256 936h322l122 -654q6 -28 25 -151h18q23 100 33 151l123 654h322z" />
    <glyph glyph-name="Amacron" unicode="&#x100;" horiz-adv-x="1110" 
d="M817 1589h-518v195h518v-195zM729 371h-346l-72 -371h-319l313 1331q9 38 38.5 60t68.5 22h286q39 0 69 -22t40 -60l311 -1331h-317zM682 612l-82 432q-19 102 -22 134h-46q-5 -53 -20 -134l-84 -432h254z" />
    <glyph glyph-name="amacron" unicode="&#x101;" horiz-adv-x="964" 
d="M752 1217h-519v194h519v-194zM541 1038q87 0 148.5 -18t106.5 -60t67 -114.5t22 -177.5v-668h-240l-27 135q-113 -160 -294 -160q-120 0 -199.5 77.5t-79.5 213.5v103q0 121 70 188.5t194 67.5h275v45q-1 76 -25.5 103.5t-89.5 27.5q-123 0 -352 -17l-29 205
q91 20 226 34.5t227 14.5zM422 203q78 0 162 69v170h-172q-70 -3 -70 -96v-39q0 -54 19.5 -79t60.5 -25z" />
    <glyph glyph-name="Abreve" unicode="&#x102;" horiz-adv-x="1110" 
d="M555 1516q-144 0 -224.5 89.5t-62.5 219.5l142 20q0 -66 35 -98.5t110 -32.5q143 0 143 131l142 -20q18 -130 -61.5 -219.5t-223.5 -89.5zM729 371h-346l-72 -371h-319l313 1331q9 38 38.5 60t68.5 22h286q39 0 69 -22t40 -60l311 -1331h-317zM682 612l-82 432
q-19 102 -22 134h-46q-5 -53 -20 -134l-84 -432h254z" />
    <glyph glyph-name="abreve" unicode="&#x103;" horiz-adv-x="964" 
d="M489 1143q-144 0 -224 89.5t-62 219.5l141 21q0 -132 145 -132q144 0 144 132l141 -21q18 -130 -61.5 -219.5t-223.5 -89.5zM541 1038q87 0 148.5 -18t106.5 -60t67 -114.5t22 -177.5v-668h-240l-27 135q-113 -160 -294 -160q-120 0 -199.5 77.5t-79.5 213.5v103
q0 121 70 188.5t194 67.5h275v45q-1 76 -25.5 103.5t-89.5 27.5q-123 0 -352 -17l-29 205q91 20 226 34.5t227 14.5zM422 203q78 0 162 69v170h-172q-70 -3 -70 -96v-39q0 -54 19.5 -79t60.5 -25z" />
    <glyph glyph-name="Aogonek" unicode="&#x104;" horiz-adv-x="1110" 
d="M1120 -283l21 -112q-129 -56 -204 -39.5t-102 74t-6 133.5q28 115 168 227h-196l-72 371h-346l-72 -371h-319l313 1331q9 38 38.5 60t68.5 22h286q39 0 69 -22t40 -60l311 -1331h-2q-54 -109 -86 -205q-22 -61 7 -81t83 3zM682 612l-82 432q-19 102 -22 134h-46
q-5 -53 -20 -134l-84 -432h254z" />
    <glyph glyph-name="aogonek" unicode="&#x105;" horiz-adv-x="964" 
d="M889 -283l20 -112q-129 -56 -203.5 -39.5t-101.5 74t-6 133.5q28 115 168 227h-121l-27 135q-113 -160 -294 -160q-120 0 -199.5 77.5t-79.5 213.5v103q0 121 70 188.5t194 67.5h275v45q-1 76 -25.5 103.5t-89.5 27.5q-123 0 -352 -17l-29 205q91 20 226 34.5t227 14.5
q87 0 148.5 -18t106.5 -60t67 -114.5t22 -177.5v-668q-54 -109 -86 -205q-22 -61 7 -81t83 3zM422 203q78 0 162 69v170h-172q-70 -3 -70 -96v-39q0 -54 19.5 -79t60.5 -25z" />
    <glyph glyph-name="Cacute" unicode="&#x106;" horiz-adv-x="993" 
d="M893 1704l-404 -225l-83 131l364 303zM567 1438q122 0 198.5 -10.5t164.5 -36.5l-25 -234q-141 10 -338 10q-70 0 -107 -42t-53 -139t-16 -279q0 -268 36.5 -364.5t139.5 -96.5q244 0 363 18l24 -231q-86 -31 -173 -44.5t-214 -13.5q-141 0 -235 38t-155 126t-87.5 225.5
t-26.5 342.5q0 273 50 431t158.5 229t295.5 71z" />
    <glyph glyph-name="cacute" unicode="&#x107;" horiz-adv-x="860" 
d="M805 1331l-404 -225l-84 131l365 303zM483 1038q207 0 328 -63l-31 -189q-35 1 -87.5 2t-89.5 2t-66 1q-96 0 -131 -59.5t-35 -225.5t35 -225.5t131 -59.5q141 0 260 19l26 -197q-136 -68 -342 -68q-236 0 -332 119.5t-96 411.5q0 293 97 412.5t333 119.5z" />
    <glyph glyph-name="Cdotaccent" unicode="&#x10a;" horiz-adv-x="993" 
d="M518 1817h90q86 0 86 -84v-107q0 -86 -86 -86h-90q-86 0 -86 86v107q0 84 86 84zM567 1438q122 0 198.5 -10.5t164.5 -36.5l-25 -234q-141 10 -338 10q-70 0 -107 -42t-53 -139t-16 -279q0 -268 36.5 -364.5t139.5 -96.5q244 0 363 18l24 -231q-86 -31 -173 -44.5
t-214 -13.5q-141 0 -235 38t-155 126t-87.5 225.5t-26.5 342.5q0 273 50 431t158.5 229t295.5 71z" />
    <glyph glyph-name="cdotaccent" unicode="&#x10b;" horiz-adv-x="860" 
d="M430 1444h90q86 0 86 -84v-107q0 -86 -86 -86h-90q-86 0 -86 86v107q0 84 86 84zM483 1038q207 0 328 -63l-31 -189q-35 1 -87.5 2t-89.5 2t-66 1q-96 0 -131 -59.5t-35 -225.5t35 -225.5t131 -59.5q141 0 260 19l26 -197q-136 -68 -342 -68q-236 0 -332 119.5t-96 411.5
q0 293 97 412.5t333 119.5z" />
    <glyph glyph-name="Ccaron" unicode="&#x10c;" horiz-adv-x="993" 
d="M885 1780l-262 -269h-121l-264 269l75 121l242 -164h14l242 164zM567 1438q122 0 198.5 -10.5t164.5 -36.5l-25 -234q-141 10 -338 10q-70 0 -107 -42t-53 -139t-16 -279q0 -268 36.5 -364.5t139.5 -96.5q244 0 363 18l24 -231q-86 -31 -173 -44.5t-214 -13.5
q-141 0 -235 38t-155 126t-87.5 225.5t-26.5 342.5q0 273 50 431t158.5 229t295.5 71z" />
    <glyph glyph-name="ccaron" unicode="&#x10d;" horiz-adv-x="860" 
d="M797 1407l-262 -268h-121l-264 268l75 121l242 -164h14l242 164zM483 1038q207 0 328 -63l-31 -189q-35 1 -87.5 2t-89.5 2t-66 1q-96 0 -131 -59.5t-35 -225.5t35 -225.5t131 -59.5q141 0 260 19l26 -197q-136 -68 -342 -68q-236 0 -332 119.5t-96 411.5q0 293 97 412.5
t333 119.5z" />
    <glyph glyph-name="Dcaron" unicode="&#x10e;" horiz-adv-x="1150" 
d="M512 1511l-264 269l76 121l241 -164h15l241 164l74 -121l-262 -269h-121zM571 1432q146 0 241 -34t157.5 -119t89 -222.5t26.5 -349.5t-26.5 -349.5t-89 -222.5t-157.5 -119t-241 -34q-224 0 -471 18v1413q264 19 471 19zM571 227q73 0 112 43.5t56 145.5t17 291t-17 291
t-56 146t-112 44l-159 -2v-957q49 -2 159 -2z" />
    <glyph glyph-name="dcaron" unicode="&#x10f;" horiz-adv-x="1136" 
d="M1235 1362l2 -96q-1 -84 -22.5 -147.5t-63.5 -125.5l-100 29q21 79 24 190q-76 0 -76 70l2 80q2 43 21 59.5t68 16.5h55q51 0 70.5 -16.5t19.5 -59.5zM625 1434h303v-1434h-242l-22 147q-104 -172 -312 -172q-155 0 -225 136t-70 403q0 149 20 251.5t61 162t97.5 85
t137.5 25.5q160 0 258 -77q-6 95 -6 198v275zM479 225q45 0 77 16.5t69 55.5v483q-4 1 -15.5 5.5t-16.5 6.5t-15.5 5.5t-16.5 5t-16.5 4t-19 3.5t-19 2t-21.5 1q-45 0 -68 -21t-35.5 -85.5t-12.5 -190.5q0 -120 12 -183.5t34.5 -85.5t63.5 -22z" />
    <glyph glyph-name="Dcroat" unicode="&#x110;" horiz-adv-x="1150" 
d="M573 1432q146 0 241 -34t157.5 -119t89 -222.5t26.5 -349.5t-26.5 -349.5t-89 -222.5t-157.5 -119t-241 -34q-224 0 -471 18v662h-84v157h84v594q264 19 471 19zM573 227q73 0 112 43.5t56 145.5t17 291t-17 291t-56 146t-112 44l-159 -2v-367h184v-157h-184v-433
q49 -2 159 -2z" />
    <glyph glyph-name="dcroat" unicode="&#x111;" horiz-adv-x="1005" 
d="M1022 1145h-94v-1145h-242l-22 147q-104 -172 -312 -172q-155 0 -225 136t-70 403q0 149 20 251.5t61 162t97.5 85t137.5 25.5q160 0 258 -77q-6 89 -6 184h-197v143h197v146h303v-146h94v-143zM479 225q45 0 77 16.5t69 55.5v483q-4 1 -15.5 5.5t-16.5 6.5t-15.5 5.5
t-16.5 5t-16.5 4t-19 3.5t-19 2t-21.5 1q-45 0 -68 -21t-35.5 -85.5t-12.5 -190.5q0 -120 12 -183.5t34.5 -85.5t63.5 -22z" />
    <glyph glyph-name="Emacron" unicode="&#x112;" horiz-adv-x="976" 
d="M795 1614h-519v194h519v-194zM907 244l15 -230q-162 -20 -568 -20q-117 0 -189 77.5t-73 207.5v856q1 130 73 207t189 77q406 0 568 -20l-15 -232h-430q-71 0 -71 -104v-215h440v-225h-440v-273q0 -56 17.5 -81t53.5 -25h430z" />
    <glyph glyph-name="emacron" unicode="&#x113;" horiz-adv-x="958" 
d="M766 1217h-518v194h518v-194zM541 217q111 0 323 23l27 -189q-145 -76 -385 -76q-247 0 -350 123t-103 406q0 201 45.5 317t141.5 166.5t260 50.5q219 0 316 -87t97 -265q2 -143 -65 -213t-225 -70h-250q9 -112 45 -149t123 -37zM510 817q-79 2 -108.5 -44.5
t-32.5 -186.5h172q49 0 64.5 26.5t15.5 77.5q0 70 -24.5 98.5t-86.5 28.5z" />
    <glyph glyph-name="Edotaccent" unicode="&#x116;" horiz-adv-x="976" 
d="M580 1565h-91q-86 0 -86 86v106q0 84 86 84h91q86 0 86 -84v-106q0 -86 -86 -86zM907 244l15 -230q-162 -20 -568 -20q-117 0 -189 77.5t-73 207.5v856q1 130 73 207t189 77q406 0 568 -20l-15 -232h-430q-71 0 -71 -104v-215h440v-225h-440v-273q0 -56 17.5 -81
t53.5 -25h430z" />
    <glyph glyph-name="edotaccent" unicode="&#x117;" horiz-adv-x="958" 
d="M551 1167h-90q-86 0 -86 86v107q0 84 86 84h90q86 0 86 -84v-107q0 -86 -86 -86zM541 217q111 0 323 23l27 -189q-145 -76 -385 -76q-247 0 -350 123t-103 406q0 201 45.5 317t141.5 166.5t260 50.5q219 0 316 -87t97 -265q2 -143 -65 -213t-225 -70h-250q9 -112 45 -149
t123 -37zM510 817q-79 2 -108.5 -44.5t-32.5 -186.5h172q49 0 64.5 26.5t15.5 77.5q0 70 -24.5 98.5t-86.5 28.5z" />
    <glyph glyph-name="Eogonek" unicode="&#x118;" horiz-adv-x="976" 
d="M924 -268l20 -113q-129 -56 -203.5 -39.5t-101.5 74t-6 133.5q23 105 151 215q-135 -8 -430 -8q-117 0 -189 77.5t-73 207.5v856q1 130 73 207t189 77q406 0 568 -20l-15 -232h-430q-71 0 -71 -104v-215h440v-225h-440v-273q0 -56 17.5 -81t53.5 -25h430l15 -230h-2
q-55 -111 -86 -204q-22 -61 7 -81t83 3z" />
    <glyph glyph-name="eogonek" unicode="&#x119;" horiz-adv-x="958" 
d="M803 -154q-15 -41 -6 -64t34.5 -24t61.5 11l20 -113q-129 -56 -203.5 -39.5t-101.5 74t-6 133.5q19 78 100 168q-89 -17 -196 -17q-247 0 -350 123t-103 406q0 201 45.5 317t141.5 166.5t260 50.5q219 0 316 -87t97 -265q2 -143 -65 -213t-225 -70h-250q9 -112 45 -149
t123 -37q111 0 323 23l27 -189l-2 -2q-52 -102 -86 -203zM510 817q-79 2 -108.5 -44.5t-32.5 -186.5h172q49 0 64.5 26.5t15.5 77.5q0 70 -24.5 98.5t-86.5 28.5z" />
    <glyph glyph-name="Ecaron" unicode="&#x11a;" horiz-adv-x="976" 
d="M473 1536l-264 268l76 121l241 -164h15l241 164l74 -121l-262 -268h-121zM907 244l15 -230q-162 -20 -568 -20q-117 0 -189 77.5t-73 207.5v856q1 130 73 207t189 77q406 0 568 -20l-15 -232h-430q-71 0 -71 -104v-215h440v-225h-440v-273q0 -56 17.5 -81t53.5 -25h430z
" />
    <glyph glyph-name="ecaron" unicode="&#x11b;" horiz-adv-x="958" 
d="M444 1139l-264 268l76 121l242 -164h14l242 164l73 -121l-262 -268h-121zM541 217q111 0 323 23l27 -189q-145 -76 -385 -76q-247 0 -350 123t-103 406q0 201 45.5 317t141.5 166.5t260 50.5q219 0 316 -87t97 -265q2 -143 -65 -213t-225 -70h-250q9 -112 45 -149
t123 -37zM510 817q-79 2 -108.5 -44.5t-32.5 -186.5h172q49 0 64.5 26.5t15.5 77.5q0 70 -24.5 98.5t-86.5 28.5z" />
    <glyph glyph-name="Gbreve" unicode="&#x11e;" horiz-adv-x="1091" 
d="M575 1516q-144 0 -224 89.5t-62 219.5l141 20q0 -66 35 -98.5t110 -32.5q144 0 144 131l141 -20q18 -130 -61.5 -219.5t-223.5 -89.5zM1020 815v-815h-229l-27 139q-50 -67 -134 -116.5t-190 -49.5q-197 0 -285.5 175t-88.5 563q0 212 27 350t91.5 223.5t162 120.5
t247.5 35q228 0 383 -49l-25 -230q-198 10 -354 10q-50 0 -81.5 -10t-57.5 -37.5t-39 -81t-20 -135.5t-7 -207q0 -179 15.5 -277t50.5 -140.5t100 -42.5q87 0 162 61v514h299z" />
    <glyph glyph-name="gbreve" unicode="&#x11f;" horiz-adv-x="987" 
d="M489 1143q-144 0 -224 89.5t-62 219.5l141 21q0 -132 145 -132q144 0 144 132l141 -21q18 -130 -61.5 -219.5t-223.5 -89.5zM958 877l-100 -15q21 -62 21 -147q0 -175 -91.5 -249.5t-316.5 -74.5q-81 0 -133 8q-8 -23 -9 -47.5t13.5 -45t42.5 -25.5l301 -43
q135 -18 193.5 -90t58.5 -211q0 -99 -24.5 -162t-82 -100t-140 -51.5t-210.5 -14.5q-187 0 -285 29.5t-134.5 91.5t-36.5 180q0 78 30.5 127.5t108.5 89.5q-42 41 -51.5 104.5t13.5 121.5t67 87q-69 36 -100.5 103t-31.5 170q0 178 93 251.5t319 73.5q146 0 229 -28h273z
M471 584q73 0 100 28.5t27 102.5q0 75 -26.5 102t-100.5 27q-75 0 -102 -27t-27 -102q0 -74 27.5 -102.5t101.5 -28.5zM653 -55q0 52 -25.5 67t-105.5 27l-162 22q-28 -27 -39.5 -51.5t-11.5 -60.5q0 -73 32 -94t136 -21q107 0 141.5 21.5t34.5 89.5z" />
    <glyph glyph-name="Gdotaccent" unicode="&#x120;" horiz-adv-x="1091" 
d="M623 1540h-91q-86 0 -86 86v107q0 84 86 84h91q86 0 86 -84v-107q0 -86 -86 -86zM1020 815v-815h-229l-27 139q-50 -67 -134 -116.5t-190 -49.5q-197 0 -285.5 175t-88.5 563q0 212 27 350t91.5 223.5t162 120.5t247.5 35q228 0 383 -49l-25 -230q-198 10 -354 10
q-50 0 -81.5 -10t-57.5 -37.5t-39 -81t-20 -135.5t-7 -207q0 -179 15.5 -277t50.5 -140.5t100 -42.5q87 0 162 61v514h299z" />
    <glyph glyph-name="gdotaccent" unicode="&#x121;" horiz-adv-x="987" 
d="M537 1167h-91q-86 0 -86 86v107q0 84 86 84h91q86 0 86 -84v-107q0 -86 -86 -86zM958 877l-100 -15q21 -62 21 -147q0 -175 -91.5 -249.5t-316.5 -74.5q-81 0 -133 8q-8 -23 -9 -47.5t13.5 -45t42.5 -25.5l301 -43q135 -18 193.5 -90t58.5 -211q0 -99 -24.5 -162
t-82 -100t-140 -51.5t-210.5 -14.5q-187 0 -285 29.5t-134.5 91.5t-36.5 180q0 78 30.5 127.5t108.5 89.5q-42 41 -51.5 104.5t13.5 121.5t67 87q-69 36 -100.5 103t-31.5 170q0 178 93 251.5t319 73.5q146 0 229 -28h273zM471 584q73 0 100 28.5t27 102.5q0 75 -26.5 102
t-100.5 27q-75 0 -102 -27t-27 -102q0 -74 27.5 -102.5t101.5 -28.5zM653 -55q0 52 -25.5 67t-105.5 27l-162 22q-28 -27 -39.5 -51.5t-11.5 -60.5q0 -73 32 -94t136 -21q107 0 141.5 21.5t34.5 89.5z" />
    <glyph glyph-name="Gcommaaccent" unicode="&#x122;" horiz-adv-x="1091" 
d="M1020 815v-815h-229l-27 139q-50 -67 -134 -116.5t-190 -49.5q-197 0 -285.5 175t-88.5 563q0 212 27 350t91.5 223.5t162 120.5t247.5 35q228 0 383 -49l-25 -230q-198 10 -354 10q-50 0 -81.5 -10t-57.5 -37.5t-39 -81t-20 -135.5t-7 -207q0 -179 15.5 -277
t50.5 -140.5t100 -42.5q87 0 162 61v514h299zM541 -106h57q54 0 75 -18.5t21 -65.5l2 -107q-1 -92 -24 -161.5t-68 -139.5l-106 31q23 89 26 211q-80 0 -80 75l5 91q2 47 21.5 65.5t70.5 18.5z" />
    <glyph glyph-name="gcommaaccent" unicode="&#x123;" horiz-adv-x="987" 
d="M526 1128h-57q-54 0 -75 18.5t-21 65.5l-2 107q1 92 24 161.5t68 139.5l106 -31q-23 -89 -26 -211q80 0 80 -75l-5 -91q-2 -47 -21.5 -65.5t-70.5 -18.5zM958 877l-100 -15q21 -62 21 -147q0 -175 -91.5 -249.5t-316.5 -74.5q-81 0 -133 8q-8 -23 -9 -47.5t13.5 -45
t42.5 -25.5l301 -43q135 -18 193.5 -90t58.5 -211q0 -99 -24.5 -162t-82 -100t-140 -51.5t-210.5 -14.5q-187 0 -285 29.5t-134.5 91.5t-36.5 180q0 78 30.5 127.5t108.5 89.5q-42 41 -51.5 104.5t13.5 121.5t67 87q-69 36 -100.5 103t-31.5 170q0 178 93 251.5t319 73.5
q146 0 229 -28h273zM471 584q73 0 100 28.5t27 102.5q0 75 -26.5 102t-100.5 27q-75 0 -102 -27t-27 -102q0 -74 27.5 -102.5t101.5 -28.5zM653 -55q0 52 -25.5 67t-105.5 27l-162 22q-28 -27 -39.5 -51.5t-11.5 -60.5q0 -73 32 -94t136 -21q107 0 141.5 21.5t34.5 89.5z
" />
    <glyph glyph-name="Hbar" unicode="&#x126;" horiz-adv-x="1171" 
d="M1159 1051h-90v-1051h-313v631h-342v-631h-312v1051h-90v147h90v215h312v-215h342v215h313v-215h90v-147zM756 1051h-342v-179h342v179z" />
    <glyph glyph-name="hbar" unicode="&#x127;" horiz-adv-x="1021" 
d="M702 1038q117 0 178.5 -72t61.5 -208v-758h-303v664q0 68 -15.5 93t-54.5 25q-35 0 -75 -19.5t-101 -64.5v-698h-303v1145h-98v143h98v146h303v-146h191v-143h-189v-62q0 -82 -16 -196q163 151 323 151z" />
    <glyph glyph-name="Imacron" unicode="&#x12a;" horiz-adv-x="512" 
d="M518 1589h-518v195h518v-195zM412 0h-312v1413h312v-1413z" />
    <glyph glyph-name="imacron" unicode="&#x12b;" horiz-adv-x="487" 
d="M506 1217h-518v194h518v-194zM395 0h-303v1010h303v-1010z" />
    <glyph glyph-name="Iogonek" unicode="&#x12e;" horiz-adv-x="512" 
d="M412 0h-41q-54 -109 -86 -205q-22 -61 7 -81t83 3l20 -112q-129 -56 -203.5 -39.5t-101.5 74t-6 133.5q28 115 168 227h-152v1413h312v-1413z" />
    <glyph glyph-name="iogonek" unicode="&#x12f;" horiz-adv-x="487" 
d="M291 1167h-90q-86 0 -86 86v107q0 84 86 84h90q86 0 86 -84v-107q0 -86 -86 -86zM395 0h-30q-54 -109 -86 -205q-22 -61 7 -81t83 3l20 -112q-129 -56 -203.5 -39.5t-101.5 74t-6 133.5q28 115 168 227h-154v1010h303v-1010z" />
    <glyph glyph-name="Idotaccent" unicode="&#x130;" horiz-adv-x="512" 
d="M213 1817h90q86 0 86 -84v-107q0 -86 -86 -86h-90q-86 0 -86 86v107q0 84 86 84zM412 0h-312v1413h312v-1413z" />
    <glyph glyph-name="dotlessi" unicode="&#x131;" horiz-adv-x="487" 
d="M395 0h-303v1010h303v-1010z" />
    <glyph glyph-name="IJ" unicode="&#x132;" horiz-adv-x="1157" 
d="M412 0h-312v1413h312v-1413zM1061 1413v-1116q0 -154 -75 -238t-208 -84q-58 0 -132 11t-109 30l32 209h80q103 0 103 109v1079h309z" />
    <glyph glyph-name="ij" unicode="&#x133;" horiz-adv-x="970" 
d="M659 1464h132q42 0 65 -23t23 -65v-110q0 -88 -88 -88h-132q-88 0 -88 88v110q0 88 88 88zM176 1456h129q90 0 90 -88v-111q0 -88 -90 -88h-129q-88 0 -88 88v111q0 88 88 88zM393 0h-301v1010h301v-1010zM879 1010v-963q0 -141 -64.5 -263t-177.5 -187l-168 133
q60 75 84.5 148.5t24.5 168.5v963h301z" />
    <glyph glyph-name="Kcommaaccent" unicode="&#x136;" horiz-adv-x="1089" 
d="M1094 0h-349l-276 623h-72q15 -88 15 -136v-487h-312v1413h312v-399q0 -74 -17 -168h74l270 567h336l-278 -563q-6 -11 -11.5 -20.5t-13.5 -19.5t-12.5 -15.5t-14.5 -16.5t-12.5 -13.5l-14.5 -14.5l-13 -13v-8q74 -65 106 -125zM535 -106h57q54 0 75 -18.5t21 -65.5
l2 -107q-1 -92 -24 -161.5t-68 -139.5l-106 31q23 89 26 211q-80 0 -80 75l4 91q2 47 22 65.5t71 18.5z" />
    <glyph glyph-name="kcommaaccent" unicode="&#x137;" horiz-adv-x="972" 
d="M977 0h-334l-213 469h-57q14 -93 14 -152v-317h-303v1434h303v-592q0 -102 -14 -185h55l184 353h336l-192 -351q-33 -59 -86 -96v-4q18 -12 43.5 -44t42.5 -64zM469 -98h57q54 0 75.5 -18.5t21.5 -65.5l2 -107q-1 -92 -24.5 -161t-68.5 -140l-106 31q24 93 27 211
q-39 0 -59.5 20t-20.5 56l4 90q2 47 21.5 65.5t70.5 18.5z" />
    <glyph glyph-name="Lacute" unicode="&#x139;" horiz-adv-x="907" 
d="M592 1704l-404 -225l-84 131l365 303zM408 1413v-1055q0 -55 19.5 -79.5t59.5 -24.5h390l14 -238q-180 -22 -529 -22q-126 0 -196 83.5t-70 217.5v1118h312z" />
    <glyph glyph-name="lacute" unicode="&#x13a;" horiz-adv-x="571" 
d="M578 1735l-404 -226l-84 131l365 304zM387 1434v-1104q0 -103 88 -103h62l32 -211q-32 -18 -101.5 -29.5t-119.5 -11.5q-122 0 -192 73t-70 206v1180h301z" />
    <glyph glyph-name="Lcommaaccent" unicode="&#x13b;" horiz-adv-x="907" 
d="M408 1413v-1055q0 -55 19.5 -79.5t59.5 -24.5h390l14 -238q-180 -22 -529 -22q-126 0 -196 83.5t-70 217.5v1118h312zM459 -106h57q54 0 75 -18.5t21 -65.5l2 -107q-1 -92 -24 -161.5t-68 -139.5l-106 31q23 89 26 211q-80 0 -80 75l5 91q2 47 21.5 65.5t70.5 18.5z" />
    <glyph glyph-name="lcommaaccent" unicode="&#x13c;" horiz-adv-x="571" 
d="M387 1434v-1104q0 -103 88 -103h62l32 -211q-32 -18 -101.5 -29.5t-119.5 -11.5q-122 0 -192 73t-70 206v1180h301zM281 -106h57q54 0 75 -18.5t21 -65.5l2 -107q-1 -92 -24 -161.5t-68 -139.5l-106 31q23 89 26 211q-80 0 -80 75l4 91q2 47 22 65.5t71 18.5z" />
    <glyph glyph-name="Lcaron" unicode="&#x13d;" horiz-adv-x="907" 
d="M623 1417h57q54 0 75 -18.5t21 -65.5l2 -106q-1 -92 -24 -161.5t-68 -139.5l-106 30q23 89 26 211q-39 0 -59.5 20t-20.5 56l4 90q2 47 22 65.5t71 18.5zM408 1413v-1055q0 -55 19.5 -79.5t59.5 -24.5h390l14 -238q-180 -22 -529 -22q-126 0 -196 83.5t-70 217.5v1118
h312z" />
    <glyph glyph-name="lcaron" unicode="&#x13e;" horiz-adv-x="571" 
d="M551 1438h55q51 0 70.5 -16.5t19.5 -59.5l2 -96q-1 -84 -22.5 -147.5t-63.5 -125.5l-100 29q22 84 25 190q-76 0 -76 70l2 80q2 43 20.5 59.5t67.5 16.5zM387 1434v-1104q0 -103 88 -103h62l32 -211q-32 -18 -101.5 -29.5t-119.5 -11.5q-122 0 -192 73t-70 206v1180h301z
" />
    <glyph glyph-name="Ldot" unicode="&#x13f;" horiz-adv-x="907" 
d="M408 1413v-1055q0 -55 19.5 -79.5t59.5 -24.5h390l14 -238q-180 -22 -529 -22q-126 0 -196 83.5t-70 217.5v1118h312zM752 698h-90q-87 0 -87 84v107q0 86 87 86h90q86 0 86 -86v-107q0 -84 -86 -84z" />
    <glyph glyph-name="ldot" unicode="&#x140;" horiz-adv-x="727" 
d="M387 1434v-1104q0 -103 88 -103h62l32 -211q-32 -18 -101.5 -29.5t-119.5 -11.5q-122 0 -192 73t-70 206v1180h301zM643 662h-90q-86 0 -86 83v107q0 86 86 86h90q86 0 86 -86v-107q0 -83 -86 -83z" />
    <glyph glyph-name="Lslash" unicode="&#x141;" horiz-adv-x="909" 
d="M881 254l14 -238q-180 -22 -528 -22q-126 0 -196.5 83.5t-70.5 217.5v332l-84 -39v168l84 39v618h312v-477l176 80v-168l-176 -80v-410q0 -55 19.5 -79.5t60.5 -24.5h389z" />
    <glyph glyph-name="lslash" unicode="&#x142;" horiz-adv-x="624" 
d="M582 227l32 -211q-32 -18 -101.5 -29.5t-119.5 -11.5q-122 0 -192 73t-70 206v373l-119 -56v168l119 56v639h301v-502l148 67v-168l-148 -67v-434q0 -103 88 -103h62z" />
    <glyph glyph-name="Nacute" unicode="&#x143;" horiz-adv-x="1214" 
d="M952 1704l-403 -225l-84 131l364 303zM1116 1413v-1300q0 -113 -108 -113h-187q-48 0 -77 21.5t-46 70.5l-229 696q-19 57 -70 265h-14q8 -176 8 -267v-786h-293v1300q0 55 28 84t81 29h186q49 0 77.5 -21t45.5 -71l227 -678q16 -47 42 -146.5t32 -121.5h15
q-7 114 -7 278v760h289z" />
    <glyph glyph-name="nacute" unicode="&#x144;" horiz-adv-x="1017" 
d="M451 1106l-84 131l364 303l123 -209zM698 1038q117 0 178.5 -72t61.5 -208v-758h-303v664q0 68 -15.5 93t-54.5 25q-34 0 -72.5 -20t-107.5 -68l2 -694h-303v1010h240l28 -150q169 178 346 178z" />
    <glyph glyph-name="Ncommaaccent" unicode="&#x145;" horiz-adv-x="1214" 
d="M1116 1413v-1300q0 -113 -108 -113h-187q-48 0 -77 21.5t-46 70.5l-229 696q-19 57 -70 265h-14q8 -176 8 -267v-786h-293v1300q0 55 28 84t81 29h186q49 0 77.5 -21t45.5 -71l227 -678q16 -47 42 -146.5t32 -121.5h15q-7 114 -7 278v760h289zM584 -106h57q54 0 75 -18.5
t21 -65.5l2 -107q-1 -92 -24 -161.5t-68 -139.5l-106 31q23 89 26 211q-80 0 -80 75l5 91q2 47 21.5 65.5t70.5 18.5z" />
    <glyph glyph-name="ncommaaccent" unicode="&#x146;" horiz-adv-x="1017" 
d="M698 1038q117 0 178.5 -72t61.5 -208v-758h-303v664q0 68 -15.5 93t-54.5 25q-34 0 -72.5 -20t-107.5 -68l2 -694h-303v1010h240l28 -150q169 178 346 178zM463 -98h57q54 0 75 -18.5t21 -65.5l2 -107q-1 -92 -24 -161.5t-68 -139.5l-106 31q23 89 26 211q-79 0 -79 76
l4 90q2 47 21.5 65.5t70.5 18.5z" />
    <glyph glyph-name="Ncaron" unicode="&#x147;" horiz-adv-x="1214" 
d="M944 1780l-262 -269h-121l-264 269l76 121l241 -164h15l241 164zM1116 1413v-1300q0 -113 -108 -113h-187q-48 0 -77 21.5t-46 70.5l-229 696q-19 57 -70 265h-14q8 -176 8 -267v-786h-293v1300q0 55 28 84t81 29h186q49 0 77.5 -21t45.5 -71l227 -678q16 -47 42 -146.5
t32 -121.5h15q-7 114 -7 278v760h289z" />
    <glyph glyph-name="ncaron" unicode="&#x148;" horiz-adv-x="1017" 
d="M463 1139l-264 268l75 121l242 -164h14l242 164l74 -121l-262 -268h-121zM698 1038q117 0 178.5 -72t61.5 -208v-758h-303v664q0 68 -15.5 93t-54.5 25q-34 0 -72.5 -20t-107.5 -68l2 -694h-303v1010h240l28 -150q169 178 346 178z" />
    <glyph glyph-name="Eng" unicode="&#x14a;" horiz-adv-x="1216" 
d="M1116 1413v-1528q0 -148 -64.5 -231.5t-172.5 -83.5q-50 0 -114 10t-106 29l35 196h64q86 0 86 105v98h-60q-20 0 -38 19.5t-29 52.5l-258 735q-27 78 -68 225h-12q12 -111 12 -219v-821h-291v1300q0 113 109 113h172q50 0 79 -21.5t46 -70.5l242 -698q10 -26 77 -236h15
q-15 146 -15 231v795h291z" />
    <glyph glyph-name="eng" unicode="&#x14b;" horiz-adv-x="1017" 
d="M694 1038q120 0 181 -71t61 -209v-852q0 -151 -65 -233.5t-185 -82.5q-54 0 -122.5 10.5t-104.5 28.5l33 197h61q80 0 80 106v732q0 60 -15 84t-55 24q-33 0 -73 -20t-105 -64l2 -688h-303v1010h238l26 -154q173 182 346 182z" />
    <glyph glyph-name="Omacron" unicode="&#x14c;" horiz-adv-x="1157" 
d="M840 1589h-518v195h518v-195zM578 1440q117 0 200 -22t145.5 -72t99 -136.5t54 -208.5t17.5 -294t-17.5 -294.5t-54 -208.5t-99 -136t-145.5 -72.5t-200 -22.5q-146 0 -241 34.5t-158 120t-89.5 225t-26.5 354.5q0 172 17.5 294t54 208.5t99 136.5t145 72t199.5 22z
M580 1188q-74 0 -113.5 -43t-56.5 -145t-17 -293t17 -293t56.5 -145.5t113.5 -43.5t113.5 43.5t56 145t16.5 293.5t-16.5 293.5t-56 144.5t-113.5 43z" />
    <glyph glyph-name="omacron" unicode="&#x14d;" 
d="M766 1217h-518v194h518v-194zM498 1038q244 0 345 -121t101 -413q0 -290 -101 -410.5t-345 -120.5t-344.5 120t-100.5 411q0 292 100.5 413t344.5 121zM500 811q-77 0 -103 -61.5t-26 -245.5q0 -181 26 -242t103 -61q52 0 78.5 26t37.5 89t11 188q0 127 -11 190.5
t-37.5 90t-78.5 26.5z" />
    <glyph glyph-name="Ohungarumlaut" unicode="&#x150;" horiz-adv-x="1157" 
d="M655 1806l-268 -344l-121 99l199 378zM995 1806l-270 -344l-119 97l197 380zM578 1440q117 0 200 -22t145.5 -72t99 -136.5t54 -208.5t17.5 -294t-17.5 -294.5t-54 -208.5t-99 -136t-145.5 -72.5t-200 -22.5q-146 0 -241 34.5t-158 120t-89.5 225t-26.5 354.5
q0 172 17.5 294t54 208.5t99 136.5t145 72t199.5 22zM580 1188q-74 0 -113.5 -43t-56.5 -145t-17 -293t17 -293t56.5 -145.5t113.5 -43.5t113.5 43.5t56 145t16.5 293.5t-16.5 293.5t-56 144.5t-113.5 43z" />
    <glyph glyph-name="ohungarumlaut" unicode="&#x151;" 
d="M582 1434l-269 -344l-120 98l198 379zM922 1434l-271 -344l-119 96l197 381zM498 1038q244 0 345 -121t101 -413q0 -290 -101 -410.5t-345 -120.5t-344.5 120t-100.5 411q0 292 100.5 413t344.5 121zM500 811q-77 0 -103 -61.5t-26 -245.5q0 -181 26 -242t103 -61
q52 0 78.5 26t37.5 89t11 188q0 127 -11 190.5t-37.5 90t-78.5 26.5z" />
    <glyph glyph-name="OE" unicode="&#x152;" horiz-adv-x="1605" 
d="M1536 244l14 -230q-160 -20 -565 -20q-74 0 -133 43q-117 -64 -279 -64q-144 0 -237.5 34.5t-155.5 120t-88 225t-26 354.5t26 354t88 224.5t155.5 120t237.5 34.5q162 0 295 -56q53 35 123 35q401 0 559 -20l-14 -232h-406q-39 0 -57 -24.5t-18 -79.5v-217h422v-221
h-422v-275q0 -56 18 -81t57 -25h406zM395 707q0 -193 15.5 -294t53 -144.5t109.5 -43.5q106 0 170 25q-2 14 -2 45v823q0 33 2 47q-71 23 -170 23q-72 0 -109.5 -43t-53 -143.5t-15.5 -294.5z" />
    <glyph glyph-name="oe" unicode="&#x153;" horiz-adv-x="1507" 
d="M1096 215q117 0 315 25l29 -191q-145 -76 -379 -76q-182 0 -285 72q-100 -72 -284 -72q-239 0 -339 120.5t-100 410.5q0 292 100 413t339 121q183 0 282 -71q93 69 279 69q214 0 311.5 -86.5t97.5 -249.5q0 -164 -66.5 -227t-238.5 -63h-229q7 -116 42.5 -155.5
t125.5 -39.5zM1057 815q-76 2 -103 -44.5t-30 -184.5h159q54 0 71 24t15 95q-2 60 -27 85t-85 25zM492 201q71 0 99 49.5t32 189.5l-2 66q0 45 2 65q-4 141 -31.5 190.5t-95.5 49.5q-52 0 -78 -26.5t-36.5 -90t-10.5 -190.5q0 -125 10 -187.5t35.5 -89t75.5 -26.5z" />
    <glyph glyph-name="Racute" unicode="&#x154;" horiz-adv-x="1099" 
d="M475 1479l-84 131l365 303l123 -209zM1065 0h-326l-80 432q-13 67 -37.5 93t-72.5 26h-141v-551h-308v1413q172 19 465 19q124 0 207 -20t140.5 -67.5t83.5 -128.5t26 -202q0 -158 -51.5 -245t-175.5 -105v-11q58 -15 108 -65t70 -148zM408 793h151q88 0 119 41.5
t31 158.5q0 118 -31 158.5t-119 40.5h-151v-399z" />
    <glyph glyph-name="racute" unicode="&#x155;" horiz-adv-x="731" 
d="M332 1106l-84 131l364 303l123 -209zM322 1010l26 -148q167 176 328 176h47l-29 -280h-78q-72 0 -229 -68v-690h-303v1010h238z" />
    <glyph glyph-name="Rcommaaccent" unicode="&#x156;" horiz-adv-x="1099" 
d="M1065 0h-326l-80 432q-13 67 -37.5 93t-72.5 26h-141v-551h-308v1413q172 19 465 19q124 0 207 -20t140.5 -67.5t83.5 -128.5t26 -202q0 -158 -51.5 -245t-175.5 -105v-11q58 -15 108 -65t70 -148zM408 793h151q88 0 119 41.5t31 158.5q0 118 -31 158.5t-119 40.5h-151
v-399zM539 -106h57q54 0 75 -18.5t21 -65.5l2 -107q-1 -92 -24 -161.5t-68 -139.5l-106 31q23 89 26 211q-80 0 -80 75l4 91q2 47 22 65.5t71 18.5z" />
    <glyph glyph-name="rcommaaccent" unicode="&#x157;" horiz-adv-x="731" 
d="M723 1038l-29 -280h-78q-72 0 -229 -68v-690h-303v1010h238l26 -148q167 176 328 176h47zM188 -98h58q54 0 75 -18.5t21 -65.5l2 -107q-1 -92 -24 -161.5t-68 -139.5l-107 31q24 93 27 211q-39 0 -59.5 20t-20.5 56l4 90q2 47 21.5 65.5t70.5 18.5z" />
    <glyph glyph-name="Rcaron" unicode="&#x158;" horiz-adv-x="1099" 
d="M487 1511l-264 269l76 121l242 -164h14l242 164l73 -121l-262 -269h-121zM1065 0h-326l-80 432q-13 67 -37.5 93t-72.5 26h-141v-551h-308v1413q172 19 465 19q124 0 207 -20t140.5 -67.5t83.5 -128.5t26 -202q0 -158 -51.5 -245t-175.5 -105v-11q58 -15 108 -65t70 -148
zM408 793h151q88 0 119 41.5t31 158.5q0 118 -31 158.5t-119 40.5h-151v-399z" />
    <glyph glyph-name="rcaron" unicode="&#x159;" horiz-adv-x="731" 
d="M344 1139l-264 268l76 121l241 -164h15l241 164l74 -121l-262 -268h-121zM322 1010l26 -148q167 176 328 176h47l-29 -280h-78q-72 0 -229 -68v-690h-303v1010h238z" />
    <glyph glyph-name="Sacute" unicode="&#x15a;" horiz-adv-x="993" 
d="M838 1704l-404 -225l-84 131l365 303zM506 1440q233 0 399 -56l-18 -213q-172 7 -383 7q-43 0 -64.5 -3t-40 -16t-24.5 -39t-6 -71q0 -71 23 -101.5t87 -58.5l211 -92q137 -58 193.5 -157t56.5 -259q0 -123 -22 -200t-76 -124.5t-136.5 -65.5t-213.5 -18q-204 0 -420 54
l18 225q342 -10 399 -10q85 0 112.5 26t27.5 111q0 72 -19 101.5t-73 54.5l-230 100q-133 58 -190.5 156.5t-57.5 257.5q0 122 23.5 198t80.5 119t136 58.5t207 15.5z" />
    <glyph glyph-name="sacute" unicode="&#x15b;" horiz-adv-x="901" 
d="M791 1331l-404 -225l-84 131l365 303zM420 1038q246 -4 405 -39l-20 -194q-218 4 -322 4q-94 0 -116.5 -9.5t-22.5 -58.5q0 -39 15 -52.5t67 -31.5l18 -6l201 -69q113 -39 163 -103.5t50 -191.5q0 -94 -21 -154t-70.5 -94.5t-120 -48t-179.5 -13.5q-222 0 -404 35l21 197
q49 -4 289 -4q123 0 157.5 13.5t34.5 62.5q0 39 -17 53.5t-73 33.5q-13 5 -20 7l-195 67q-122 39 -165.5 110t-43.5 198q0 159 81.5 223.5t287.5 64.5z" />
    <glyph glyph-name="Scedilla" unicode="&#x15e;" horiz-adv-x="993" 
d="M506 1440q233 0 399 -56l-18 -213q-172 7 -383 7q-43 0 -64.5 -3t-40 -16t-24.5 -39t-6 -71q0 -71 23 -101.5t87 -58.5l211 -92q137 -58 193.5 -157t56.5 -259q0 -123 -22 -200t-76 -124.5t-136.5 -65.5t-213.5 -18q-204 0 -420 54l18 225q342 -10 399 -10q85 0 112.5 26
t27.5 111q0 72 -19 101.5t-73 54.5l-230 100q-133 58 -190.5 156.5t-57.5 257.5q0 122 23.5 198t80.5 119t136 58.5t207 15.5zM365 -240l28 119q154 19 213.5 -5.5t55.5 -127.5q-6 -150 -108.5 -224t-254.5 -52l35 133q60 -2 99.5 27.5t43.5 90.5q1 26 -17.5 32.5t-94.5 6.5
z" />
    <glyph glyph-name="scedilla" unicode="&#x15f;" horiz-adv-x="901" 
d="M420 1038q246 -4 405 -39l-20 -194q-218 4 -322 4q-94 0 -116.5 -9.5t-22.5 -58.5q0 -39 15 -52.5t67 -31.5l18 -6l201 -69q113 -39 163 -103.5t50 -191.5q0 -94 -21 -154t-70.5 -94.5t-120 -48t-179.5 -13.5q-222 0 -404 35l21 197q49 -4 289 -4q123 0 157.5 13.5
t34.5 62.5q0 39 -17 53.5t-73 33.5q-13 5 -20 7l-195 67q-122 39 -165.5 110t-43.5 198q0 159 81.5 223.5t287.5 64.5zM299 -223l29 119q153 19 212.5 -6t55.5 -128q-6 -150 -108.5 -224t-254.5 -52l35 133q60 -2 100 28t44 91q1 26 -18 32.5t-95 6.5z" />
    <glyph glyph-name="Scaron" unicode="&#x160;" horiz-adv-x="993" 
d="M829 1780l-262 -269h-121l-264 269l76 121l242 -164h14l242 164zM506 1440q233 0 399 -56l-18 -213q-172 7 -383 7q-43 0 -64.5 -3t-40 -16t-24.5 -39t-6 -71q0 -71 23 -101.5t87 -58.5l211 -92q137 -58 193.5 -157t56.5 -259q0 -123 -22 -200t-76 -124.5t-136.5 -65.5
t-213.5 -18q-204 0 -420 54l18 225q342 -10 399 -10q85 0 112.5 26t27.5 111q0 72 -19 101.5t-73 54.5l-230 100q-133 58 -190.5 156.5t-57.5 257.5q0 122 23.5 198t80.5 119t136 58.5t207 15.5z" />
    <glyph glyph-name="scaron" unicode="&#x161;" horiz-adv-x="901" 
d="M782 1407l-262 -268h-121l-264 268l76 121l242 -164h14l242 164zM420 1038q246 -4 405 -39l-20 -194q-218 4 -322 4q-94 0 -116.5 -9.5t-22.5 -58.5q0 -39 15 -52.5t67 -31.5l18 -6l201 -69q113 -39 163 -103.5t50 -191.5q0 -94 -21 -154t-70.5 -94.5t-120 -48
t-179.5 -13.5q-222 0 -404 35l21 197q49 -4 289 -4q123 0 157.5 13.5t34.5 62.5q0 39 -17 53.5t-73 33.5q-13 5 -20 7l-195 67q-122 39 -165.5 110t-43.5 198q0 159 81.5 223.5t287.5 64.5z" />
    <glyph glyph-name="Tcedilla" unicode="&#x162;" horiz-adv-x="1017" 
d="M997 1159h-331v-1159h-314v1159h-329v254h974v-254zM365 -213l28 119q154 19 213.5 -5.5t55.5 -127.5q-6 -150 -108.5 -224.5t-254.5 -52.5l35 133q59 -2 99 28t44 91q1 26 -17.5 32.5t-94.5 6.5z" />
    <glyph glyph-name="tcedilla" unicode="&#x163;" horiz-adv-x="708" 
d="M471 807v-477q0 -57 17.5 -80t60.5 -23h96l33 -211q-47 -19 -124 -30t-136 -11q-118 0 -185 77t-67 214v541h-143v192l143 9v284h305v-282h209v-203h-209zM258 -225l29 119q153 19 212.5 -6t55.5 -128q-6 -150 -108 -224t-254 -52l34 133q60 -2 100 28t44 91
q1 26 -18 32.5t-95 6.5z" />
    <glyph glyph-name="Tcaron" unicode="&#x164;" horiz-adv-x="1017" 
d="M449 1511l-265 269l76 121l242 -164h14l242 164l73 -121l-262 -269h-120zM997 1159h-331v-1159h-314v1159h-329v254h974v-254z" />
    <glyph glyph-name="tcaron" unicode="&#x165;" horiz-adv-x="708" 
d="M567 1374q-39 0 -59.5 20t-20.5 56l5 90q2 47 21.5 65.5t70.5 18.5h57q54 0 75 -18.5t21 -65.5l2 -106q-1 -92 -24 -161.5t-68 -139.5l-106 30q23 89 26 211zM471 1010h209v-203h-209v-477q0 -57 17.5 -80t60.5 -23h96l33 -211q-47 -19 -124 -30t-136 -11q-118 0 -185 77
t-67 214v541h-143v192l143 9v284h305v-282z" />
    <glyph glyph-name="Tbar" unicode="&#x166;" horiz-adv-x="1021" 
d="M668 1159v-315h200v-150h-200v-694h-314v694h-202v150h202v315h-329v254h974v-254h-331z" />
    <glyph glyph-name="tbar" unicode="&#x167;" horiz-adv-x="708" 
d="M471 807v-150h150v-147h-150v-180q0 -57 17.5 -80t60.5 -23h96l33 -211q-47 -19 -124 -30t-136 -11q-118 0 -185 77t-67 214v244h-96v147h96v150h-143v192l143 9v284h305v-282h209v-203h-209z" />
    <glyph glyph-name="Umacron" unicode="&#x16a;" horiz-adv-x="1153" 
d="M840 1589h-518v195h518v-195zM1063 1413v-850q0 -324 -105.5 -457t-363.5 -133q-276 0 -389 133t-113 457v850h311v-850q0 -195 38 -266.5t139 -71.5q99 0 135.5 72t36.5 266v850h311z" />
    <glyph glyph-name="umacron" unicode="&#x16b;" horiz-adv-x="1003" 
d="M768 1231h-518v194h518v-194zM920 1010v-1010h-240l-25 141q-84 -86 -165 -127t-171 -41q-239 0 -239 281v756h303v-664q-1 -65 16.5 -92t57.5 -27q34 0 68.5 18t90.5 60v705h304z" />
    <glyph glyph-name="Uring" unicode="&#x16e;" horiz-adv-x="1153" 
d="M578 1931q84 0 145 -69t61 -168t-60.5 -166.5t-145.5 -67.5q-87 0 -147 67.5t-60 166.5t61 168t146 69zM578 1800q-33 0 -55.5 -30t-22.5 -76t22.5 -75.5t55.5 -29.5t55 29.5t22 75.5q0 47 -22 76.5t-55 29.5zM1063 1413v-850q0 -324 -105.5 -457t-363.5 -133
q-276 0 -389 133t-113 457v850h311v-850q0 -195 38 -266.5t139 -71.5q99 0 135.5 72t36.5 266v850h311z" />
    <glyph glyph-name="uring" unicode="&#x16f;" horiz-adv-x="1003" 
d="M506 1102q-87 0 -147 67t-60 166t61 168.5t146 69.5q84 0 145.5 -69.5t61.5 -168.5t-60.5 -166t-146.5 -67zM506 1442q-33 0 -55.5 -30t-22.5 -77q0 -46 22.5 -75t55.5 -29t55.5 29t22.5 75q0 47 -22.5 77t-55.5 30zM920 1010v-1010h-240l-25 141q-84 -86 -165 -127
t-171 -41q-239 0 -239 281v756h303v-664q-1 -65 16.5 -92t57.5 -27q34 0 68.5 18t90.5 60v705h304z" />
    <glyph glyph-name="Uhungarumlaut" unicode="&#x170;" horiz-adv-x="1153" 
d="M655 1806l-268 -344l-121 99l199 378zM995 1806l-270 -344l-119 97l197 380zM1063 1413v-850q0 -324 -105.5 -457t-363.5 -133q-276 0 -389 133t-113 457v850h311v-850q0 -195 38 -266.5t139 -71.5q99 0 135.5 72t36.5 266v850h311z" />
    <glyph glyph-name="uhungarumlaut" unicode="&#x171;" horiz-adv-x="1003" 
d="M315 1104l-120 98l198 379l191 -133zM535 1200l196 381l193 -133l-271 -344zM616 1010h304v-1010h-240l-25 141q-84 -86 -165 -127t-171 -41q-239 0 -239 281v756h303v-664q-1 -65 16.5 -92t57.5 -27q34 0 68.5 18t90.5 60v705z" />
    <glyph glyph-name="Uogonek" unicode="&#x172;" horiz-adv-x="1153" 
d="M1063 1413v-850q0 -308 -94.5 -442t-321.5 -146q-50 -104 -82 -198q-22 -61 7 -81t83 3l21 -113q-129 -56 -203.5 -39.5t-101.5 74t-6 133.5q27 111 159 221q-235 15 -333.5 150t-98.5 438v850h311v-850q0 -195 38 -266.5t139 -71.5q99 0 135.5 72t36.5 266v850h311z" />
    <glyph glyph-name="uogonek" unicode="&#x173;" horiz-adv-x="1003" 
d="M924 -283l20 -112q-129 -56 -203.5 -39.5t-101.5 74t-6 133.5q28 115 168 227h-121l-25 141q-84 -86 -165 -127t-171 -41q-239 0 -239 281v756h303v-664q-1 -65 16.5 -92t57.5 -27q34 0 68.5 18t90.5 60v705h304v-1010q-54 -109 -86 -205q-22 -61 7 -81t83 3z" />
    <glyph glyph-name="Wcircumflex" unicode="&#x174;" horiz-adv-x="1644" 
d="M1157 1585l-76 -112l-250 192h-12l-256 -192l-76 118l228 269h219zM1606 1413l-160 -1327q-6 -38 -37 -62t-70 -24h-278q-42 0 -73.5 24.5t-35.5 63.5l-100 924q-12 116 -16 178h-29q-8 -124 -16 -180l-97 -922q-4 -39 -35.5 -63.5t-72.5 -24.5h-281q-40 0 -71 24t-37 62
l-160 1327h311l84 -981q8 -117 10 -205h29l27 205l96 885q4 43 34.5 69.5t73.5 26.5h240q42 0 71.5 -26.5t35.5 -69.5l98 -887q4 -49 24 -203h31q0 49 10 201l82 985h312z" />
    <glyph glyph-name="wcircumflex" unicode="&#x175;" horiz-adv-x="1435" 
d="M1055 1212l-76 -112l-250 192h-12l-256 -192l-76 119l227 268h219zM1415 1010l-184 -930q-7 -36 -35.5 -58t-65.5 -22h-221q-40 0 -70 25.5t-34 66.5l-66 572q-6 59 -14 170h-20q-6 -82 -15 -170l-63 -572q-4 -41 -34.5 -66.5t-72.5 -25.5h-217q-38 0 -65.5 21.5
t-34.5 58.5l-185 930h301l84 -656q15 -135 17 -166h20l19 166l63 566q4 41 33.5 65.5t69.5 24.5h182q42 0 71 -25t33 -67l62 -564q18 -163 18 -166h21q2 19 5 51.5t6 60.5t7 54l82 656h303z" />
    <glyph glyph-name="Ycircumflex" unicode="&#x176;" horiz-adv-x="1052" 
d="M266 1473l-76 118l228 269h219l223 -275l-76 -112l-249 192h-13zM682 465v-465h-311v469l-379 944h323l164 -518q21 -64 37 -178h21q23 133 38 178l164 518h322z" />
    <glyph glyph-name="ycircumflex" unicode="&#x177;" horiz-adv-x="970" 
d="M231 1100l-75 119l227 268h219l223 -275l-75 -112l-250 192h-13zM967 1010l-277 -1024q-18 -64 -44 -121.5t-69.5 -114.5t-97.5 -96t-131 -58t-166 -8l-22 179q101 32 160 85.5t90 139.5l4 8h-60q-35 0 -61 20t-35 54l-256 936h322l122 -654q6 -28 25 -151h18
q23 100 33 151l123 654h322z" />
    <glyph glyph-name="Ydieresis" unicode="&#x178;" horiz-adv-x="1052" 
d="M420 1561h-101q-59 0 -59 67v119q0 68 59 68h101q59 0 59 -68v-119q0 -67 -59 -67zM729 1561h-98q-62 0 -62 67v119q0 68 62 68h98q59 0 59 -68v-119q0 -67 -59 -67zM682 465v-465h-311v469l-379 944h323l164 -518q21 -64 37 -178h21q23 133 38 178l164 518h322z" />
    <glyph glyph-name="Zacute" unicode="&#x179;" horiz-adv-x="989" 
d="M432 1479l-84 131l365 303l123 -209zM934 240v-240h-879v240l516 934h-499v239h848v-239l-519 -934h533z" />
    <glyph glyph-name="zacute" unicode="&#x17a;" horiz-adv-x="884" 
d="M379 1106l-84 131l364 303l123 -209zM829 217v-217h-774v217l414 578h-403v215h755v-215l-415 -578h423z" />
    <glyph glyph-name="Zdotaccent" unicode="&#x17b;" horiz-adv-x="989" 
d="M551 1540h-90q-86 0 -86 86v107q0 84 86 84h90q86 0 86 -84v-107q0 -86 -86 -86zM934 240v-240h-879v240l516 934h-499v239h848v-239l-519 -934h533z" />
    <glyph glyph-name="zdotaccent" unicode="&#x17c;" horiz-adv-x="884" 
d="M498 1167h-90q-86 0 -86 86v107q0 84 86 84h90q86 0 86 -84v-107q0 -86 -86 -86zM829 217v-217h-774v217l414 578h-403v215h755v-215l-415 -578h423z" />
    <glyph glyph-name="Zcaron" unicode="&#x17d;" horiz-adv-x="989" 
d="M444 1511l-264 269l76 121l242 -164h14l242 164l73 -121l-262 -269h-121zM934 240v-240h-879v240l516 934h-499v239h848v-239l-519 -934h533z" />
    <glyph glyph-name="zcaron" unicode="&#x17e;" horiz-adv-x="884" 
d="M391 1139l-264 268l76 121l241 -164h15l241 164l74 -121l-262 -268h-121zM829 217v-217h-774v217l414 578h-403v215h755v-215l-415 -578h423z" />
    <glyph glyph-name="florin" unicode="&#x192;" horiz-adv-x="827" 
d="M766 1214h-107q-47 0 -67.5 -26.5t-24.5 -102.5l-18 -254h176l-16 -204h-174l-46 -647q-23 -314 -303 -314q-140 0 -235 21l43 202h104q45 0 65 29t25 100l43 609h-157l12 194l160 10l20 295q27 312 305 312q143 0 238 -21z" />
    <glyph glyph-name="Scommaaccent" unicode="&#x218;" horiz-adv-x="993" 
d="M506 1440q233 0 399 -56l-18 -213q-172 7 -383 7q-43 0 -64.5 -3t-40 -16t-24.5 -39t-6 -71q0 -71 23 -101.5t87 -58.5l211 -92q137 -58 193.5 -157t56.5 -259q0 -123 -22 -200t-76 -124.5t-136.5 -65.5t-213.5 -18q-204 0 -420 54l18 225q342 -10 399 -10q85 0 112.5 26
t27.5 111q0 72 -19 101.5t-73 54.5l-230 100q-133 58 -190.5 156.5t-57.5 257.5q0 122 23.5 198t80.5 119t136 58.5t207 15.5zM430 -106h57q54 0 75.5 -18.5t21.5 -65.5l2 -107q-1 -92 -24 -161.5t-68 -139.5l-107 31q24 93 27 211q-80 0 -80 75l4 91q2 47 21.5 65.5
t70.5 18.5z" />
    <glyph glyph-name="scommaaccent" unicode="&#x219;" horiz-adv-x="901" 
d="M420 1038q246 -4 405 -39l-20 -194q-218 4 -322 4q-94 0 -116.5 -9.5t-22.5 -58.5q0 -39 15 -52.5t67 -31.5l18 -6l201 -69q113 -39 163 -103.5t50 -191.5q0 -94 -21 -154t-70.5 -94.5t-120 -48t-179.5 -13.5q-222 0 -404 35l21 197q49 -4 289 -4q123 0 157.5 13.5
t34.5 62.5q0 39 -17 53.5t-73 33.5q-13 5 -20 7l-195 67q-122 39 -165.5 110t-43.5 198q0 159 81.5 223.5t287.5 64.5zM410 -98h57q54 0 75 -18.5t21 -65.5l2 -107q-1 -92 -24 -161.5t-68 -139.5l-106 31q23 89 26 211q-39 0 -59.5 20t-20.5 56l4 90q2 47 22 65.5t71 18.5z
" />
    <glyph glyph-name="uni021A" unicode="&#x21a;" horiz-adv-x="1017" 
d="M997 1159h-331v-1159h-314v1159h-329v254h974v-254zM467 -106h57q54 0 75.5 -18.5t21.5 -65.5l2 -107q-1 -92 -24.5 -161t-68.5 -140l-106 31q24 93 27 211q-80 0 -80 75l4 91q2 47 21.5 65.5t70.5 18.5z" />
    <glyph glyph-name="uni021B" unicode="&#x21b;" horiz-adv-x="708" 
d="M471 807v-477q0 -57 17.5 -80t60.5 -23h96l33 -211q-47 -19 -124 -30t-136 -11q-118 0 -185 77t-67 214v541h-143v192l143 9v284h305v-282h209v-203h-209zM365 -106h57q54 0 75 -18.5t21 -65.5l2 -107q-1 -92 -24 -161.5t-68 -139.5l-106 31q23 89 26 211q-80 0 -80 75
l4 91q2 47 22 65.5t71 18.5z" />
    <glyph glyph-name="circumflex" unicode="&#x2c6;" horiz-adv-x="772" 
d="M721 1206l-76 -112l-250 192h-12l-256 -192l-76 118l228 269h219z" />
    <glyph glyph-name="caron" unicode="&#x2c7;" horiz-adv-x="772" 
d="M711 1397l-262 -269h-121l-265 269l76 121l242 -164h14l242 164z" />
    <glyph glyph-name="breve" unicode="&#x2d8;" horiz-adv-x="669" 
d="M479 1448l142 -21q18 -130 -61.5 -219.5t-223.5 -89.5t-224.5 89.5t-62.5 219.5l141 21q0 -131 146 -131q143 0 143 131z" />
    <glyph glyph-name="dotaccent" unicode="&#x2d9;" horiz-adv-x="403" 
d="M158 1440h90q86 0 86 -84v-107q0 -86 -86 -86h-90q-86 0 -86 86v107q0 84 86 84z" />
    <glyph glyph-name="ring" unicode="&#x2da;" horiz-adv-x="522" 
d="M260 1554q84 0 145.5 -69t61.5 -168t-60.5 -166.5t-146.5 -67.5q-87 0 -147 67.5t-60 166.5t61 168t146 69zM260 1423q-33 0 -55.5 -30t-22.5 -76t22.5 -75.5t55.5 -29.5t55.5 29.5t22.5 75.5t-22.5 76t-55.5 30z" />
    <glyph glyph-name="ogonek" unicode="&#x2db;" horiz-adv-x="417" 
d="M233 4l115 -4q-54 -109 -86 -205q-22 -61 7 -81t83 3l21 -112q-129 -56 -204 -39.5t-102 74t-6 133.5q27 114 172 231z" />
    <glyph glyph-name="tilde" unicode="&#x2dc;" horiz-adv-x="749" 
d="M217 1458q61 -5 149.5 -48t125.5 -50q36 -7 45.5 11.5t9.5 76.5h127q22 -139 -19 -217t-120 -72q-63 6 -154.5 52t-120.5 51q-37 7 -46 -13.5t-9 -81.5h-127q-22 144 22 221t117 70z" />
    <glyph glyph-name="hungarumlaut" unicode="&#x2dd;" horiz-adv-x="874" 
d="M461 1397l-268 -344l-121 98l198 379zM801 1397l-271 -344l-118 96l196 381z" />
    <glyph glyph-name="Delta" unicode="&#x394;" horiz-adv-x="1138" 
d="M1108 109v-109h-1077v109l385 1304h307zM569 1114q-4 -21 -15 -85t-19 -99l-154 -697h377l-154 699q-8 34 -19.5 98.5t-15.5 83.5z" />
    <glyph glyph-name="Omega" unicode="&#x3a9;" horiz-adv-x="1196" 
d="M598 1440q276 0 395 -157.5t119 -491.5q0 -202 -51 -326t-178 -240q71 27 123 27h122v-252h-485l-2 238q83 95 114 207.5t31 306.5q0 169 -17 261.5t-58 134.5t-115 42q-109 0 -148.5 -94.5t-39.5 -347.5q0 -200 31 -304t114 -206v-238h-487v252h124q60 0 121 -27
q-125 120 -176 246t-51 326q0 330 119.5 486.5t394.5 156.5z" />
    <glyph glyph-name="mu" unicode="&#x3bc;" horiz-adv-x="1060" 
d="M950 1010v-1010h-235l-29 152q-87 -85 -162.5 -132t-161.5 -47h-6q13 -60 13 -108v-254h-260v1399h303v-664q-1 -55 18.5 -79.5t61.5 -24.5q63 0 155 61v707h303z" />
    <glyph glyph-name="pi" unicode="&#x3c0;" horiz-adv-x="1083" 
d="M1057 795h-117v-795h-303v795h-188v-795h-304v795h-116v217h1028v-217z" />
    <glyph glyph-name="uni0401" unicode="&#x401;" horiz-adv-x="978" 
d="M426 1587h-100q-60 0 -60 66v119q0 67 60 67h100q59 0 59 -67v-119q0 -66 -59 -66zM735 1587h-98q-62 0 -62 66v119q0 67 62 67h98q60 0 60 -67v-119q0 -66 -60 -66zM905 244l17 -230q-162 -20 -570 -20q-117 0 -188.5 77.5t-71.5 207.5v856q0 129 72 206.5t188 77.5
q408 0 570 -20l-17 -232h-428q-74 0 -74 -104v-215h445v-225h-445v-273q0 -106 74 -106h428z" />
    <glyph glyph-name="uni0402" unicode="&#x402;" horiz-adv-x="1280" 
d="M950 920q78 0 129.5 -18t90.5 -65.5t57 -133.5t18 -218q0 -143 -33 -245t-95 -158.5t-141 -80.5t-181 -21l-29 221q96 19 131 73t35 191q0 91 -10 133.5t-29.5 55t-63.5 12.5q-84 0 -170 -48v-618h-311v1159h-325v254h966v-254h-330v-323q68 41 149.5 62.5t141.5 21.5z
" />
    <glyph glyph-name="uni0403" unicode="&#x403;" horiz-adv-x="905" 
d="M831 1704l-403 -225l-84 131l365 303zM356 1419q388 0 535 -22l-14 -230h-385q-41 0 -60.5 -26t-19.5 -86v-1055h-312v1118q0 133 71.5 217t184.5 84z" />
    <glyph glyph-name="uni0404" unicode="&#x404;" 
d="M926 266l24 -233q-83 -31 -167 -44.5t-208 -13.5q-190 0 -300.5 71.5t-161 229.5t-50.5 431t50.5 431t161 229t300.5 71q123 0 201.5 -10.5t163.5 -36.5l-22 -234q-192 10 -345 10q-96 0 -136.5 -69t-49.5 -252h459v-217h-461q4 -220 45 -301.5t143 -81.5q223 0 353 20z
" />
    <glyph glyph-name="uni0405" unicode="&#x405;" horiz-adv-x="993" 
d="M506 1440q233 0 399 -56l-18 -213q-172 7 -383 7q-43 0 -64.5 -3t-40 -16t-24.5 -39t-6 -71q0 -71 23 -101.5t87 -58.5l211 -92q137 -58 193.5 -157t56.5 -259q0 -123 -22 -200t-76 -124.5t-136.5 -65.5t-213.5 -18q-204 0 -420 54l18 225q342 -10 399 -10q85 0 112.5 26
t27.5 111q0 72 -19 101.5t-73 54.5l-230 100q-133 58 -190.5 156.5t-57.5 257.5q0 122 23.5 198t80.5 119t136 58.5t207 15.5z" />
    <glyph glyph-name="uni0406" unicode="&#x406;" horiz-adv-x="522" 
d="M418 0h-312v1413h312v-1413z" />
    <glyph glyph-name="uni0407" unicode="&#x407;" horiz-adv-x="520" 
d="M55 1815h99q59 0 59 -68v-119q0 -67 -59 -67h-99q-61 0 -61 67v119q0 68 61 68zM365 1815h98q59 0 59 -68v-119q0 -67 -59 -67h-98q-62 0 -62 67v119q0 68 62 68zM418 0h-312v1413h312v-1413z" />
    <glyph glyph-name="uni0408" unicode="&#x408;" horiz-adv-x="651" 
d="M549 1413v-1116q0 -154 -75 -238t-208 -84q-58 0 -132 11t-109 30l32 209h80q103 0 103 109v1079h309z" />
    <glyph glyph-name="uni0409" unicode="&#x409;" horiz-adv-x="1630" 
d="M1038 889h111q126 0 208 -22t134.5 -76t74 -139t21.5 -216q0 -133 -21.5 -220t-70.5 -138.5t-118.5 -72.5t-174.5 -21q-299 0 -465 16h-6v1188h-98q-76 0 -82 -119q-18 -254 -25 -346.5t-23.5 -213.5t-39.5 -208q-49 -180 -151 -249t-269 -58l-23 213q58 17 96 55t62 123
q32 110 47 265.5t31 459.5q18 303 274 303h508v-524zM1038 225h111q76 0 100.5 42.5t24.5 176.5q0 131 -24.5 178.5t-100.5 47.5h-111v-445z" />
    <glyph glyph-name="uni040A" unicode="&#x40a;" horiz-adv-x="1619" 
d="M1032 874h121q239 0 331.5 -95.5t92.5 -346.5q0 -173 -40 -272t-117.5 -137.5t-209.5 -38.5q-315 0 -481 16h-6v647h-303v-647h-314v1413h314v-539h303v539h309v-539zM1032 225h121q68 0 89.5 41t21.5 170q0 127 -22 173t-89 46h-121v-430z" />
    <glyph glyph-name="uni040B" unicode="&#x40b;" horiz-adv-x="1329" 
d="M965 928q157 0 232 -83.5t75 -260.5v-584h-316v518q0 86 -21 116t-87 30q-82 0 -189 -52v-612h-311v1159h-325v254h966v-254h-330v-315q76 40 163 62t143 22z" />
    <glyph glyph-name="uni040C" unicode="&#x40c;" horiz-adv-x="1099" 
d="M498 1479l-84 131l364 303l123 -209zM690 741v-8q146 -23 203.5 -127.5t143.5 -438.5q28 -107 44 -167h-325l-90 364q-45 165 -92 215q-41 44 -111 44h-60q15 -88 15 -136v-487h-312v1413h312v-399q0 -74 -17 -168h58q101 0 145 95t107 375q5 20 7.5 32t6.5 30.5t8 34.5
h318q-17 -62 -38 -142t-33 -125t-28.5 -102.5t-28.5 -89t-30.5 -69.5t-36.5 -57.5t-43 -39.5t-55 -30.5t-68 -16.5z" />
    <glyph glyph-name="uni040D" unicode="&#x40d;" horiz-adv-x="1202" 
d="M760 1610l-86 -131l-402 225l123 209zM1098 0h-297v782q0 146 16 252h-10q-65 -237 -68 -248l-256 -786h-377v1413h297v-768q0 -133 -16 -258h10q28 112 72 246l252 780h377v-1413z" />
    <glyph glyph-name="uni040E" unicode="&#x40e;" horiz-adv-x="1011" 
d="M512 1516q-144 0 -224.5 89.5t-62.5 219.5l142 20q0 -66 35 -98.5t110 -32.5q143 0 143 131l142 -20q18 -130 -61.5 -219.5t-223.5 -89.5zM1018 1413l-264 -1048q-50 -188 -115.5 -280t-187.5 -105q-62 -6 -158 4.5t-162 25.5l35 221q92 -8 147.5 -4t83 32t43.5 97l13 45
h-70q-68 0 -106 35.5t-58 106.5l-219 870h319l154 -747q0 -10 8 -17.5t19 -7.5h28l168 772h322z" />
    <glyph glyph-name="uni040F" unicode="&#x40f;" horiz-adv-x="1177" 
d="M1073 1413v-1413h-358l-13 -309h-213l-14 309h-369v1413h312v-1188h342v1188h313z" />
    <glyph glyph-name="uni0410" unicode="&#x410;" horiz-adv-x="1110" 
d="M729 371h-346l-72 -371h-319l313 1331q9 38 38.5 60t68.5 22h286q39 0 69 -22t40 -60l311 -1331h-317zM682 612l-82 432q-19 102 -22 134h-46q-5 -53 -20 -134l-84 -432h254z" />
    <glyph glyph-name="uni0411" unicode="&#x411;" horiz-adv-x="1054" 
d="M418 840h141q255 0 353 -92.5t98 -337.5q0 -111 -17.5 -187t-48 -123.5t-85.5 -73.5t-118 -35t-157 -9q-278 0 -471 18h-9v1413q195 14 412 14q178 0 418 -14l-25 -239h-491v-334zM416 221h143q87 0 112 38t25 163q0 122 -26 163.5t-111 41.5h-143v-406z" />
    <glyph glyph-name="uni0412" unicode="&#x412;" horiz-adv-x="1083" 
d="M786 737v-8q129 -13 185.5 -107t56.5 -270q0 -109 -22.5 -180t-73.5 -113t-123 -58.5t-182 -16.5q-345 0 -523 16v1413q171 17 467 17q120 0 196.5 -16.5t128.5 -59t73.5 -113t21.5 -180.5q0 -155 -48 -233.5t-157 -90.5zM692 1018q0 107 -27.5 141.5t-109.5 34.5h-145
v-358h153q77 0 103 36.5t26 145.5zM410 219h159q89 0 118.5 38t29.5 155q0 129 -30.5 172t-121.5 45h-155v-410z" />
    <glyph glyph-name="uni0413" unicode="&#x413;" horiz-adv-x="905" 
d="M356 1419q388 0 535 -22l-14 -230h-385q-41 0 -60.5 -26t-19.5 -86v-1055h-312v1118q0 133 71.5 217t184.5 84z" />
    <glyph glyph-name="uni0414" unicode="&#x414;" horiz-adv-x="1267" 
d="M1239 225v-534h-225l-23 309h-721l-22 -309h-225v534h114q121 385 154 893q11 134 85 214.5t193 80.5h516v-1188h154zM774 225v963h-106q-40 0 -61 -28t-25 -93q-24 -301 -58.5 -491t-99.5 -351h350z" />
    <glyph glyph-name="uni0415" unicode="&#x415;" horiz-adv-x="978" 
d="M905 244l17 -230q-162 -20 -570 -20q-117 0 -188.5 77.5t-71.5 207.5v856q0 129 72 206.5t188 77.5q408 0 570 -20l-17 -232h-428q-74 0 -74 -104v-215h445v-225h-445v-273q0 -106 74 -106h428z" />
    <glyph glyph-name="uni0416" unicode="&#x416;" horiz-adv-x="1585" 
d="M1184 741v-8q52 -8 90 -25.5t68 -48.5t52.5 -73.5t43.5 -106t41.5 -140.5t46.5 -182q25 -101 39 -157h-326q-24 90 -61 235q-63 243 -95.5 315.5t-99.5 72.5h-55q14 -82 14 -136v-487h-297v487q0 56 17 136h-62q-63 0 -95 -71t-96 -317q-38 -145 -63 -235h-326
q14 56 39 157q71 282 105 369q49 124 124 169q46 27 113 38v8q-37 6 -66.5 16.5t-54 30.5t-42 40t-35 57.5t-29 69t-27.5 89t-27 103t-31 125t-36 141.5h318q14 -54 30.5 -122t26.5 -108.5t22.5 -90.5t21.5 -78t21 -60t22.5 -49t24 -32t29 -21t33.5 -6h60q-17 93 -17 168
v399h297v-399q0 -91 -14 -168h53q19 0 34.5 6t29 21t24.5 32t23 48.5t21 60.5t22 78t23 90.5t27 108.5t32 122h317q-17 -63 -37 -142t-31.5 -124.5t-27.5 -103t-27.5 -89t-29 -69t-35 -57.5t-42 -40t-54 -30.5t-66.5 -16.5z" />
    <glyph glyph-name="uni0417" unicode="&#x417;" horiz-adv-x="958" 
d="M455 1430q117 0 191 -16.5t123.5 -59t70 -113t20.5 -180.5q0 -155 -46 -233.5t-150 -90.5v-8q126 -13 179.5 -107t53.5 -270q0 -109 -22 -180t-71.5 -113t-120 -58.5t-177.5 -16.5q-152 0 -259.5 14t-207.5 47l24 215q229 -39 381 -39q79 0 106.5 38.5t27.5 152.5
q0 123 -28.5 166t-107.5 43l-239 4v215l235 4q67 0 91 36t24 138q0 104 -24.5 139t-94.5 35q-105 0 -350 -27l-25 226q157 39 396 39z" />
    <glyph glyph-name="uni0418" unicode="&#x418;" horiz-adv-x="1202" 
d="M1098 0h-297v782q0 146 16 252h-10q-65 -237 -68 -248l-256 -786h-377v1413h297v-768q0 -133 -16 -258h10q28 112 72 246l252 780h377v-1413z" />
    <glyph glyph-name="uni0419" unicode="&#x419;" horiz-adv-x="1202" 
d="M709 1833h188q18 -130 -62 -223.5t-223 -93.5t-223.5 94t-62.5 223h188q-11 -168 98 -168q111 0 97 168zM1098 0h-297v782q0 146 16 252h-10q-65 -237 -68 -248l-256 -786h-377v1413h297v-768q0 -133 -16 -258h10q28 112 72 246l252 780h377v-1413z" />
    <glyph glyph-name="uni041A" unicode="&#x41a;" horiz-adv-x="1099" 
d="M690 741v-8q146 -23 203.5 -127.5t143.5 -438.5q28 -107 44 -167h-325l-90 364q-45 165 -92 215q-41 44 -111 44h-60q15 -88 15 -136v-487h-312v1413h312v-399q0 -74 -17 -168h58q101 0 145 95t107 375q5 20 7.5 32t6.5 30.5t8 34.5h318q-17 -62 -38 -142t-33 -125
t-28.5 -102.5t-28.5 -89t-30.5 -69.5t-36.5 -57.5t-43 -39.5t-55 -30.5t-68 -16.5z" />
    <glyph glyph-name="uni041B" unicode="&#x41b;" horiz-adv-x="1157" 
d="M1051 1413v-1413h-314v1188h-104q-87 0 -96 -119q-15 -298 -33.5 -472.5t-54.5 -295.5q-99 -351 -429 -307l-22 242q66 15 105.5 47.5t58.5 101.5q30 109 47.5 266t32.5 455q7 152 79.5 229.5t206.5 77.5h523z" />
    <glyph glyph-name="uni041C" unicode="&#x41c;" horiz-adv-x="1560" 
d="M1040 1413h283q110 0 113 -117l43 -1296h-287l-37 1169h-27l-139 -874q-15 -100 -121 -100h-178q-102 0 -123 100l-141 874h-25l-30 -1169h-287l41 1296q3 117 111 117h282q100 0 121 -100l106 -705q18 -125 25 -198h18q2 17 9.5 87.5t13.5 110.5l107 705q18 100 122 100
z" />
    <glyph glyph-name="uni041D" unicode="&#x41d;" horiz-adv-x="1177" 
d="M1073 1413v-1413h-313v631h-342v-631h-312v1413h312v-541h342v541h313z" />
    <glyph glyph-name="uni041E" unicode="&#x41e;" horiz-adv-x="1157" 
d="M578 1440q117 0 200 -22t145.5 -72t99 -136.5t54 -208.5t17.5 -294t-17.5 -294.5t-54 -208.5t-99 -136t-145.5 -72.5t-200 -22.5q-146 0 -241 34.5t-158 120t-89.5 225t-26.5 354.5q0 172 17.5 294t54 208.5t99 136.5t145 72t199.5 22zM580 1188q-74 0 -113.5 -43
t-56.5 -145t-17 -293t17 -293t56.5 -145.5t113.5 -43.5t113.5 43.5t56 145t16.5 293.5t-16.5 293.5t-56 144.5t-113.5 43z" />
    <glyph glyph-name="uni041F" unicode="&#x41f;" horiz-adv-x="1173" 
d="M1067 1413v-1413h-313v1188h-336v-1188h-312v1413h961z" />
    <glyph glyph-name="uni0420" unicode="&#x420;" horiz-adv-x="1054" 
d="M567 1432q177 0 272 -41t137 -139t42 -281q0 -138 -21 -226.5t-71 -141.5t-124.5 -74t-191.5 -21q-100 0 -192 12v-520h-314v1413q172 19 463 19zM418 748h143q84 0 114 46t30 177t-29.5 176t-114.5 45h-143v-444z" />
    <glyph glyph-name="uni0421" unicode="&#x421;" horiz-adv-x="993" 
d="M567 1438q122 0 198.5 -10.5t164.5 -36.5l-25 -234q-141 10 -338 10q-70 0 -107 -42t-53 -139t-16 -279q0 -268 36.5 -364.5t139.5 -96.5q244 0 363 18l24 -231q-86 -31 -173 -44.5t-214 -13.5q-141 0 -235 38t-155 126t-87.5 225.5t-26.5 342.5q0 273 50 431t158.5 229
t295.5 71z" />
    <glyph glyph-name="uni0422" unicode="&#x422;" horiz-adv-x="1017" 
d="M997 1159h-331v-1159h-314v1159h-329v254h974v-254z" />
    <glyph glyph-name="uni0423" unicode="&#x423;" horiz-adv-x="1011" 
d="M1018 1413l-264 -1048q-50 -188 -115.5 -280t-187.5 -105q-62 -6 -158 4.5t-162 25.5l35 221q92 -8 147.5 -4t83 32t43.5 97l13 45h-70q-68 0 -106 35.5t-58 106.5l-219 870h319l154 -747q0 -10 8 -17.5t19 -7.5h28l168 772h322z" />
    <glyph glyph-name="uni0424" unicode="&#x424;" horiz-adv-x="1433" 
d="M1395 723q0 -206 -51 -328.5t-164 -184.5t-308 -77v-186h-311v186q-289 22 -405.5 153.5t-116.5 436.5q0 212 51 337.5t163.5 188.5t307.5 78v186h311v-186q195 -15 308 -78t164 -188.5t51 -337.5zM352 723q0 -186 44 -260t179 -92v716q-135 -17 -179 -93.5t-44 -270.5z
M858 1087v-714q133 17 178 91t45 259q0 194 -44.5 270.5t-178.5 93.5z" />
    <glyph glyph-name="uni0425" unicode="&#x425;" horiz-adv-x="1097" 
d="M782 0l-233 627l-232 -627h-315l291 725l-268 688h313l211 -584l211 584h313l-268 -688l291 -725h-314z" />
    <glyph glyph-name="uni0426" unicode="&#x426;" horiz-adv-x="1202" 
d="M1176 225v-534h-224l-22 309h-824v1413h312v-1188h313v1188h311v-1188h134z" />
    <glyph glyph-name="uni0427" unicode="&#x427;" horiz-adv-x="1126" 
d="M1020 1413v-1413h-311v580q-82 -50 -171.5 -75.5t-160.5 -25.5q-159 0 -234 83.5t-75 258.5v592h311v-524q-2 -81 23 -113.5t90 -32.5q101 0 217 62v608h311z" />
    <glyph glyph-name="uni0428" unicode="&#x428;" horiz-adv-x="1658" 
d="M1552 1413v-1413h-1446v1413h306v-1188h266v1188h303v-1188h266v1188h305z" />
    <glyph glyph-name="uni0429" unicode="&#x429;" horiz-adv-x="1703" 
d="M1675 14v-323h-223l-22 309h-1324v1413h306v-1188h262v1188h305v-1188h262v1188h305v-1188h127v-211h2z" />
    <glyph glyph-name="uni042A" unicode="&#x42a;" horiz-adv-x="1290" 
d="M684 889h123q127 0 208.5 -22t134 -76.5t74 -140t21.5 -218.5q0 -174 -41 -272t-122 -137t-220 -39q-319 0 -485 16h-6v1159h-351v254h664v-524zM684 225h123q77 0 101 42t24 175t-24 180.5t-101 47.5h-123v-445z" />
    <glyph glyph-name="uni042B" unicode="&#x42b;" horiz-adv-x="1544" 
d="M420 889h125q127 0 209 -22t135 -76.5t74.5 -140t21.5 -218.5q0 -131 -21.5 -217.5t-70.5 -137.5t-118.5 -72t-174.5 -21q-319 0 -485 16h-9v1413h314v-524zM1438 1413v-1413h-314v1413h314zM420 225h125q79 0 103 42t24 175t-24 180.5t-103 47.5h-125v-445z" />
    <glyph glyph-name="uni042C" unicode="&#x42c;" horiz-adv-x="1038" 
d="M418 889h133q127 0 209.5 -22t135.5 -76.5t75 -140t22 -218.5q0 -131 -22 -217.5t-71 -137.5t-119.5 -72t-176.5 -21q-321 0 -489 16h-9v1413h312v-524zM418 225h133q81 0 105 41.5t24 175.5q0 132 -25 180t-104 48h-133v-445z" />
    <glyph glyph-name="uni042D" unicode="&#x42d;" 
d="M422 1438q190 0 300.5 -71t161 -229t50.5 -431t-50.5 -431t-161 -229.5t-300.5 -71.5q-124 0 -208 13.5t-167 44.5l25 233q130 -20 352 -20q102 0 143 81.5t45 301.5h-460v217h458q-9 183 -49.5 252t-136.5 69q-154 0 -342 -10l-25 234q85 26 163.5 36.5t201.5 10.5z" />
    <glyph glyph-name="uni042E" unicode="&#x42e;" horiz-adv-x="1660" 
d="M1081 1440q117 0 199.5 -22t144 -72t97.5 -136.5t53.5 -208.5t17.5 -294t-17.5 -294.5t-53.5 -208.5t-97.5 -136t-144 -72.5t-199.5 -22.5q-103 0 -177 19.5t-130.5 64t-91.5 120.5t-53.5 183.5t-22.5 257.5h-186v-618h-314v1413h314v-569h186q8 172 37 286t88 183.5
t142.5 98t207.5 28.5zM1083 225q73 0 111.5 43.5t55 145t16.5 293.5t-16.5 293.5t-55 144.5t-111.5 43q-42 0 -71 -14.5t-49.5 -46.5t-32 -89.5t-16.5 -136t-5 -194.5q0 -192 15.5 -293.5t52 -145t106.5 -43.5z" />
    <glyph glyph-name="uni042F" unicode="&#x42f;" horiz-adv-x="1081" 
d="M524 1432q286 0 453 -19v-1413h-311v543h-125q-46 0 -69.5 -27t-33.5 -94l-78 -422h-327l90 432q10 52 30.5 92t47 63t50.5 35.5t50 18.5v12q-122 18 -171.5 107t-49.5 254q0 229 103 323.5t341 94.5zM666 782v410h-136q-82 0 -109.5 -40t-27.5 -159q0 -118 28.5 -164.5
t108.5 -46.5h136z" />
    <glyph glyph-name="uni0430" unicode="&#x430;" horiz-adv-x="968" 
d="M543 1038q87 0 148.5 -18t106.5 -60t67 -114.5t22 -177.5v-668h-240l-26 135q-113 -160 -295 -160q-120 0 -199.5 77.5t-79.5 213.5v103q0 121 70 188.5t194 67.5h275v45q-1 76 -25.5 103.5t-89.5 27.5q-122 0 -352 -17l-29 205q91 20 226 34.5t227 14.5zM424 203
q78 0 162 69v170h-172q-70 -3 -70 -96v-39q0 -54 19.5 -79t60.5 -25z" />
    <glyph glyph-name="uni0431" unicode="&#x431;" horiz-adv-x="1005" 
d="M858 1516l47 -234q-54 -36 -114.5 -55t-106 -22t-103.5 -11.5t-102 -26.5q-60 -22 -94 -75.5t-59 -128.5q-8 -21 -14 -45t-8.5 -37.5t-6 -38t-4.5 -29.5h4q57 79 123 121.5t168 42.5q200 0 281 -111t81 -368q0 -131 -22 -225.5t-71 -162.5t-132 -101.5t-201 -33.5
q-92 0 -162.5 18t-118 45.5t-80.5 78t-50.5 97t-27 122.5t-11.5 134t-2 151q0 131 6.5 227.5t26 189.5t53 158t88 116.5t131.5 80.5q54 21 122.5 33.5t121 17t118 22t119.5 50.5zM510 768q-79 0 -104 -58t-25 -212q0 -177 26 -237t101 -60q73 0 99 61t26 234
q0 163 -25 217.5t-98 54.5z" />
    <glyph glyph-name="uni0432" unicode="&#x432;" horiz-adv-x="968" 
d="M707 524v-8q115 -10 164 -75t49 -191q0 -152 -82 -209t-273 -57q-308 0 -477 12v1014q152 12 430 12q209 0 289 -56t80 -212q0 -110 -42 -165.5t-138 -64.5zM608 717q0 58 -22.5 78t-83.5 20l-129 2v-209h135q58 0 79 23t21 86zM373 195h139q63 0 86 23.5t23 94.5
q0 68 -24.5 93.5t-88.5 25.5h-135v-237z" />
    <glyph glyph-name="uni0433" unicode="&#x433;" horiz-adv-x="811" 
d="M311 1022q351 0 484 -27l-15 -211h-331q-35 0 -50.5 -21.5t-15.5 -70.5v-692h-299v778q0 123 56 183.5t171 60.5z" />
    <glyph glyph-name="uni0434" unicode="&#x434;" horiz-adv-x="1087" 
d="M1057 217v-506h-201l-20 289h-590l-23 -289h-198v506h96q64 211 106 547q12 124 70.5 185t169.5 61h455v-793h135zM637 217v588h-74q-65 0 -74 -96q-40 -303 -112 -492h260z" />
    <glyph glyph-name="uni0435" unicode="&#x435;" horiz-adv-x="960" 
d="M541 217q111 0 323 23l27 -189q-145 -76 -385 -76q-247 0 -350 123t-103 406q0 201 45.5 317t141.5 166.5t260 50.5q219 0 316 -87t97 -265q2 -143 -65 -213t-225 -70h-250q9 -112 45 -149t123 -37zM510 817q-79 2 -108.5 -44.5t-32.5 -186.5h172q49 0 64.5 26.5
t15.5 77.5q0 70 -24.5 98.5t-86.5 28.5z" />
    <glyph glyph-name="uni0436" unicode="&#x436;" horiz-adv-x="1396" 
d="M1057 532v-8q132 -22 175 -91t120 -347q16 -56 24 -86h-305q-14 48 -37 129q-56 195 -79 243.5t-70 49.5h-62q11 -57 11 -88v-334h-267v334q0 38 13 88h-66q-45 -1 -69 -51.5t-82 -250.5q-7 -24 -11 -38t-11 -37.5t-13 -44.5h-305q76 279 95 333q39 107 91 145
q43 31 135 46v8q-30 4 -52.5 10.5t-41.5 13t-34.5 21.5t-27 27t-23.5 38t-20.5 45.5t-20.5 60.5t-20.5 71t-25 88t-29.5 103h297q11 -38 29 -103q50 -180 74 -230t75 -50h58q-13 67 -13 121v262h265v-262q0 -54 -13 -121h49q53 0 77.5 49t74.5 225q19 69 31 109h297
q-14 -49 -32 -113t-27 -95.5t-22.5 -74.5t-22 -62t-23.5 -44.5t-28.5 -36t-35 -23.5t-45.5 -18.5t-57 -10.5z" />
    <glyph glyph-name="uni0437" unicode="&#x437;" horiz-adv-x="876" 
d="M371 1034q96 0 160.5 -6t118 -23t83.5 -48t46 -79t16 -118q0 -116 -42.5 -171.5t-138.5 -64.5v-8q113 -10 163 -74t50 -190q0 -88 -24 -143.5t-78 -84.5t-121 -39t-174 -10q-226 0 -391 41l20 209q212 -20 351 -20q66 0 87 19.5t21 86.5q0 62 -21.5 82t-88.5 21l-261 4
v190l259 4q56 0 74 20t18 81q0 56 -21 72t-88 16q-150 0 -311 -21l-19 209q133 45 312 45z" />
    <glyph glyph-name="uni0438" unicode="&#x438;" horiz-adv-x="1032" 
d="M944 0l-272 -2v498q0 97 12 219h-6q-9 -34 -34.5 -114.5t-29.5 -92.5l-165 -508h-359v1010h268v-508q0 -124 -12 -207h6q7 26 62 194l172 521h358v-1010z" />
    <glyph glyph-name="uni0439" unicode="&#x439;" horiz-adv-x="1032" 
d="M625 1460h188q18 -130 -62 -223.5t-223 -93.5t-223.5 94t-62.5 223h188q-11 -168 98 -168q111 0 97 168zM944 0l-272 -2v498q0 97 12 219h-6q-9 -34 -34.5 -114.5t-29.5 -92.5l-165 -508h-359v1010h268v-508q0 -124 -12 -207h6q7 26 62 194l172 521h358v-1010z" />
    <glyph glyph-name="uni043A" unicode="&#x43a;" horiz-adv-x="964" 
d="M629 530v-8q48 -8 78.5 -17.5t57 -29t43.5 -47.5t34.5 -74.5t34.5 -107.5t40 -150q16 -62 25 -96h-313q-9 35 -24 97q-53 217 -78.5 268.5t-90.5 52.5h-55q10 -52 10 -86v-332h-301v1010h301v-258q0 -61 -12 -123h37q77 0 104.5 51t70.5 247q12 53 19 83h308
q-15 -51 -32 -115t-26 -96.5t-22 -74.5t-21.5 -61.5t-22.5 -44.5t-27.5 -35t-34.5 -23t-45 -19t-58 -11z" />
    <glyph glyph-name="uni043B" unicode="&#x43b;" horiz-adv-x="1011" 
d="M922 1010v-1010h-301v799h-74q-36 0 -54 -23t-22 -78q-27 -320 -51 -458q-11 -77 -46.5 -132t-86 -81.5t-114 -37.5t-130.5 1l-31 225q67 14 97.5 34t40.5 75q21 97 45 430q18 256 227 256h500z" />
    <glyph glyph-name="uni043C" unicode="&#x43c;" horiz-adv-x="1337" 
d="M874 1010h263q99 0 102 -105l23 -905h-275l-20 788h-21l-98 -565q-7 -46 -36.5 -70t-76.5 -24h-135q-48 0 -78 24.5t-37 69.5l-96 565h-22l-15 -788h-274l20 905q3 105 105 105h256q97 0 112 -95l74 -446q4 -29 14 -150h15q17 142 18 150l70 446q15 95 112 95z" />
    <glyph glyph-name="uni043D" unicode="&#x43d;" horiz-adv-x="1026" 
d="M936 1010v-1010h-297v428h-252v-428h-297v1010h297v-371h252v371h297z" />
    <glyph glyph-name="uni043E" unicode="&#x43e;" horiz-adv-x="999" 
d="M500 1038q244 0 345 -121t101 -413q0 -290 -101 -410.5t-345 -120.5t-344.5 120t-100.5 411q0 292 100.5 413t344.5 121zM502 811q-77 0 -103 -61.5t-26 -245.5q0 -181 26 -242t103 -61q52 0 78.5 26t37.5 89t11 188q0 127 -11 190.5t-37.5 90t-78.5 26.5z" />
    <glyph glyph-name="uni043F" unicode="&#x43f;" horiz-adv-x="1011" 
d="M924 1012v-1012h-293v795h-246v-795h-295v1012h834z" />
    <glyph glyph-name="uni0440" unicode="&#x440;" horiz-adv-x="1021" 
d="M672 1036q152 0 221.5 -137.5t69.5 -402.5q0 -197 -36.5 -313.5t-103 -163t-174.5 -46.5q-162 0 -262 84q7 -110 4 -202v-244h-301v1399h244l20 -146q43 74 132 123t186 49zM535 199q46 0 69 21.5t35 85.5t12 190q0 121 -11 187t-33 91t-62 25q-43 0 -77.5 -23.5
t-76.5 -73.5v-466q83 -37 144 -37z" />
    <glyph glyph-name="uni0441" unicode="&#x441;" horiz-adv-x="864" 
d="M485 1038q207 0 328 -63l-31 -189q-35 1 -87.5 2t-89.5 2t-66 1q-96 0 -131 -59.5t-35 -225.5t35 -225.5t131 -59.5q141 0 260 19l26 -197q-136 -68 -342 -68q-236 0 -332 119.5t-96 411.5q0 293 97 412.5t333 119.5z" />
    <glyph glyph-name="uni0442" unicode="&#x442;" horiz-adv-x="876" 
d="M850 776h-260v-776h-301v776h-264v234h825v-234z" />
    <glyph glyph-name="uni0443" unicode="&#x443;" horiz-adv-x="972" 
d="M967 1010l-277 -1024q-82 -240 -282 -353q-137 -85 -340 -39l24 201q85 -3 140 5t92 36q62 46 96 164h-66q-35 0 -61 20t-35 54l-256 936h322l122 -654q6 -28 25 -151h18q23 100 33 151l123 654h322z" />
    <glyph glyph-name="uni0444" unicode="&#x444;" horiz-adv-x="1271" 
d="M1219 504q0 -258 -103.5 -379t-345.5 -143v-371h-270v371q-242 23 -344.5 144.5t-102.5 377.5q0 260 102.5 382.5t344.5 145.5v402h270v-402q242 -22 345.5 -144.5t103.5 -383.5zM756 811v-610q101 18 138.5 84.5t37.5 218.5q0 154 -37.5 221.5t-138.5 85.5zM340 504
q0 -150 37 -216.5t135 -84.5v606q-99 -19 -135.5 -85.5t-36.5 -219.5z" />
    <glyph glyph-name="uni0445" unicode="&#x445;" horiz-adv-x="978" 
d="M668 0l-179 406l-180 -406h-303l246 518l-227 492h303l161 -375l162 375h301l-227 -492l246 -518h-303z" />
    <glyph glyph-name="uni0446" unicode="&#x446;" horiz-adv-x="1071" 
d="M1040 217v-506h-200l-23 289h-727v1010h297v-793h225v793h299l-2 -793h131z" />
    <glyph glyph-name="uni0447" unicode="&#x447;" horiz-adv-x="976" 
d="M887 1010v-1010h-301v371q-137 -54 -260 -54q-136 0 -201.5 56.5t-65.5 175.5v461h299v-367q0 -53 16.5 -74.5t55.5 -21.5q83 0 156 41v422h301z" />
    <glyph glyph-name="uni0448" unicode="&#x448;" horiz-adv-x="1421" 
d="M1331 1010v-1010h-1241v1010h291v-793h197v793h266v-793h196v793h291z" />
    <glyph glyph-name="uni0449" unicode="&#x449;" horiz-adv-x="1488" 
d="M1458 217v-506h-201l-22 289h-1145v1010h291v-793h197v793h266v-793h194v793h291v-793h129z" />
    <glyph glyph-name="uni044A" unicode="&#x44a;" horiz-adv-x="1114" 
d="M586 659h86q231 0 317 -70.5t86 -264.5q0 -98 -20 -163t-65 -103.5t-108.5 -54t-158.5 -15.5q-272 0 -420 12h-8v786h-270v224h561v-351zM586 201h86q61 0 80.5 25.5t19.5 109.5q0 80 -19 106.5t-81 26.5h-86v-268z" />
    <glyph glyph-name="uni044B" unicode="&#x44b;" horiz-adv-x="1351" 
d="M381 659h88q232 0 318.5 -70.5t86.5 -264.5q0 -191 -81.5 -263.5t-272.5 -72.5q-272 0 -422 12h-8v1010h291v-351zM1262 1010v-1010h-304v1010h304zM381 201h88q62 0 81 25.5t19 109.5q0 80 -19 106.5t-81 26.5h-88v-268z" />
    <glyph glyph-name="uni044C" unicode="&#x44c;" horiz-adv-x="915" 
d="M379 659h92q234 0 321 -70.5t87 -264.5q0 -98 -20.5 -163t-65.5 -103.5t-110 -54t-161 -15.5q-274 0 -424 12h-8v1010h289v-351zM379 201h92q64 0 85.5 26t21.5 109q0 79 -21 106t-86 27h-92v-268z" />
    <glyph glyph-name="uni044D" unicode="&#x44d;" horiz-adv-x="915" 
d="M389 1032q261 0 366 -117.5t105 -414.5q0 -290 -105.5 -407.5t-365.5 -117.5q-208 0 -346 54l23 196q163 -10 323 -10q93 0 127.5 39.5t38.5 165.5h-416v186h414q-9 110 -45 148.5t-119 38.5q-55 0 -315 -5l-23 193q133 51 338 51z" />
    <glyph glyph-name="uni044E" unicode="&#x44e;" horiz-adv-x="1417" 
d="M930 1038q122 0 200 -23.5t131.5 -84t76 -163t22.5 -263.5q0 -156 -22.5 -256.5t-76 -160.5t-131.5 -83.5t-200 -23.5q-143 0 -225.5 37.5t-126.5 131.5t-52 263h-135v-412h-301v1010h301v-385h137q8 123 33 202.5t75.5 126.5t120 65.5t173.5 18.5zM926 217q75 0 99 57.5
t24 233.5q0 177 -24 235t-99 58q-77 0 -100 -56.5t-23 -236.5q0 -178 23 -234.5t100 -56.5z" />
    <glyph glyph-name="uni044F" unicode="&#x44f;" horiz-adv-x="958" 
d="M453 1030q298 0 417 -14v-1016h-295v344h-106q-38 0 -55.5 -17t-22.5 -57l-51 -270h-309l65 313q27 102 158 117v10q-100 22 -140 91t-40 182q0 90 16 147.5t59 97t116 56t188 16.5zM575 543v264h-116q-57 0 -74.5 -24t-17.5 -99q0 -84 18 -112.5t74 -28.5h116z" />
    <glyph glyph-name="uni0451" unicode="&#x451;" horiz-adv-x="960" 
d="M399 1188h-100q-59 0 -59 67v119q0 68 59 68h100q60 0 60 -68v-119q0 -67 -60 -67zM707 1188h-101q-59 0 -59 67v119q0 68 59 68h101q59 0 59 -68v-119q0 -67 -59 -67zM541 217q111 0 323 23l27 -189q-145 -76 -385 -76q-247 0 -350 123t-103 406q0 201 45.5 317
t141.5 166.5t260 50.5q219 0 316 -87t97 -265q2 -143 -65 -213t-225 -70h-250q9 -112 45 -149t123 -37zM510 817q-79 2 -108.5 -44.5t-32.5 -186.5h172q49 0 64.5 26.5t15.5 77.5q0 70 -24.5 98.5t-86.5 28.5z" />
    <glyph glyph-name="uni0452" unicode="&#x452;" horiz-adv-x="1028" 
d="M733 846q118 0 178 -71.5t60 -209.5v-518q0 -141 -62 -263t-170 -187l-168 133q55 73 76 146.5t21 170.5v426q0 61 -17.5 86t-60.5 25q-62 0 -162 -68v-516h-305v983h-98v147h98v304h305v-304h281v-147h-281v-92q0 -88 -14 -184q154 139 319 139z" />
    <glyph glyph-name="uni0453" unicode="&#x453;" horiz-adv-x="811" 
d="M758 1331l-404 -225l-84 131l365 303zM311 1022q351 0 484 -27l-15 -211h-331q-35 0 -50.5 -21.5t-15.5 -70.5v-692h-299v778q0 123 56 183.5t171 60.5z" />
    <glyph glyph-name="uni0454" unicode="&#x454;" horiz-adv-x="915" 
d="M850 225l22 -196q-136 -54 -346 -54q-260 0 -365.5 117.5t-105.5 407.5q0 297 105 414.5t366 117.5q211 0 340 -51l-24 -193q-260 5 -316 5q-82 2 -118 -37t-43 -150h413v-186h-416q6 -125 41 -165t123 -40q161 0 324 10z" />
    <glyph glyph-name="uni0455" unicode="&#x455;" horiz-adv-x="903" 
d="M420 1038q246 -4 405 -39l-20 -194q-218 4 -322 4q-94 0 -116.5 -9.5t-22.5 -58.5q0 -39 15 -52.5t67 -31.5l18 -6l201 -69q113 -39 163 -103.5t50 -191.5q0 -94 -21 -154t-70.5 -94.5t-120 -48t-179.5 -13.5q-222 0 -404 35l21 197q49 -4 289 -4q123 0 157.5 13.5
t34.5 62.5q0 39 -17 53.5t-73 33.5q-13 5 -20 7l-195 67q-122 39 -165.5 110t-43.5 198q0 159 81.5 223.5t287.5 64.5z" />
    <glyph glyph-name="uni0456" unicode="&#x456;" horiz-adv-x="493" 
d="M180 1456h129q90 0 90 -88v-111q0 -88 -90 -88h-129q-88 0 -88 88v111q0 88 88 88zM397 0h-301v1010h301v-1010z" />
    <glyph glyph-name="uni0457" unicode="&#x457;" horiz-adv-x="495" 
d="M41 1442h100q60 0 60 -68v-119q0 -67 -60 -67h-100q-59 0 -59 67v119q0 68 59 68zM352 1442h99q59 0 59 -68v-119q0 -67 -59 -67h-99q-61 0 -61 67v119q0 68 61 68zM399 0h-303v1010h303v-1010z" />
    <glyph glyph-name="uni0458" unicode="&#x458;" horiz-adv-x="495" 
d="M178 1464h129q88 0 88 -88v-110q0 -88 -88 -88h-129q-88 0 -88 88v110q0 88 88 88zM399 1010v-963q0 -141 -65 -263t-178 -187l-168 133q60 74 84 148t24 169v963h303z" />
    <glyph glyph-name="uni0459" unicode="&#x459;" horiz-adv-x="1390" 
d="M883 657h75q225 0 309.5 -71t84.5 -264q0 -190 -79 -262t-265 -72q-216 0 -400 12h-6v811h-59q-36 0 -52.5 -20t-19.5 -70q-24 -338 -65 -492q-38 -145 -130.5 -201.5t-226.5 -35.5l-20 207q27 6 42.5 11t35.5 17t33 33t20 53q29 110 57 463q18 234 229 234h437v-353z
M883 197h75q64 0 83.5 25.5t19.5 109.5q0 81 -20 108t-83 27h-75v-270z" />
    <glyph glyph-name="uni045A" unicode="&#x45a;" horiz-adv-x="1380" 
d="M870 643h91q219 0 300.5 -68t81.5 -253q0 -190 -76 -262t-255 -72q-270 0 -418 12h-6v449h-223v-449h-275v1010h275v-365h223v365h282v-367zM870 197h91q55 0 72.5 25.5t17.5 105.5q0 76 -17.5 102.5t-72.5 26.5h-91v-260z" />
    <glyph glyph-name="uni045B" unicode="&#x45b;" horiz-adv-x="1028" 
d="M733 846q118 0 178 -71.5t60 -209.5v-565h-303v473q0 62 -17.5 86.5t-60.5 24.5q-62 0 -162 -68v-516h-305v983h-98v147h98v304h305v-304h281v-147h-281v-92q0 -88 -14 -184q154 139 319 139z" />
    <glyph glyph-name="uni045C" unicode="&#x45c;" horiz-adv-x="964" 
d="M432 1106l-84 131l365 303l123 -209zM629 530v-8q48 -8 78.5 -17.5t57 -29t43.5 -47.5t34.5 -74.5t34.5 -107.5t40 -150q16 -62 25 -96h-313q-9 35 -24 97q-53 217 -78.5 268.5t-90.5 52.5h-55q10 -52 10 -86v-332h-301v1010h301v-258q0 -61 -12 -123h37q77 0 104.5 51
t70.5 247q12 53 19 83h308q-15 -51 -32 -115t-26 -96.5t-22 -74.5t-21.5 -61.5t-22.5 -44.5t-27.5 -35t-34.5 -23t-45 -19t-58 -11z" />
    <glyph glyph-name="uni045D" unicode="&#x45d;" horiz-adv-x="1032" 
d="M676 1237l-86 -131l-402 225l123 209zM944 0l-272 -2v498q0 97 12 219h-6q-9 -34 -34.5 -114.5t-29.5 -92.5l-165 -508h-359v1010h268v-508q0 -124 -12 -207h6q7 26 62 194l172 521h358v-1010z" />
    <glyph glyph-name="uni045E" unicode="&#x45e;" horiz-adv-x="972" 
d="M485 1141q-143 0 -223.5 94t-62.5 223h188q-11 -168 98 -168q111 0 97 168h188q18 -130 -62 -223.5t-223 -93.5zM967 1010l-277 -1024q-82 -240 -282 -353q-137 -85 -340 -39l24 201q85 -3 140 5t92 36q62 46 96 164h-66q-35 0 -61 20t-35 54l-256 936h322l122 -654
q6 -28 25 -151h18q23 100 33 151l123 654h322z" />
    <glyph glyph-name="uni045F" unicode="&#x45f;" horiz-adv-x="1021" 
d="M932 1010v-1010h-301l-21 -334h-200l-21 334h-299v1010h297l4 -793h240l4 793h297z" />
    <glyph glyph-name="uni0490" unicode="&#x490;" horiz-adv-x="909" 
d="M897 1384h-2l-14 -217h-389q-41 0 -60.5 -26t-19.5 -86v-1055h-312v1118q0 133 71.5 217t184.5 84q208 0 310 -6l24 311h207v-340z" />
    <glyph glyph-name="uni0491" unicode="&#x491;" horiz-adv-x="811" 
d="M797 995h-2l-15 -211h-331q-35 0 -50.5 -21.5t-15.5 -70.5v-692h-299v778q0 123 56 183.5t171 60.5q176 0 262 -4l25 289h199v-312z" />
    <glyph glyph-name="uni04B0" unicode="&#x4b0;" horiz-adv-x="1062" 
d="M915 426h-227v-426h-311v426h-227v166h176l-330 821h323l166 -518q12 -38 37 -178h21q14 103 39 178l161 518h324l-330 -821h176z" />
    <glyph glyph-name="uni04B1" unicode="&#x4b1;" horiz-adv-x="1056" 
d="M735 197h176v-185h-223v-401h-315v401h-226v185h177l-328 813h323l162 -508q9 -25 15.5 -55t13 -68.5t10.5 -56.5h19q25 141 39 180l159 508h324z" />
    <glyph glyph-name="uni04B6" unicode="&#x4b6;" horiz-adv-x="1193" 
d="M1167 14v-323h-223l-22 309h-217v573q-81 -45 -169.5 -69.5t-158.5 -24.5q-159 0 -234 83.5t-75 258.5v592h313v-524q-3 -82 21.5 -115t91.5 -33q97 0 211 62v610h311v-1204h149z" />
    <glyph glyph-name="uni04B7" unicode="&#x4b7;" horiz-adv-x="1040" 
d="M1010 217v-506h-201l-23 289h-206v371q-134 -54 -256 -54q-135 0 -200 57t-65 175v461h299v-367q0 -53 16 -74.5t52 -21.5q81 0 154 41v422h301v-793h129z" />
    <glyph glyph-name="uni04BA" unicode="&#x4ba;" horiz-adv-x="1126" 
d="M745 934q161 0 237.5 -83.5t76.5 -258.5v-592h-314v524q3 83 -21.5 115.5t-92.5 32.5q-102 0 -213 -62v-610h-312v1413h312v-573q81 45 170.5 69.5t156.5 24.5z" />
    <glyph glyph-name="uni04C0" unicode="&#x4c0;" horiz-adv-x="522" 
d="M418 0h-312v1413h312v-1413z" />
    <glyph glyph-name="Wgrave" unicode="&#x1e80;" horiz-adv-x="1644" 
d="M971 1610l-86 -131l-402 225l123 209zM1606 1413l-160 -1327q-6 -38 -37 -62t-70 -24h-278q-42 0 -73.5 24.5t-35.5 63.5l-100 924q-12 116 -16 178h-29q-8 -124 -16 -180l-97 -922q-4 -39 -35.5 -63.5t-72.5 -24.5h-281q-40 0 -71 24t-37 62l-160 1327h311l84 -981
q8 -117 10 -205h29l27 205l96 885q4 43 34.5 69.5t73.5 26.5h240q42 0 71.5 -26.5t35.5 -69.5l98 -887q4 -49 24 -203h31q0 49 10 201l82 985h312z" />
    <glyph glyph-name="wgrave" unicode="&#x1e81;" horiz-adv-x="1435" 
d="M868 1237l-86 -131l-401 225l123 209zM1415 1010l-184 -930q-7 -36 -35.5 -58t-65.5 -22h-221q-40 0 -70 25.5t-34 66.5l-66 572q-6 59 -14 170h-20q-6 -82 -15 -170l-63 -572q-4 -41 -34.5 -66.5t-72.5 -25.5h-217q-38 0 -65.5 21.5t-34.5 58.5l-185 930h301l84 -656
q15 -135 17 -166h20l19 166l63 566q4 41 33.5 65.5t69.5 24.5h182q42 0 71 -25t33 -67l62 -564q18 -163 18 -166h21q2 19 5 51.5t6 60.5t7 54l82 656h303z" />
    <glyph glyph-name="Wacute" unicode="&#x1e82;" horiz-adv-x="1644" 
d="M1155 1704l-403 -225l-84 131l364 303zM1606 1413l-160 -1327q-6 -38 -37 -62t-70 -24h-278q-42 0 -73.5 24.5t-35.5 63.5l-100 924q-12 116 -16 178h-29q-8 -124 -16 -180l-97 -922q-4 -39 -35.5 -63.5t-72.5 -24.5h-281q-40 0 -71 24t-37 62l-160 1327h311l84 -981
q8 -117 10 -205h29l27 205l96 885q4 43 34.5 69.5t73.5 26.5h240q42 0 71.5 -26.5t35.5 -69.5l98 -887q4 -49 24 -203h31q0 49 10 201l82 985h312z" />
    <glyph glyph-name="wacute" unicode="&#x1e83;" horiz-adv-x="1435" 
d="M1053 1331l-404 -225l-84 131l365 303zM1415 1010l-184 -930q-7 -36 -35.5 -58t-65.5 -22h-221q-40 0 -70 25.5t-34 66.5l-66 572q-6 59 -14 170h-20q-6 -82 -15 -170l-63 -572q-4 -41 -34.5 -66.5t-72.5 -25.5h-217q-38 0 -65.5 21.5t-34.5 58.5l-185 930h301l84 -656
q15 -135 17 -166h20l19 166l63 566q4 41 33.5 65.5t69.5 24.5h182q42 0 71 -25t33 -67l62 -564q18 -163 18 -166h21q2 19 5 51.5t6 60.5t7 54l82 656h303z" />
    <glyph glyph-name="Wdieresis" unicode="&#x1e84;" horiz-adv-x="1644" 
d="M616 1815h101q59 0 59 -68v-119q0 -67 -59 -67h-101q-59 0 -59 67v119q0 68 59 68zM928 1815h98q59 0 59 -68v-119q0 -67 -59 -67h-98q-62 0 -62 67v119q0 68 62 68zM1606 1413l-160 -1327q-6 -38 -37 -62t-70 -24h-278q-42 0 -73.5 24.5t-35.5 63.5l-100 924
q-12 116 -16 178h-29q-8 -124 -16 -180l-97 -922q-4 -39 -35.5 -63.5t-72.5 -24.5h-281q-40 0 -71 24t-37 62l-160 1327h311l84 -981q8 -117 10 -205h29l27 205l96 885q4 43 34.5 69.5t73.5 26.5h240q42 0 71.5 -26.5t35.5 -69.5l98 -887q4 -49 24 -203h31q0 49 10 201
l82 985h312z" />
    <glyph glyph-name="wdieresis" unicode="&#x1e85;" horiz-adv-x="1435" 
d="M514 1442h100q60 0 60 -68v-119q0 -67 -60 -67h-100q-59 0 -59 67v119q0 68 59 68zM825 1442h99q59 0 59 -68v-119q0 -67 -59 -67h-99q-61 0 -61 67v119q0 68 61 68zM1415 1010l-184 -930q-7 -36 -35.5 -58t-65.5 -22h-221q-40 0 -70 25.5t-34 66.5l-66 572
q-6 59 -14 170h-20q-6 -82 -15 -170l-63 -572q-4 -41 -34.5 -66.5t-72.5 -25.5h-217q-38 0 -65.5 21.5t-34.5 58.5l-185 930h301l84 -656q15 -135 17 -166h20l19 166l63 566q4 41 33.5 65.5t69.5 24.5h182q42 0 71 -25t33 -67l62 -564q18 -163 18 -166h21q2 19 5 51.5
t6 60.5t7 54l82 656h303z" />
    <glyph glyph-name="Ygrave" unicode="&#x1ef2;" horiz-adv-x="1052" 
d="M588 1479l-402 225l123 209l365 -303zM682 465v-465h-311v469l-379 944h323l164 -518q21 -64 37 -178h21q23 133 38 178l164 518h322z" />
    <glyph glyph-name="ygrave" unicode="&#x1ef3;" horiz-adv-x="970" 
d="M553 1106l-401 225l122 209l365 -303zM967 1010l-277 -1024q-18 -64 -44 -121.5t-69.5 -114.5t-97.5 -96t-131 -58t-166 -8l-22 179q101 32 160 85.5t90 139.5l4 8h-60q-35 0 -61 20t-35 54l-256 936h322l122 -654q6 -28 25 -151h18q23 100 33 151l123 654h322z" />
    <glyph glyph-name="endash" unicode="&#x2013;" horiz-adv-x="901" 
d="M819 422h-735v199h735v-199z" />
    <glyph glyph-name="emdash" unicode="&#x2014;" horiz-adv-x="1388" 
d="M1307 422h-1223v199h1223v-199z" />
    <glyph glyph-name="quoteleft" unicode="&#x2018;" horiz-adv-x="370" 
d="M209 924h-59q-56 0 -78.5 20.5t-22.5 73.5l-2 119q1 105 25 184.5t71 157.5l111 -37q-24 -104 -27 -238q84 0 84 -86l-4 -100q-1 -54 -22.5 -74t-75.5 -20z" />
    <glyph glyph-name="quoteright" unicode="&#x2019;" horiz-adv-x="364" 
d="M160 1460h59q56 0 78 -20t22 -74l3 -119q-1 -105 -25 -184t-72 -158l-110 37q23 99 26 238q-84 0 -84 86l4 100q1 54 23 74t76 20z" />
    <glyph glyph-name="quotesinglbase" unicode="&#x201a;" horiz-adv-x="387" 
d="M172 295h59q56 0 78.5 -22t22.5 -78l2 -123q-1 -110 -25 -192.5t-71 -162.5l-111 37q24 109 27 248q-41 0 -62.5 23t-21.5 65l4 105q1 57 22.5 78.5t75.5 21.5z" />
    <glyph glyph-name="quotedblleft" unicode="&#x201c;" horiz-adv-x="686" 
d="M217 924h-59q-56 0 -78.5 20.5t-22.5 73.5l-2 119q1 105 25 184t72 158l110 -37q-23 -99 -26 -238q83 0 83 -86l-4 -100q-1 -54 -22.5 -74t-75.5 -20zM573 924h-59q-56 0 -78 20t-22 74l-2 119q1 105 25 184.5t71 157.5l110 -37q-23 -99 -26 -238q84 0 84 -86l-4 -100
q-1 -54 -23 -74t-76 -20z" />
    <glyph glyph-name="quotedblright" unicode="&#x201d;" horiz-adv-x="679" 
d="M160 1460h59q56 0 78 -20t22 -74l3 -119q-1 -105 -25 -184t-72 -158l-110 37q23 99 26 238q-84 0 -84 86l4 100q1 54 23 74t76 20zM475 1460h60q56 0 78 -20t22 -74l2 -119q-1 -105 -25 -184.5t-71 -157.5l-111 37q24 104 27 238q-84 0 -84 86l4 100q1 54 22.5 74
t75.5 20z" />
    <glyph glyph-name="quotedblbase" unicode="&#x201e;" horiz-adv-x="700" 
d="M172 270h59q56 0 78.5 -20.5t22.5 -73.5l2 -119q-1 -105 -25 -184.5t-71 -157.5l-111 37q24 104 27 238q-84 0 -84 86l4 100q1 54 22.5 74t75.5 20zM487 270h60q56 0 78 -20t22 -74l2 -119q-1 -105 -25 -184.5t-71 -157.5l-111 37q24 104 27 238q-84 0 -84 86l4 100
q1 54 22.5 74t75.5 20z" />
    <glyph glyph-name="dagger" unicode="&#x2020;" horiz-adv-x="796" 
d="M520 -225h-241l14 1067v151l-14 422h241l-14 -422v-151zM45 780v230h215v-197zM754 1010v-230l-215 33v197h215z" />
    <glyph glyph-name="daggerdbl" unicode="&#x2021;" horiz-adv-x="858" 
d="M537 1008v-818l14 -415h-242l15 415v818l-15 407h242zM291 813l-215 -33v230h215v-197zM784 780l-215 33v197h215v-230zM291 377v-197h-215v230zM784 180h-215v197l215 33v-230z" />
    <glyph glyph-name="bullet" unicode="&#x2022;" horiz-adv-x="624" 
d="M305 778h29q104 0 145 -46t41 -163v-30q0 -126 -40.5 -174t-145.5 -48h-29q-114 0 -156.5 48t-42.5 174v30q0 118 43 163.5t156 45.5z" />
    <glyph glyph-name="ellipsis" unicode="&#x2026;" horiz-adv-x="1513" 
d="M174 309h74q60 0 82 -22t22 -82v-99q0 -60 -22 -83t-82 -23h-74q-60 0 -82 23t-22 83v99q0 60 22 82t82 22zM721 309h74q60 0 82 -22t22 -82v-99q0 -60 -22 -83t-82 -23h-74q-60 0 -82.5 23t-22.5 83v99q0 60 22.5 82t82.5 22zM1268 309h73q60 0 82.5 -22t22.5 -82v-99
q0 -60 -22.5 -83t-82.5 -23h-73q-60 0 -82.5 23t-22.5 83v99q0 60 22.5 82t82.5 22z" />
    <glyph glyph-name="perthousand" unicode="&#x2030;" horiz-adv-x="2179" 
d="M338 1440q164 0 229.5 -92.5t65.5 -327.5q0 -233 -65.5 -326.5t-229.5 -93.5q-163 0 -228 93.5t-65 326.5q0 234 65 327t228 93zM524 0h-186l657 1413h185zM338 1272q-30 0 -44.5 -20.5t-21 -73t-6.5 -158.5q0 -107 6.5 -159.5t21 -72.5t44.5 -20q45 0 59.5 48.5
t14.5 203.5q0 154 -14.5 203t-59.5 49zM1180 817q164 0 229.5 -93.5t65.5 -326.5q0 -235 -65.5 -328.5t-229.5 -93.5q-163 0 -228 93.5t-65 328.5q0 233 65 326.5t228 93.5zM1837 817q164 0 229.5 -93.5t65.5 -326.5q0 -235 -65.5 -328.5t-229.5 -93.5q-163 0 -228 93.5
t-65 328.5q0 233 65 326.5t228 93.5zM1180 647q-31 0 -45.5 -20t-20.5 -71.5t-6 -158.5t6 -159t20.5 -72.5t45.5 -20.5q30 0 45 20.5t21.5 73.5t6.5 158t-6.5 157.5t-21.5 72.5t-45 20zM1837 647q-30 0 -44.5 -20t-21 -72t-6.5 -158t6.5 -158.5t21 -73t44.5 -20.5
q45 0 59.5 49t14.5 203t-14.5 202t-59.5 48z" />
    <glyph glyph-name="guilsinglleft" unicode="&#x2039;" horiz-adv-x="522" 
d="M467 850l-158 -336l158 -346l-158 -100l-264 413v66l264 405z" />
    <glyph glyph-name="guilsinglright" unicode="&#x203a;" horiz-adv-x="524" 
d="M479 547v-66l-264 -413l-160 100l160 346l-158 336l158 102z" />
    <glyph glyph-name="fraction" unicode="&#x2044;" horiz-adv-x="266" 
d="M-102 0h-187l656 1413h188z" />
    <glyph glyph-name="Euro" unicode="&#x20ac;" horiz-adv-x="1187" 
d="M926 754h-844v194h162q35 258 166.5 374t390.5 116q152 0 274 -47l-26 -228q-44 8 -118.5 12.5t-152.5 -1.5q-88 -9 -136 -62.5t-67 -163.5h371zM1079 258l27 -225q-134 -58 -307 -58q-263 0 -393.5 121t-163.5 387h-162v193h809l-21 -193h-297q19 -126 66 -181.5
t139 -61.5q167 -12 303 18z" />
    <glyph glyph-name="trademark" unicode="&#x2122;" horiz-adv-x="1644" 
d="M662 1425v-163h-187v-615h-207v615h-186v163h580zM1556 647h-186l-22 621h-15l-61 -443q-12 -63 -80 -63h-117q-68 0 -80 63l-61 443h-16l-17 -621h-188l20 703q3 75 72 75h186q68 0 80 -65l47 -352q2 -18 5 -56.5t5 -56.5h11q1 5 4.5 49t7.5 66l43 350q12 65 80 65h190
q71 0 74 -75z" />
    <glyph glyph-name="partialdiff" unicode="&#x2202;" horiz-adv-x="1001" 
d="M182 1229v211q143 4 249 -6.5t197 -41t150 -85t99.5 -139t55.5 -202t9 -274.5q-13 -376 -132.5 -546.5t-352.5 -170.5q-98 0 -173 30.5t-120 80t-71.5 117.5t-35 137t-4.5 145q4 71 18 134.5t43 121.5t70.5 99.5t102.5 66t137 23.5q134 -3 217 -86q1 92 -10 152.5
t-39 108t-81 73t-132 38.5t-197 13zM473 219q36 0 62 21.5t42 55.5t27.5 95t17.5 121t11 152q-66 36 -133 36q-135 0 -146 -221q-13 -260 119 -260z" />
    <glyph glyph-name="emptyset" unicode="&#x2205;" horiz-adv-x="1402" 
d="M702 1296q122 0 232.5 -47.5t190.5 -127.5t127.5 -190.5t47.5 -232.5t-47.5 -233.5t-127.5 -191.5t-190.5 -127.5t-232.5 -47.5t-233.5 47.5t-191.5 127.5t-127.5 191.5t-47.5 233.5t47.5 232.5t127.5 190.5t191.5 127.5t233.5 47.5zM702 1116q-39 0 -68.5 -1t-56 -3.5
t-39.5 -4.5t-42.5 -6.5t-42.5 -6.5l6 -93q130 19 243 19q64 0 100 -25t36 -69q0 -36 -20.5 -72.5t-50 -70.5t-58.5 -72.5t-49.5 -95t-20.5 -121.5h111q0 59 20 108.5t48 84t56 68t48 77t20 94.5q0 190 -240 190zM735 350h-80q-14 0 -14 -16v-76q0 -14 14 -14h80q17 0 17 14
v76q0 16 -17 16z" />
    <glyph glyph-name="product" unicode="&#x220f;" horiz-adv-x="1181" 
d="M1135 1184h-127v-1383h-303v1383h-228v-1383h-301v1383h-131v229h1090v-229z" />
    <glyph glyph-name="summation" unicode="&#x2211;" horiz-adv-x="993" 
d="M922 1188h-502l213 -504l-238 -737h543v-226h-879v226l238 737l-217 504v225h842v-225z" />
    <glyph glyph-name="minus" unicode="&#x2212;" horiz-adv-x="956" 
d="M870 494h-784v215h784v-215z" />
    <glyph glyph-name="radical" unicode="&#x221a;" horiz-adv-x="970" 
d="M967 1794l-342 -1778q-3 -16 -23 -16h-356q-20 0 -23 16l-207 994h242l156 -815h20l289 1599h244z" />
    <glyph glyph-name="infinity" unicode="&#x221e;" horiz-adv-x="1267" 
d="M954 928q108 0 181 -75.5t73 -219.5q0 -149 -79 -232.5t-197 -83.5q-152 0 -297 156q-152 -156 -307 -156q-112 0 -190.5 84t-78.5 232q0 145 75.5 220t191.5 75q91 0 165 -44.5t144 -123.5q160 168 319 168zM371 512q47 0 81.5 27t75.5 82q-19 30 -32 46.5t-31.5 33
t-41.5 23.5t-54 7q-90 0 -90 -106q0 -113 92 -113zM897 512q90 0 90 113q0 106 -88 106q-30 0 -53 -8t-43.5 -29.5t-30.5 -35t-33 -48.5q66 -98 158 -98z" />
    <glyph glyph-name="integral" unicode="&#x222b;" horiz-adv-x="591" 
d="M330 1462q149 0 223 -8l-18 -217h-101q-27 0 -38.5 -22.5t-10.5 -81.5l86 -1315q9 -142 -41.5 -207.5t-183.5 -65.5q-156 0 -205 9l18 217h95q31 0 42 25t7 89l-82 1305q-7 130 51.5 201t157.5 71z" />
    <glyph glyph-name="approxequal" unicode="&#x2248;" horiz-adv-x="962" 
d="M305 950q40 -3 164 -50.5t162 -51.5q34 -3 41.5 13t7.5 71v8h182q32 -151 -22.5 -230t-182.5 -73q-43 1 -167 49.5t-164 52.5q-18 1 -27.5 -1.5t-14 -15t-5 -23.5t-0.5 -39v-15h-185q-31 157 30 235t181 70zM305 549q40 -3 164 -52t162 -53q38 -3 45 23q4 14 4 70h182
q32 -150 -22.5 -228.5t-182.5 -72.5q-43 1 -167 49.5t-164 52.5q-18 1 -27.5 -2t-14 -15t-5 -23t-0.5 -41v-15h-185q-31 159 30 237.5t181 69.5z" />
    <glyph glyph-name="notequal" unicode="&#x2260;" horiz-adv-x="956" 
d="M870 934v-215h-784v215h416l98 274l184 -65l-73 -209h159zM86 498h784v-215h-397l-98 -277l-187 64l78 213h-180v215z" />
    <glyph glyph-name="lessequal" unicode="&#x2264;" horiz-adv-x="923" 
d="M817 915l-467 -143l467 -135v-236l-723 254v234l723 262v-236zM815 104h-741v226h741v-226z" />
    <glyph glyph-name="greaterequal" unicode="&#x2265;" horiz-adv-x="923" 
d="M829 889v-234l-723 -254v236l467 135l-467 143v236zM850 104h-741v226h741v-226z" />
    <glyph glyph-name="lozenge" unicode="&#x25ca;" horiz-adv-x="948" 
d="M494 1413l413 -684q10 -21 0 -41l-413 -688q-19 -25 -35 0l-420 688q-8 20 0 41l420 684q16 25 35 0zM274 709l199 -414l199 414l-199 409z" />
    <glyph glyph-name="c_t" horiz-adv-x="1449" 
d="M1210 807v-477q0 -57 18 -80t62 -23h96l33 -211q-47 -19 -124 -30t-136 -11q-118 0 -185 77t-67 214v541h-370q-96 0 -131 -62.5t-35 -238.5q0 -166 35 -225.5t131 -59.5q122 0 219 19l26 -197q-116 -68 -301 -68q-236 0 -332 119.5t-96 411.5q0 277 98.5 390.5
t331.5 113.5h424v282h303v-282h213v-203h-213z" />
    <glyph glyph-name="f_f_y" horiz-adv-x="2183" 
d="M2179 1010l-274 -1024q-18 -64 -44 -121.5t-69.5 -114.5t-97.5 -96t-131 -58t-166 -8l-23 179q101 32 160 85.5t90 139.5l2 8h-57q-35 0 -61 20t-35 54l-173 657q-21 76 -79 76h-152v-807h-295v807h-317v-807h-295v807h-139v192l139 11v133q3 149 70.5 230t216.5 81
q165 0 253 -20l-28 -201h-123q-55 0 -74.5 -27t-19.5 -104v-92h317v153q0 150 67.5 231t221.5 81q173 0 278 -21l-28 -201h-150q-53 0 -73.5 -29t-20.5 -102v-112h256q213 0 262 -228l74 -426q10 -49 22 -151h19q22 76 35 151l123 654h319z" />
    <glyph glyph-name="f_t" horiz-adv-x="1310" 
d="M1073 807v-477q0 -57 17.5 -80t60.5 -23h96l33 -211q-47 -19 -124 -30t-136 -11q-117 0 -183.5 76.5t-66.5 214.5l-2 541h-301v-807h-305v807h-139v192l139 11v153q0 312 291 312q156 0 245 -21l-28 -201h-109q-53 0 -73.5 -29t-20.5 -102v-112h301v282h305v-282h213
v-203h-213z" />
    <glyph glyph-name="f_y" horiz-adv-x="1572" 
d="M1571 1010l-277 -1024q-18 -64 -44 -121.5t-69.5 -114.5t-97.5 -96t-131 -58t-166 -8l-22 179q101 32 160.5 85t91.5 140l2 8h-60q-35 0 -61 20t-37 54l-172 657q-18 76 -78 76h-143v-807h-305v807h-139v192l139 11v153q0 312 291 312q182 0 284 -21l-26 -201h-150
q-53 0 -73.5 -29t-20.5 -102v-112h250q212 0 258 -228l76 -426q22 -137 24 -151h15q17 55 36 151l123 654h322z" />
    <glyph glyph-name="s_t" horiz-adv-x="1511" 
d="M1274 807v-477q0 -57 18 -80t62 -23h94l33 -211q-46 -19 -123 -30t-137 -11q-116 0 -183 77t-67 214l-2 539h-486q-94 0 -116.5 -9t-22.5 -53q0 -39 15 -52.5t67 -31.5l18 -6l201 -71q71 -26 113 -59.5t65 -91t23 -144.5q0 -94 -20.5 -154t-68.5 -94.5t-116 -48
t-174 -13.5q-222 0 -404 35l21 197q49 -4 289 -4q108 0 144 14t36 62q0 39 -18.5 55.5t-67.5 34.5q-8 2 -12 4l-195 67q-122 39 -165.5 110t-43.5 198q0 143 82 202t287 58h549v282h305v-282h213v-203h-213z" />
    <glyph glyph-name="t_t" horiz-adv-x="1339" 
d="M1098 807v-477q0 -57 18 -80t62 -23h94l33 -211q-46 -19 -123.5 -30t-137.5 -11q-116 0 -182.5 77t-66.5 214v541h-324v-477q0 -57 17.5 -80t60.5 -23h96l33 -211q-47 -19 -124 -30t-136 -11q-118 0 -185 77t-67 214v541h-143v192l143 9v284h305v-282h324v282h303v-282
h213v-203h-213z" />
    <glyph glyph-name="t_y" horiz-adv-x="1611" 
d="M1608 1010l-275 -1024q-18 -64 -44 -121.5t-69.5 -114.5t-97.5 -96t-131 -58t-166 -8l-22 179q102 32 160.5 85t89.5 140l4 8h-62q-34 0 -59.5 20t-36.5 54l-172 657q-21 76 -80 76h-176v-477q0 -57 17.5 -80t60.5 -23h96l33 -211q-47 -19 -124 -30t-136 -11
q-118 0 -185 77t-67 214v541h-143v192l143 9v284h305v-282h283q211 0 260 -228l73 -426q17 -84 25 -151h18q18 68 35 151l123 654h320z" />
    <glyph glyph-name="brevecy" horiz-adv-x="669" 
d="M432 1436h189q18 -130 -62 -224t-223 -94t-224 94.5t-63 223.5h189q-11 -168 98 -168q110 0 96 168z" />
    </font>
</defs>
</svg>
