<?xml version="1.0" standalone="no"?>
<!DOCTYPE svg PUBLIC "-//W3C//DTD SVG 1.1//EN" "http://www.w3.org/Graphics/SVG/1.1/DTD/svg11.dtd" >
<svg xmlns="http://www.w3.org/2000/svg" xmlns:xlink="http://www.w3.org/1999/xlink" version="1.1">
<metadata>
Created by FontForge 20170731 at Thu Aug 20 10:32:32 2020
 By Aleksey,,,
Copyright (c) 2014, Natanael Gama (www.ndiscovered.com . info(at)ndiscovered.com)
</metadata>
<defs>
<font id="Exo2-LightCondensed" horiz-adv-x="1099" >
  <font-face 
    font-family="Exo 2 Light Condensed"
    font-weight="300"
    font-stretch="condensed"
    units-per-em="2048"
    panose-1="0 0 4 6 0 0 0 0 0 0"
    ascent="1638"
    descent="-410"
    x-height="991"
    cap-height="1413"
    bbox="-287 -553 2001 1903"
    underline-thickness="102"
    underline-position="-307"
    unicode-range="U+0020-FB02"
  />
<missing-glyph horiz-adv-x="989" 
 />
    <glyph glyph-name="fi" unicode="fi" horiz-adv-x="989" 
d="M852 991v-991h-129v887h-399v-887h-131v887h-146v94l146 10v176q0 150 53.5 224.5t177.5 74.5q104 0 184 -12v-96h-139q-81 0 -113 -45t-32 -158v-164h528zM756 1409h61q41 0 41 -43v-119q0 -43 -41 -43h-61q-41 0 -41 43v119q0 43 41 43z" />
    <glyph glyph-name="fl" unicode="fl" horiz-adv-x="1093" 
d="M1065 88l14 -84q-52 -20 -143 -20q-90 0 -142.5 59.5t-52.5 165.5v1149h-272q-81 1 -113 -43.5t-32 -159.5v-164h243v-104h-243v-887h-131v887h-146v94l146 10v176q0 150 53.5 224.5t177.5 74.5q314 0 450 -20v-1213q0 -145 109 -145h82z" />
    <glyph glyph-name="f_f" unicode="ff" horiz-adv-x="1163" 
d="M1176 1358h-166q-81 0 -113.5 -42.5t-32.5 -146.5v-178h260v-102h-260v-889h-131v889h-409v-889h-131v889h-146v92l146 10v158q0 287 231 287q110 0 199 -13l-9 -96h-145q-82 0 -113.5 -41t-31.5 -149v-146h409v191q0 142 53.5 213t176.5 71q129 0 223 -12z" />
    <glyph glyph-name="f_f_i" unicode="ffi" horiz-adv-x="1519" 
d="M1382 991v-991h-131v887h-399v-887h-131v887l-408 2v-889h-133v889h-133v92l133 8v160q0 287 232 287q109 0 202 -13l-10 -96h-145q-82 0 -114 -41t-32 -149v-146h408v176q0 150 53.5 224.5t177.5 74.5q112 0 197 -12v-96h-150q-82 0 -114.5 -45t-32.5 -158v-164h530z
M1286 1409h60q40 0 40 -43v-119q0 -43 -40 -43h-60q-43 0 -43 43v119q0 43 43 43z" />
    <glyph glyph-name="f_f_l" unicode="ffl" horiz-adv-x="1636" 
d="M1604 88l16 -84q-22 -8 -67 -14t-76 -6q-90 0 -142.5 59.5t-52.5 165.5v1149h-272q-82 1 -114 -44t-32 -159v-164h248v-102h-248v-889h-131v889h-409v-889h-131v889h-146v92l146 10v158q0 287 231 287q110 0 199 -13l-9 -96h-145q-82 0 -113.5 -41t-31.5 -149v-146h409
v176q0 150 53 224.5t177 74.5q317 0 450 -20v-1213q0 -70 29 -107.5t80 -37.5h82z" />
    <glyph glyph-name=".notdef" horiz-adv-x="989" 
 />
    <glyph glyph-name=".null" horiz-adv-x="0" 
 />
    <glyph glyph-name="nonmarkingreturn" horiz-adv-x="682" 
 />
    <glyph glyph-name="space" unicode=" " horiz-adv-x="368" 
 />
    <glyph glyph-name="exclam" unicode="!" horiz-adv-x="448" 
d="M289 772l-13 -346h-106l-12 346v651h131v-651zM207 219h35q26 0 37.5 -11.5t11.5 -39.5v-117q0 -28 -11.5 -39.5t-37.5 -11.5h-35q-27 0 -38 11.5t-11 39.5v117q0 28 11 39.5t38 11.5z" />
    <glyph glyph-name="quotedbl" unicode="&#x22;" horiz-adv-x="577" 
d="M217 979h-90l-8 434h106zM451 979h-91l-8 434h109z" />
    <glyph glyph-name="numbersign" unicode="#" horiz-adv-x="1126" 
d="M854 934l-55 -399h182l-18 -89h-177l-61 -446h-107l62 446h-307l-64 -446h-104l61 446h-190l16 89h187l55 399h-189l17 88h184l55 391h107l-55 -391h307l55 391h107l-56 -391h185l-19 -88h-178zM750 934h-310l-55 -399h309z" />
    <glyph glyph-name="dollar" unicode="$" horiz-adv-x="929" 
d="M514 770l98 -27q127 -32 178.5 -122t51.5 -265q0 -82 -9 -142.5t-31 -102.5t-50 -68t-73.5 -41t-94.5 -20t-119 -5h-6l-15 -243h-71l14 246q-143 4 -274 28l8 105q167 -10 274 -13l33 557l-109 29q-120 30 -171.5 121.5t-51.5 261.5q0 83 9 143t30.5 101t49 65.5t72 37.5
t91 17t115.5 3h18l13 204h69l-12 -206q137 -7 248 -31l-11 -98q-205 11 -243 12zM231 1065q0 -127 34.5 -183t115.5 -77l63 -17l31 529h-6q-50 0 -77 -1.5t-59 -9.5t-47.5 -23.5t-30 -43.5t-19.5 -70.5t-5 -103.5zM467 100h2q72 1 113 10t71 37t41 77.5t11 133.5
q0 91 -16 145t-46.5 80t-85.5 40l-57 16z" />
    <glyph glyph-name="percent" unicode="%" horiz-adv-x="1470" 
d="M342 1438q146 0 205 -96.5t59 -321.5t-59 -321.5t-205 -96.5q-144 0 -203 97t-59 321t59 321t203 97zM410 0h-95l742 1413h94zM342 1354q-91 0 -126.5 -75.5t-35.5 -258.5q0 -184 35.5 -259t126.5 -75t126.5 75t35.5 259q0 183 -35.5 258.5t-126.5 75.5zM1128 821
q144 0 203.5 -97.5t59.5 -322.5q0 -224 -59 -320.5t-204 -96.5t-203.5 96t-58.5 321t58.5 322.5t203.5 97.5zM1126 735q-91 0 -125 -74.5t-34 -259.5t34 -259t125 -74q93 0 128.5 74.5t35.5 258.5t-35.5 259t-128.5 75z" />
    <glyph glyph-name="ampersand" unicode="&#x26;" horiz-adv-x="1275" 
d="M1180 98l14 -94q-82 -20 -170 -20t-139 47t-60 135q-72 -101 -160.5 -142.5t-220.5 -41.5q-181 0 -256 81.5t-75 292.5q0 172 51 266t172 107v8q-102 10 -146.5 91.5t-44.5 238.5q0 82 10 141t35 99.5t56.5 65t84 37.5t107 17.5t137.5 4.5q144 0 263 -19l-17 -100
q-65 6 -250 6q-88 0 -137.5 -8.5t-86 -37t-49.5 -81t-13 -141.5q0 -108 21.5 -165t68.5 -79.5t135 -22.5h315l15 283h108v-283h209l-2 -104h-207v-436q0 -77 25.5 -111.5t83.5 -34.5h123zM475 98q115 0 199 44.5t149 138.5v399h-319q-139 0 -194.5 -64.5t-55.5 -238.5
q0 -160 47.5 -219.5t173.5 -59.5z" />
    <glyph glyph-name="quotesingle" unicode="'" horiz-adv-x="342" 
d="M217 979h-90l-8 434h106z" />
    <glyph glyph-name="parenleft" unicode="(" horiz-adv-x="591" 
d="M520 1618l17 -68q-164 -105 -241 -328t-77 -581q0 -352 77 -576t241 -335l-17 -68q-221 112 -324.5 349t-103.5 628q0 394 103.5 631.5t324.5 347.5z" />
    <glyph glyph-name="parenright" unicode=")" horiz-adv-x="591" 
d="M55 1550l17 68q221 -110 325.5 -348t104.5 -631q0 -390 -104.5 -627.5t-325.5 -349.5l-17 68q164 111 241 335t77 576q0 358 -77 581t-241 328z" />
    <glyph glyph-name="asterisk" unicode="*" horiz-adv-x="743" 
d="M399 1092l164 -265l-63 -51l-129 256l-127 -254l-66 51l164 263l-10 321h80zM315 1133l-2 -37l-16 -25l-205 74l25 80zM651 1141l-207 -70l-16 25v37l197 90z" />
    <glyph glyph-name="plus" unicode="+" horiz-adv-x="907" 
d="M813 561h-309v-371h-101v371h-309v101h307v368h103v-368h309v-101z" />
    <glyph glyph-name="comma" unicode="," horiz-adv-x="372" 
d="M168 219h39q27 0 38 -11.5t11 -39.5v-131q-3 -160 -55 -295l-64 18q17 116 17 240q-37 0 -37 43v125q1 28 13 39.5t38 11.5z" />
    <glyph glyph-name="hyphen" unicode="-" horiz-adv-x="745" 
d="M625 465h-504v102h504v-102z" />
    <glyph glyph-name="period" unicode="." horiz-adv-x="374" 
d="M166 219h43q27 0 38 -11.5t11 -39.5v-117q0 -28 -11 -39.5t-38 -11.5h-43q-27 0 -38 11.5t-11 39.5v117q0 28 11 39.5t38 11.5z" />
    <glyph glyph-name="slash" unicode="/" horiz-adv-x="847" 
d="M156 -129h-111l647 1542h111z" />
    <glyph glyph-name="zero" unicode="0" horiz-adv-x="991" 
d="M496 1438q213 0 301 -171t88 -560t-88 -560.5t-301 -171.5t-301.5 171.5t-88.5 560.5t88 560t302 171zM494 1321q-140 0 -197 -141.5t-57 -472.5t57 -473t197 -142q145 0 201.5 141t56.5 474t-56.5 473.5t-201.5 140.5z" />
    <glyph glyph-name="one" unicode="1" horiz-adv-x="671" 
d="M483 0h-135v1171q0 57 6 113l-280 -115l-17 97l291 147h135v-1413z" />
    <glyph glyph-name="two" unicode="2" horiz-adv-x="925" 
d="M446 1438q87 0 146 -11.5t108 -43t72 -91t23 -151.5q0 -135 -46.5 -252t-162.5 -279l-334 -487q59 4 190 4h394v-127h-744v82q0 26 21 61l336 500q111 160 161 275.5t47 222.5q-1 58 -16 95t-46.5 54.5t-66 23t-90.5 5.5q-158 0 -325 -39l-11 104q187 54 344 54z" />
    <glyph glyph-name="three" unicode="3" horiz-adv-x="917" 
d="M424 1438q191 0 270.5 -71.5t79.5 -254.5q0 -314 -170 -356v-8q73 -15 118.5 -65t63 -120t19.5 -170q3 -217 -80 -317.5t-279 -100.5q-138 0 -358 35l10 107q213 -23 316 -23q140 0 199 70.5t59 241.5q0 65 -10 113t-34.5 88.5t-71.5 62t-116 22.5h-211v105l211 2
q54 1 92.5 19t60 44.5t33.5 66.5t15 75t2 81q-1 142 -50 188t-187 46q-143 0 -287 -19l-13 103q169 35 318 35z" />
    <glyph glyph-name="four" unicode="4" horiz-adv-x="1011" 
d="M936 381l-143 -14v-367h-129v367h-478q-68 0 -101 62.5t-5 133.5l328 850h133l-322 -848q-14 -38 -1.5 -63t42.5 -25h404v432l24 236h105v-668h143v-96z" />
    <glyph glyph-name="five" unicode="5" horiz-adv-x="880" 
d="M750 1298h-482l-16 -440l119 -8q118 -8 193 -30t127.5 -71t74.5 -128t22 -201q0 -74 -7.5 -133t-31 -119.5t-62.5 -101t-106 -66t-157 -25.5q-149 0 -336 54l16 106q167 -41 289 -41q80 0 132.5 21.5t80 66.5t38 100t11.5 138q1 88 -14.5 144.5t-38.5 90.5t-80.5 51.5
t-109.5 23.5t-158 11l-70 7q-23 0 -38 17.5t-15 43.5l27 604h598z" />
    <glyph glyph-name="six" unicode="6" horiz-adv-x="942" 
d="M537 915q178 0 245.5 -103.5t67.5 -367.5q0 -93 -8 -160t-30.5 -128.5t-61.5 -99t-103.5 -59.5t-154.5 -22q-80 0 -138 14t-101 48.5t-69.5 83.5t-42.5 128.5t-22 173.5t-6 228q0 146 9 259t25 196.5t44 141.5t61 95.5t81 58.5t98.5 28.5t119.5 7.5q135 0 225 -29
l-12 -98q-72 12 -213 12q-68 0 -113 -12.5t-83 -46.5t-59.5 -97.5t-34 -162t-15.5 -244.5q62 88 127 121.5t164 33.5zM494 90q59 0 100.5 16t65.5 43t37.5 74.5t17.5 97.5t4 125q0 200 -44.5 279.5t-170.5 79.5q-75 0 -132.5 -30.5t-127.5 -112.5v-17q0 -85 1.5 -143
t5.5 -117.5t11.5 -97.5t20.5 -74.5t31 -57t44 -36.5t59.5 -22.5t76.5 -6.5z" />
    <glyph glyph-name="seven" unicode="7" horiz-adv-x="821" 
d="M35 1413h643q50 0 68.5 -28t3.5 -82l-357 -1303h-135l326 1204q9 34 32 94h-573z" />
    <glyph glyph-name="eight" unicode="8" horiz-adv-x="1001" 
d="M500 1432q108 0 178 -21t110.5 -69t56 -114t15.5 -167q0 -302 -164 -324v-8q103 -13 146 -106t43 -271q0 -103 -16.5 -168.5t-59.5 -112.5t-117.5 -67t-191.5 -22q-114 -1 -188.5 19.5t-117.5 67.5t-60 114t-17 169q0 179 41.5 271.5t144.5 105.5v8q-162 23 -162 324
q0 100 16 166.5t56.5 114t110.5 69t176 21.5zM502 1321q-142 0 -190 -57t-48 -213q0 -68 7 -112t21.5 -75t44 -47t68 -22.5t99.5 -6.5q77 0 120 10t69 41t34 78.5t8 133.5q0 80 -9 128.5t-34.5 82t-70.5 46.5t-119 13zM504 678q-83 -1 -130 -12t-78.5 -45.5t-41.5 -90
t-10 -153.5q0 -159 53 -219t205 -60q79 0 128 14t77.5 48.5t38.5 84.5t10 132q0 66 -4 111.5t-16 80.5t-29 55t-47 32.5t-66 17t-90 4.5z" />
    <glyph glyph-name="nine" unicode="9" horiz-adv-x="942" 
d="M453 1438q63 0 111.5 -8t87 -28t65.5 -46.5t46.5 -72t31.5 -95t18.5 -124.5t9 -152.5t2.5 -186.5q-1 -161 -11 -277.5t-34 -200.5t-56 -136.5t-83.5 -83t-110 -41.5t-141.5 -11q-144 0 -242 29l13 98q98 -10 227 -10q71 0 117.5 13.5t84.5 48t59 99t32.5 162t13.5 240.5
q-62 -89 -128 -123t-167 -34q-166 0 -236.5 118.5t-70.5 341.5q0 243 82 361.5t279 118.5zM434 606q74 0 131 31.5t129 116.5q0 74 -0.5 122t-2.5 103.5t-5.5 89.5t-10 72.5t-16 60.5t-23 45.5t-30.5 35t-40 22.5t-50.5 14.5t-62.5 3.5q-71 0 -117.5 -24t-71 -74t-34 -113
t-9.5 -156q0 -178 46.5 -264t166.5 -86z" />
    <glyph glyph-name="colon" unicode=":" horiz-adv-x="382" 
d="M166 895h45q26 0 37.5 -11.5t11.5 -39.5v-117q0 -28 -11.5 -39.5t-37.5 -11.5h-45q-27 0 -38 11.5t-11 39.5v117q0 28 11 39.5t38 11.5zM166 219h45q26 0 37.5 -11.5t11.5 -39.5v-117q0 -28 -11.5 -39.5t-37.5 -11.5h-45q-27 0 -38 11.5t-11 39.5v117q0 28 11 39.5
t38 11.5z" />
    <glyph glyph-name="semicolon" unicode=";" horiz-adv-x="387" 
d="M174 895h43q26 0 37.5 -11.5t11.5 -39.5v-117q0 -28 -11.5 -39.5t-37.5 -11.5h-43q-28 0 -39.5 11.5t-11.5 39.5v117q0 28 11.5 39.5t39.5 11.5zM176 219h39q27 0 37 -11.5t10 -39.5v-131q-3 -165 -53 -295l-64 18q17 139 17 240q-37 0 -37 43v125q1 28 13 39.5t38 11.5z
" />
    <glyph glyph-name="less" unicode="&#x3c;" horiz-adv-x="876" 
d="M758 918l-553 -310l553 -301v-106l-668 354v104l668 365v-106z" />
    <glyph glyph-name="equal" unicode="=" horiz-adv-x="964" 
d="M842 764h-719v100h719v-100zM842 332h-719v100h719v-100z" />
    <glyph glyph-name="greater" unicode="&#x3e;" horiz-adv-x="876" 
d="M786 659v-104l-667 -354v106l553 301l-553 310v106z" />
    <glyph glyph-name="question" unicode="?" horiz-adv-x="831" 
d="M426 1458q167 0 250.5 -78t83.5 -239q0 -63 -16 -118t-42 -97.5t-57.5 -83t-63.5 -83.5t-58.5 -89t-44 -109t-19.5 -135h-113q-1 78 13.5 146t39 117t53.5 93t59 83t54.5 76.5t40.5 84t17 96.5q2 116 -52 171t-172 55q-47 0 -83 -1t-71 -4t-51.5 -5t-59 -7.5t-58.5 -7.5
l-8 94q15 3 51 10.5t50 10.5t46.5 8t58 7t65.5 3.5t87 1.5zM385 219h35q26 0 37.5 -11.5t11.5 -39.5v-117q0 -28 -11.5 -39.5t-37.5 -11.5h-35q-27 0 -38 11.5t-11 39.5v117q0 28 11 39.5t38 11.5z" />
    <glyph glyph-name="at" unicode="@" horiz-adv-x="1177" 
d="M578 1184h235q121 0 182.5 -64t61.5 -209v-643h-96l-15 158q-52 -65 -144.5 -118.5t-187.5 -53.5q-98 0 -156.5 60t-58.5 173v107q0 99 48.5 153t140.5 54h346v106q0 86 -31.5 127t-111.5 41h-213q-61 0 -97.5 -1.5t-75.5 -10.5t-58.5 -22t-40.5 -42t-29 -64t-16 -94.5
t-9.5 -127.5t-1.5 -168q0 -83 1 -142.5t6.5 -114.5t10.5 -91t18.5 -69t26 -51.5t38 -34.5t48 -23t63 -12t76 -6t93.5 -1h424v-98q-229 -13 -422 -13q-72 -1 -125 0.5t-102.5 9.5t-83 18t-64 31.5t-49.5 46t-35 65t-24 83.5t-14 107.5t-7.5 131.5t-1.5 161q0 114 2.5 190
t11.5 147.5t21.5 113.5t38 80t56 56t80 32t105 18t136.5 4zM934 721l-301 -8q-59 -3 -85 -34.5t-26 -98.5v-72q0 -148 115 -148q72 -2 156 40t141 108v213z" />
    <glyph glyph-name="A" unicode="A" horiz-adv-x="1021" 
d="M745 467h-469l-118 -467h-140l369 1374q9 39 51 39h146q40 0 49 -39l371 -1374h-140zM715 584l-154 608q-26 103 -29 115h-43q-8 -37 -28 -115l-156 -608h410z" />
    <glyph glyph-name="B" unicode="B" horiz-adv-x="1021" 
d="M696 737v-8q123 -13 174.5 -106.5t51.5 -270.5q0 -110 -19 -180.5t-64 -112.5t-110.5 -58.5t-167.5 -16.5q-269 0 -414 16v1413q137 17 363 17q109 0 178.5 -16.5t116 -59t65.5 -113t19 -180.5q0 -154 -46.5 -233t-146.5 -91zM758 1047q0 82 -12.5 133.5t-44 82t-77 41.5
t-118.5 11q-166 0 -225 -2v-529h247q88 1 136 23t71 78.5t23 161.5zM541 98q141 0 193 55t52 218q0 92 -13 150t-44.5 93.5t-78 49.5t-120.5 16h-249v-580q68 -2 260 -2z" />
    <glyph glyph-name="C" unicode="C" horiz-adv-x="946" 
d="M547 1438q106 0 171.5 -8.5t135.5 -30.5l-14 -101q-133 19 -293 19q-114 0 -178.5 -57.5t-93.5 -188.5t-29 -364t29 -364t93.5 -189t178.5 -58q186 0 315 23l17 -101q-133 -43 -332 -43q-166 0 -261.5 71.5t-138.5 229.5t-43 431q0 205 23 342t76 225t136 126t208 38z
" />
    <glyph glyph-name="D" unicode="D" horiz-adv-x="1095" 
d="M549 1432q165 0 260 -69t138.5 -226t43.5 -430t-43.5 -430t-138.5 -226t-260 -69q-191 0 -402 18v1413q222 19 402 19zM549 100q113 0 177.5 58t93 188.5t28.5 360.5t-28.5 360.5t-93 189t-177.5 58.5q-106 0 -266 -4v-1207q152 -4 266 -4z" />
    <glyph glyph-name="E" unicode="E" horiz-adv-x="923" 
d="M831 113l7 -103q-152 -12 -488 -12q-98 0 -155.5 63.5t-57.5 169.5v951q0 106 58 169.5t155 63.5q336 0 488 -12l-7 -103h-458q-101 0 -101 -149v-346h496v-109h-496v-436q0 -147 101 -147h458z" />
    <glyph glyph-name="F" unicode="F" horiz-adv-x="886" 
d="M821 1300h-432q-110 0 -110 -149v-363h479v-108l-479 -2v-678h-138v1176q0 110 58.5 174.5t156.5 64.5q323 0 473 -12z" />
    <glyph glyph-name="G" unicode="G" horiz-adv-x="1034" 
d="M920 817v-817h-99l-16 154q-59 -78 -145.5 -128.5t-194.5 -50.5q-191 0 -276 175.5t-85 558.5q0 279 46 436t146.5 225t278.5 68q184 0 316 -39l-14 -101q-153 21 -295 21q-130 0 -200 -51t-103 -183.5t-33 -382.5q0 -331 57.5 -470.5t196.5 -139.5q57 0 112.5 25
t90.5 53.5t85 77.5v569h132z" />
    <glyph glyph-name="H" unicode="H" horiz-adv-x="1101" 
d="M954 1413v-1413h-135v698h-536v-698h-136v1413h136v-600h536v600h135z" />
    <glyph glyph-name="I" unicode="I" horiz-adv-x="428" 
d="M283 0h-136v1413h136v-1413z" />
    <glyph glyph-name="J" unicode="J" horiz-adv-x="557" 
d="M418 1413v-1139q0 -142 -56.5 -216t-162.5 -74q-74 0 -148 20l15 94h84q133 0 133 172v1143h135z" />
    <glyph glyph-name="K" unicode="K" horiz-adv-x="970" 
d="M408 682h-138q11 -101 11 -160v-522h-134v1413h134v-457q0 -66 -11 -163h140l356 620h147l-344 -596q-27 -49 -61 -78v-6q48 -45 70 -84l358 -649h-152z" />
    <glyph glyph-name="L" unicode="L" horiz-adv-x="845" 
d="M276 1413v-1151q0 -149 113 -149h414l6 -103q-174 -12 -442 -12q-116 0 -171 66.5t-55 179.5v1169h135z" />
    <glyph glyph-name="M" unicode="M" horiz-adv-x="1439" 
d="M1059 1413h155q55 0 58 -59l47 -1354h-133l-41 1300h-39l-262 -1107q-15 -46 -60 -46h-127q-46 0 -61 46l-264 1107h-37l-39 -1300h-133l45 1354q3 59 57 59h158q45 0 57 -47l219 -922q42 -174 46 -192h30q14 67 45 194l219 920q12 47 60 47z" />
    <glyph glyph-name="N" unicode="N" horiz-adv-x="1161" 
d="M1014 1413v-1356q0 -57 -53 -57h-150q-48 0 -59 45l-387 1073q-20 65 -60 170h-24v-170l2 -1118h-136v1356q0 57 54 57h145q51 0 62 -45l374 -1049q9 -28 68 -190h31q-2 68 -2 203v1081h135z" />
    <glyph glyph-name="O" unicode="O" 
d="M551 1438q167 0 262.5 -69.5t139.5 -227.5t44 -434q0 -208 -23 -345.5t-77 -225t-137.5 -124.5t-208.5 -37q-169 0 -265 70t-139 227.5t-43 434.5t43.5 434.5t139 227t264.5 69.5zM551 1319q-116 0 -181.5 -58.5t-94.5 -189.5t-29 -364t29 -364.5t94.5 -190t181.5 -58.5
q115 0 180 58.5t94 190t29 364.5q0 175 -15 289.5t-51.5 188t-93 104t-143.5 30.5z" />
    <glyph glyph-name="P" unicode="P" horiz-adv-x="970" 
d="M535 1430q139 0 215 -38.5t110.5 -131t34.5 -263.5t-34 -264t-106.5 -130.5t-203.5 -37.5q-133 0 -268 15v-580h-136v1413q149 17 388 17zM283 682h249q88 0 135.5 27t70 94.5t22.5 193.5q0 186 -49 252t-179 66q-183 0 -249 -2v-631z" />
    <glyph glyph-name="Q" unicode="Q" horiz-adv-x="1101" 
d="M551 1438q168 0 263.5 -69.5t139 -227t43.5 -434.5t-43.5 -434.5t-139 -227.5t-263.5 -70t-264 70t-139.5 227.5t-43.5 434.5t43.5 434.5t139.5 227t264 69.5zM551 1319q-116 0 -181.5 -58.5t-94.5 -189.5t-29 -364t29 -364.5t94.5 -190t181.5 -58.5t181.5 58.5t94.5 190
t29 364.5t-29 364t-94.5 189.5t-181.5 58.5zM446 -174l39 80q181 -110 430 -154l-43 -135q-226 49 -426 209z" />
    <glyph glyph-name="R" unicode="R" horiz-adv-x="1017" 
d="M940 0h-143l-105 444q-21 87 -57 124.5t-94 37.5q-61 0 -148 1t-112 1v-608h-134v1413q149 17 390 17q101 0 167 -18.5t111 -65t64.5 -124t19.5 -196.5q0 -179 -47.5 -264t-161.5 -105v-8q45 -16 83.5 -68t57.5 -132zM281 723h251q89 1 137.5 27t71.5 90t23 180
q0 172 -50.5 233.5t-181.5 61.5q-54 0 -138 -1t-113 -1v-590z" />
    <glyph glyph-name="S" unicode="S" horiz-adv-x="925" 
d="M459 1436q187 0 336 -33l-11 -98q-188 12 -317 12q-50 0 -77 -1.5t-59 -9.5t-47.5 -23.5t-30 -43.5t-19.5 -70.5t-5 -103.5q0 -126 34 -182.5t114 -77.5l231 -62q128 -32 180 -122.5t52 -264.5q0 -82 -9.5 -142.5t-31 -102.5t-50 -68.5t-74 -41t-95 -19.5t-119.5 -5
q-187 0 -352 31l10 101q242 -13 346 -13q72 1 113 10t71.5 37.5t41.5 79t11 135.5q0 133 -33.5 188.5t-113.5 76.5l-238 63q-121 30 -173 122t-52 261q0 83 9 143t30.5 101t49 65.5t72 37.5t91 17t115.5 3z" />
    <glyph glyph-name="T" unicode="T" horiz-adv-x="954" 
d="M913 1294h-368v-1294h-137v1294h-367v119h872v-119z" />
    <glyph glyph-name="U" unicode="U" 
d="M961 1413v-878q0 -305 -92 -432.5t-314 -127.5q-228 0 -322 127.5t-94 432.5v878h135v-878q0 -244 61.5 -342.5t213.5 -98.5t214 98.5t62 342.5v878h136z" />
    <glyph glyph-name="V" unicode="V" horiz-adv-x="1001" 
d="M973 1413l-350 -1374q-5 -17 -19 -28t-33 -11h-139q-43 0 -53 39l-350 1374h141l274 -1153q24 -87 37 -154h41q6 31 35 154l274 1153h142z" />
    <glyph glyph-name="W" unicode="W" horiz-adv-x="1560" 
d="M1507 1413l-237 -1372q-10 -41 -53 -41h-158q-43 0 -53 43l-183 1108q-15 101 -26 158h-35q-5 -25 -13.5 -78t-13.5 -80l-180 -1108q-10 -43 -55 -43h-158q-43 0 -53 41l-238 1372h144l184 -1145q15 -81 24 -164h39q4 31 14 85t13 77l182 1100q3 22 17.5 34.5t36.5 12.5
h149q45 0 55 -47l181 -1100q14 -75 24 -162h41q21 141 25 160l186 1149h141z" />
    <glyph glyph-name="X" unicode="X" horiz-adv-x="1003" 
d="M524 684h-45l-291 -684h-145l324 733l-304 680h146l266 -625h53l267 625h145l-303 -680l324 -733h-148z" />
    <glyph glyph-name="Y" unicode="Y" horiz-adv-x="931" 
d="M532 506v-506h-133v506l-381 907h146l244 -620q14 -34 53 -152h12q23 79 51 150l244 622h141z" />
    <glyph glyph-name="Z" unicode="Z" horiz-adv-x="931" 
d="M852 115v-115h-772v115l620 1183h-610v115h752v-115l-619 -1183h629z" />
    <glyph glyph-name="bracketleft" unicode="[" horiz-adv-x="538" 
d="M469 1483h-170q-9 0 -17 -8.5t-8 -20.5v-1673q0 -12 8 -20.5t17 -8.5h170v-90h-231q-38 0 -61 24t-23 70v1723q0 41 23.5 67.5t60.5 26.5h231v-90z" />
    <glyph glyph-name="backslash" unicode="\" horiz-adv-x="847" 
d="M803 -129h-111l-647 1542h111z" />
    <glyph glyph-name="bracketright" unicode="]" horiz-adv-x="538" 
d="M70 1573h231q37 0 61.5 -26.5t24.5 -67.5v-1723q0 -41 -24.5 -67.5t-61.5 -26.5h-231v90h168q10 0 17 8.5t7 20.5v1673q0 12 -7 20.5t-17 8.5h-168v90z" />
    <glyph glyph-name="asciicircum" unicode="^" horiz-adv-x="696" 
d="M647 791l-53 -39l-238 362h-14l-238 -362l-55 39l252 419h94z" />
    <glyph glyph-name="underscore" unicode="_" horiz-adv-x="720" 
d="M721 -102h-721v102h721v-102z" />
    <glyph glyph-name="grave" unicode="`" horiz-adv-x="514" 
d="M408 1171l-48 -61l-309 262l76 98z" />
    <glyph glyph-name="a" unicode="a" horiz-adv-x="903" 
d="M508 1018q137 0 203.5 -70t66.5 -235v-713h-102l-17 164q-56 -71 -145.5 -125.5t-189.5 -54.5q-108 0 -172 70t-64 198v115q0 115 57 178t160 63h342v105q-2 99 -37.5 145.5t-126.5 46.5q-131 0 -350 -28l-12 96q254 45 387 45zM348 98q65 -2 147.5 41.5t151.5 118.5v250
l-317 -4q-58 -3 -83.5 -41t-25.5 -113v-86q0 -166 127 -166z" />
    <glyph glyph-name="b" unicode="b" horiz-adv-x="937" 
d="M555 1018q152 0 221.5 -121t69.5 -399q0 -275 -77.5 -399t-274.5 -124q-87 0 -187 18t-178 50v1391h131v-398q0 -118 -16 -211q154 193 311 193zM492 88q119 0 169 92t50 318q0 229 -41.5 317t-157.5 88q-60 0 -117 -39.5t-137 -124.5l2 -614q112 -40 232 -37z" />
    <glyph glyph-name="c" unicode="c" horiz-adv-x="802" 
d="M473 1018q154 0 254 -45l-18 -84q-93 16 -215 16q-100 0 -156 -36.5t-82.5 -124.5t-26.5 -248q0 -159 26.5 -247.5t82.5 -124.5t156 -36q130 0 235 23l12 -91q-121 -45 -270 -45q-208 0 -293.5 117t-85.5 404t86 404.5t295 117.5z" />
    <glyph glyph-name="d" unicode="d" horiz-adv-x="942" 
d="M811 1434v-1434h-102l-13 150q-151 -175 -317 -175q-152 0 -218.5 126t-66.5 397q0 281 72.5 400.5t228.5 119.5q151 0 293 -94q-8 88 -8 192v318h131zM420 90q63 0 115.5 33.5t144.5 120.5v590q-84 37 -138 53t-114 16q-75 0 -117 -36t-62 -123.5t-20 -243.5
q0 -231 43 -320.5t148 -89.5z" />
    <glyph glyph-name="e" unicode="e" horiz-adv-x="884" 
d="M487 88q114 0 281 25l12 -88q-51 -23 -141 -36.5t-168 -13.5q-205 0 -292 120t-87 405q0 286 85 402t282 116q176 0 258 -76.5t82 -232.5q3 -277 -189 -277h-379q5 -134 33.5 -209.5t81 -105t141.5 -29.5zM465 905q-131 0 -182 -80t-54 -290h349q94 0 90 172
q0 105 -47.5 151.5t-155.5 46.5z" />
    <glyph glyph-name="f" unicode="f" horiz-adv-x="622" 
d="M635 1358h-166q-81 0 -113 -42.5t-32 -146.5v-178h260v-102h-260v-889h-131v889h-146v92l146 10v191q0 142 54 213t177 71q130 0 221 -12z" />
    <glyph glyph-name="g" unicode="g" horiz-adv-x="917" 
d="M872 918l-131 -11q45 -71 45 -202q0 -165 -76.5 -238.5t-263.5 -73.5q-107 0 -172 23q-20 -41 -23 -82.5t17 -75.5t64 -43l301 -63q110 -22 155.5 -85t45.5 -190q0 -167 -82.5 -232t-296.5 -65q-216 0 -300.5 64.5t-84.5 230.5q0 96 30.5 153t112.5 107
q-72 54 -70.5 152.5t64.5 158.5q-103 68 -103 259q0 165 77.5 239t264.5 74q114 0 185 -27h250zM446 494q121 0 169.5 49t48.5 162q0 112 -48.5 161t-169.5 49q-123 0 -173 -49t-50 -161t50.5 -161.5t172.5 -49.5zM707 -115q0 84 -28 117.5t-112 50.5l-268 53l-2 -2
q-59 -51 -78.5 -98t-19.5 -117q0 -117 50.5 -157.5t199.5 -40.5q154 0 206 39.5t52 154.5z" />
    <glyph glyph-name="h" unicode="h" horiz-adv-x="954" 
d="M610 1018q107 0 162 -69.5t55 -203.5v-745h-129v711q0 105 -28.5 149.5t-94.5 44.5q-68 0 -136.5 -39t-176.5 -129v-737h-131v1434h131v-412q0 -101 -10 -193q195 189 358 189z" />
    <glyph glyph-name="i" unicode="i" horiz-adv-x="407" 
d="M172 1409h61q41 0 41 -43v-119q0 -43 -41 -43h-61q-39 0 -39 43v119q0 43 39 43zM268 0h-129v991h129v-991z" />
    <glyph glyph-name="j" unicode="j" horiz-adv-x="407" 
d="M174 1409h62q40 0 40 -43v-119q0 -43 -40 -43h-62q-41 0 -41 43v119q0 43 41 43zM270 991v-1040q0 -111 -40 -208t-111 -165l-72 57q92 142 92 316v1040h131z" />
    <glyph glyph-name="k" unicode="k" horiz-adv-x="833" 
d="M360 514h-106q8 -114 8 -166v-348h-131v1434h131v-652q0 -97 -8 -170h106l265 379h149l-254 -370q-26 -37 -55 -58v-4q30 -26 55 -70l281 -489h-148z" />
    <glyph glyph-name="l" unicode="l" horiz-adv-x="485" 
d="M264 1434l-2 -1188q0 -70 28.5 -107t82.5 -37h80l16 -98q-52 -20 -143 -20q-89 0 -141 61.5t-52 175.5v1213h131z" />
    <glyph glyph-name="m" unicode="m" horiz-adv-x="1443" 
d="M1104 1018q104 0 158.5 -69.5t54.5 -203.5v-745h-127v711q-2 102 -32 148t-97 46q-60 0 -115.5 -36.5t-157.5 -131.5v-737h-126v711q1 102 -31 148t-99 46q-58 0 -114.5 -36.5t-155.5 -131.5v-737h-131v991h107l8 -162q171 189 329 189q170 0 205 -182q164 182 324 182z
" />
    <glyph glyph-name="n" unicode="n" horiz-adv-x="954" 
d="M612 1018q106 0 161.5 -70t55.5 -203v-745h-131v711q0 105 -27.5 149.5t-92.5 44.5q-68 0 -138 -40t-178 -130v-735h-131v991h111l8 -162q195 189 362 189z" />
    <glyph glyph-name="o" unicode="o" horiz-adv-x="933" 
d="M467 1018q205 0 290 -118t85 -404t-84.5 -403.5t-290.5 -117.5q-204 0 -289.5 118t-85.5 403t85.5 403.5t289.5 118.5zM467 905q-91 0 -141.5 -37.5t-73.5 -125.5t-23 -246q0 -159 23 -246.5t73.5 -125.5t141.5 -38q136 0 188 88t52 322t-52 321.5t-188 87.5z" />
    <glyph glyph-name="p" unicode="p" horiz-adv-x="954" 
d="M582 1018q147 0 212.5 -127.5t65.5 -398.5q0 -279 -73 -398t-232 -119q-154 0 -299 103q6 -68 6 -195v-301h-131v1409h107l12 -162q67 89 156 139t176 50zM524 90q75 0 117 36.5t62 124t20 243.5q0 226 -41.5 317.5t-140.5 91.5q-65 0 -129.5 -40t-149.5 -130v-569
q88 -39 145.5 -56.5t116.5 -17.5z" />
    <glyph glyph-name="q" unicode="q" horiz-adv-x="937" 
d="M451 1018q80 0 179.5 -18.5t178.5 -51.5v-1366h-129l-2 365q0 120 12 196q-162 -168 -321 -168q-142 0 -209.5 125t-67.5 394q0 278 79 401t280 123zM410 90q69 0 128 35.5t142 114.5v626q-120 42 -229 39q-84 -1 -131.5 -38.5t-70 -128t-22.5 -253.5q0 -213 40 -304
t143 -91z" />
    <glyph glyph-name="r" unicode="r" horiz-adv-x="657" 
d="M627 1018l-15 -123h-45q-64 0 -129.5 -35t-175.5 -117v-743h-131v991h102l13 -164q188 191 346 191h35z" />
    <glyph glyph-name="s" unicode="s" horiz-adv-x="835" 
d="M395 1018q187 -4 336 -31l-12 -94q-200 12 -305 12q-32 1 -58.5 0t-47.5 -3t-37 -9t-27 -17.5t-18 -28t-10 -41.5t-3 -58q0 -84 26.5 -117t90.5 -49l237 -58q97 -24 142 -84.5t45 -181.5q0 -73 -14 -123.5t-39 -81.5t-69.5 -48t-94.5 -22.5t-125 -5.5q-166 0 -312 27
l11 96q120 -15 276 -12q73 1 115 7t72.5 24.5t41.5 51t11 87.5q0 81 -31 114t-96 48l-234 57q-98 23 -140 85t-42 186q0 71 12.5 119.5t34.5 78.5t62.5 46t86 21.5t115.5 4.5z" />
    <glyph glyph-name="t" unicode="t" horiz-adv-x="622" 
d="M319 889v-643q0 -75 26.5 -109.5t84.5 -34.5h125l16 -98q-85 -20 -178 -20q-101 0 -152 63t-51 184v658h-145v92l145 10v301h129v-301h261v-102h-261z" />
    <glyph glyph-name="u" unicode="u" horiz-adv-x="937" 
d="M807 991v-991h-105l-12 150q-181 -175 -346 -175q-107 0 -162 68.5t-55 202.5v745h131v-710q-2 -103 28.5 -148t100.5 -45q64 0 128 38t163 124v741h129z" />
    <glyph glyph-name="v" unicode="v" horiz-adv-x="870" 
d="M840 991l-299 -958q-13 -33 -45 -33h-121q-15 0 -28 9t-17 24l-297 958h139l203 -717l49 -178h20q47 153 54 180l202 715h140z" />
    <glyph glyph-name="w" unicode="w" horiz-adv-x="1355" 
d="M1313 991l-238 -952q-9 -39 -51 -39h-121q-20 0 -35 11.5t-18 31.5l-135 711q-14 89 -29 153h-18q-4 -25 -29 -153l-135 -711q-1 -20 -16 -31.5t-37 -11.5h-119q-42 0 -51 39l-240 952h135l174 -760q5 -23 14.5 -71t14.5 -72h20q28 138 29 143l137 719q7 41 51 41h125
q19 0 33 -11.5t17 -31.5l135 -717q20 -94 28 -143h25q16 98 27 143l172 760h135z" />
    <glyph glyph-name="x" unicode="x" horiz-adv-x="864" 
d="M449 465h-31l-236 -465h-143l272 514l-252 477h142l213 -422h39l213 422h141l-252 -477l270 -514h-141z" />
    <glyph glyph-name="y" unicode="y" horiz-adv-x="866" 
d="M836 991l-324 -1061q-18 -55 -38 -100.5t-50 -90.5t-65.5 -77.5t-84.5 -55.5t-106 -30l-12 84q93 39 146.5 109t86.5 176l21 55h-35q-37 0 -49 35l-293 956h139l219 -774q31 -114 31 -115h22q28 90 35 117l215 772h142z" />
    <glyph glyph-name="z" unicode="z" horiz-adv-x="839" 
d="M758 109v-109h-676v109l530 776h-526v106h666v-106l-529 -776h535z" />
    <glyph glyph-name="braceleft" unicode="{" horiz-adv-x="524" 
d="M451 1573v-84q-85 0 -117.5 -44.5t-32.5 -146.5v-387q0 -123 -29 -170t-116 -69q90 -34 120 -79.5t31 -152.5v-503q0 -102 32.5 -146.5t117.5 -44.5v-84q-145 -9 -210 56.5t-65 209.5v537q0 39 -4 62.5t-18.5 40t-26.5 24.5t-43 23l-12 6v102q57 24 70 36q23 22 26 97v31
v420q0 144 66 209.5t211 56.5z" />
    <glyph glyph-name="bar" unicode="|" horiz-adv-x="403" 
d="M250 -346h-96v1945h96v-1945z" />
    <glyph glyph-name="braceright" unicode="}" horiz-adv-x="524" 
d="M74 1489v84q145 9 210.5 -56.5t65.5 -209.5v-420q0 -63 7.5 -91.5t23 -40.5t54.5 -28q7 -2 11 -4v-102l-12 -6q-31 -15 -43.5 -23t-26.5 -24.5t-18 -40t-4 -62.5v-537q0 -144 -64.5 -209.5t-209.5 -56.5v84q85 0 117 44.5t32 146.5v503q1 107 31.5 152.5t120.5 79.5
q-87 22 -116.5 69t-29.5 170v387q0 102 -32 146.5t-117 44.5z" />
    <glyph glyph-name="asciitilde" unicode="~" horiz-adv-x="866" 
d="M256 698q50 -3 112 -32.5t122.5 -59.5t103.5 -35q45 -4 61.5 22.5t16.5 94.5h67q10 -107 -26 -163.5t-101 -51.5q-57 3 -120.5 32t-121.5 58.5t-98 34.5q-43 6 -59 -22.5t-16 -98.5h-70q-9 111 28 168.5t101 52.5z" />
    <glyph glyph-name="uni00A0" unicode="&#xa0;" horiz-adv-x="368" 
 />
    <glyph glyph-name="exclamdown" unicode="&#xa1;" horiz-adv-x="419" 
d="M193 999h34q27 0 38 -11t11 -38v-119q0 -27 -11 -38t-38 -11h-34q-28 0 -39 10.5t-11 38.5v119q0 28 11 38.5t39 10.5zM274 229v-637h-131v637l13 344h106z" />
    <glyph glyph-name="cent" unicode="&#xa2;" horiz-adv-x="837" 
d="M727 330l14 -90q-121 -45 -262 -45l-14 -195h-70l15 197q-173 15 -245.5 135t-72.5 385q0 285 86 402.5t293 117.5h6l17 176h69l-12 -180q114 -12 176 -39l-18 -90q-76 14 -168 18l-52 -815h5q131 0 233 23zM223 717q0 -206 44 -296.5t153 -107.5l49 811
q-93 -4 -145.5 -43t-76.5 -125.5t-24 -238.5z" />
    <glyph glyph-name="sterling" unicode="&#xa3;" horiz-adv-x="935" 
d="M852 115v-115h-750v115q81 56 108.5 156.5t20.5 252.5l-8 178h-129v82h127l-12 287q-3 79 4.5 138.5t26.5 99.5t44 65.5t64 38.5t78 18t94 5q118 0 293 -21l-8 -104q-110 10 -291 10q-101 0 -140 -56t-34 -194l14 -287h357l-4 -82h-349l9 -178q5 -150 -22 -248t-97 -165
q35 4 108 4h496z" />
    <glyph glyph-name="currency" unicode="&#xa4;" horiz-adv-x="980" 
d="M811 721q0 -139 -72 -248l127 -154l-61 -59l-119 148q-84 -84 -197 -84q-110 0 -198 82l-117 -146l-61 64l123 151q-70 111 -70 246q0 139 72 248l-121 149l57 62l117 -146q87 84 198 84q113 0 199 -86l119 148l59 -62l-125 -151q70 -111 70 -246zM489 406
q97 0 168.5 92.5t71.5 222.5t-70.5 222.5t-169.5 92.5q-100 0 -170.5 -92.5t-70.5 -222.5t70.5 -222.5t170.5 -92.5z" />
    <glyph glyph-name="yen" unicode="&#xa5;" horiz-adv-x="1015" 
d="M616 649h256v-82h-290l-7 -12v-135h297v-82h-297v-338h-135v338h-286l-2 82h288v135l-6 12h-280l-4 82h249l-338 764h142l243 -584q18 -44 58 -153h12q28 86 53 151l244 586h139z" />
    <glyph glyph-name="brokenbar" unicode="&#xa6;" horiz-adv-x="407" 
d="M252 780h-96v819h96v-819zM252 -346h-96v819h96v-819z" />
    <glyph glyph-name="section" unicode="&#xa7;" horiz-adv-x="899" 
d="M428 1438q167 0 356 -25l-8 -100q-148 12 -317 14q-46 1 -72.5 -0.5t-57.5 -8.5t-46.5 -22t-26.5 -41.5t-12 -66.5q-1 -74 27 -122t83 -89l273 -199q77 -51 115 -119.5t41 -154.5t-15 -197h-94q9 140 -16 225.5t-99 137.5l-287 209q-88 68 -128 135.5t-40 175.5
q0 63 14.5 108t40 72t67.5 42.5t89 21t113 4.5zM131 815h96q-9 -143 14.5 -223.5t98.5 -134.5l289 -209q84 -64 125 -134t41 -180q0 -68 -16 -115.5t-41.5 -74t-70 -41t-87 -18t-107.5 -2.5q-175 0 -360 24l12 100q198 -14 315 -14q39 -1 61 0t50.5 5t44 13t31 25t22 41.5
t6.5 61.5q2 130 -108 211l-273 198q-77 50 -115 117t-41.5 152.5t13.5 197.5z" />
    <glyph glyph-name="dieresis" unicode="&#xa8;" horiz-adv-x="675" 
d="M170 1405h45q37 0 37 -41v-113q0 -39 -37 -39h-45q-35 0 -35 39v113q0 41 35 41zM463 1405h43q39 0 39 -41v-113q0 -39 -39 -39h-43q-37 0 -37 39v113q0 41 37 41z" />
    <glyph glyph-name="copyright" unicode="&#xa9;" horiz-adv-x="1382" 
d="M690 1438q164 0 299.5 -93.5t215 -261.5t79.5 -376q0 -156 -46.5 -293t-126.5 -232.5t-189.5 -151t-231.5 -55.5t-231 55.5t-188.5 151t-126 232.5t-46.5 293q0 208 79.5 376t214.5 261.5t298 93.5zM690 1362q-140 0 -258.5 -83.5t-189 -235t-70.5 -336.5t70.5 -336.5
t189 -235.5t258.5 -84q141 0 259.5 84t188.5 235t70 337q0 185 -70 336t-188.5 235t-259.5 84zM698 1171q140 0 222 -26l-11 -76q-90 10 -211 10q-123 0 -170 -80t-47 -286q0 -208 47 -288.5t170 -80.5q148 0 230 12l10 -75q-110 -29 -240 -29q-177 0 -249 103.5t-72 357.5
q0 252 72 355t249 103z" />
    <glyph glyph-name="ordfeminine" unicode="&#xaa;" horiz-adv-x="727" 
d="M420 1239q92 0 138 -49t46 -162v-473h-78l-14 121q-43 -52 -107.5 -91.5t-136.5 -39.5q-73 0 -116 45.5t-43 128.5v80q0 77 39.5 119.5t111.5 42.5h246v69q0 123 -107 123q-101 0 -256 -18l-10 73q173 31 287 31zM299 633q47 -1 104.5 29t102.5 75v164l-215 -12
q-46 -3 -65 -26.5t-19 -69.5v-56q0 -55 22.5 -79.5t69.5 -24.5z" />
    <glyph glyph-name="guillemotleft" unicode="&#xab;" horiz-adv-x="794" 
d="M408 891l-211 -377l213 -383l-70 -45l-266 412v32l264 406zM702 891l-210 -377l213 -383l-70 -45l-266 412v32l264 406z" />
    <glyph glyph-name="logicalnot" unicode="&#xac;" horiz-adv-x="972" 
d="M842 659v-391h-101v289h-618v102h719z" />
    <glyph glyph-name="softhyphen" unicode="&#xad;" horiz-adv-x="743" 
d="M625 465h-504v102h504v-102z" />
    <glyph glyph-name="registered" unicode="&#xae;" horiz-adv-x="915" 
d="M459 1436q152 0 258 -133t106 -322q0 -191 -106 -324t-258 -133q-101 0 -185.5 61t-133 166t-48.5 230q0 189 107 322t260 133zM459 575q130 0 222.5 119.5t92.5 286.5q0 169 -92 287t-223 118q-132 0 -225 -118t-93 -287q0 -168 93 -287t225 -119zM662 709h-68l-47 168
q-19 63 -70 63q-92 0 -121 2v-233h-63v546q67 7 180 7q93 0 131.5 -33.5t38.5 -122.5q0 -67 -22.5 -100.5t-75.5 -40.5v-4q49 -11 63 -80zM356 989h117q61 2 84 25.5t23 85.5q0 65 -22.5 86.5t-84.5 21.5h-117v-219z" />
    <glyph glyph-name="macron" unicode="&#xaf;" horiz-adv-x="659" 
d="M559 1260h-459v100h459v-100z" />
    <glyph glyph-name="degree" unicode="&#xb0;" horiz-adv-x="602" 
d="M301 1438q87 0 150 -75.5t63 -180.5q0 -106 -63 -183t-150 -77t-150 77t-63 183t62.5 181t150.5 75zM301 1356q-54 0 -91.5 -50t-37.5 -124q0 -72 37.5 -124t91.5 -52q53 0 91 52t38 124q0 74 -37.5 124t-91.5 50z" />
    <glyph glyph-name="plusminus" unicode="&#xb1;" horiz-adv-x="970" 
d="M846 776v-100h-311v-283h-101v283h-307v100h307v283h103v-283h309zM127 260h719v-100h-719v100z" />
    <glyph glyph-name="twosuperior" unicode="&#xb2;" horiz-adv-x="716" 
d="M338 1599q132 0 189 -37t57 -149q0 -72 -32.5 -141.5t-105.5 -165.5l-215 -279q79 4 119 2h262v-92h-510v58q0 23 17 47l217 282q70 91 102.5 157t32.5 126q1 64 -32 84t-105 20q-99 0 -219 -20l-6 78q116 30 229 30z" />
    <glyph glyph-name="threesuperior" unicode="&#xb3;" horiz-adv-x="688" 
d="M330 1599q136 0 188.5 -42t52.5 -152q0 -90 -28 -145.5t-97 -69.5v-4q78 -13 110 -66t34 -147q2 -131 -55 -190.5t-191 -59.5q-88 0 -244 20l6 78q114 -12 213 -12q91 0 127.5 39t36.5 137q0 74 -30.5 116t-116.5 42h-141v76l141 2q44 1 72.5 16t41.5 41t17 49t4 55
q0 76 -33.5 103.5t-122.5 27.5q-108 0 -196 -10l-6 76q109 20 217 20z" />
    <glyph glyph-name="acute" unicode="&#xb4;" horiz-adv-x="512" 
d="M446 1372l-309 -262l-47 61l281 299z" />
    <glyph glyph-name="paragraph" unicode="&#xb6;" horiz-adv-x="978" 
d="M571 1438q149 0 248 -35v-1403h-102v1337q-108 11 -170 11v-1778h-101v842q-201 23 -288.5 141.5t-87.5 368.5q0 283 114 399.5t387 116.5z" />
    <glyph glyph-name="periodcentered" unicode="&#xb7;" horiz-adv-x="382" 
d="M170 637h45q26 0 37.5 -11.5t11.5 -39.5v-117q0 -28 -11.5 -39.5t-37.5 -11.5h-45q-27 0 -38 11.5t-11 39.5v117q0 28 11 39.5t38 11.5z" />
    <glyph glyph-name="cedilla" unicode="&#xb8;" horiz-adv-x="382" 
d="M137 -156l13 64q97 9 139 -20t41 -113q-3 -122 -79.5 -189.5t-193.5 -48.5l21 72q68 -3 110.5 42.5t44.5 115.5q2 43 -18 59.5t-78 17.5z" />
    <glyph glyph-name="onesuperior" unicode="&#xb9;" horiz-adv-x="483" 
d="M356 737h-102v680q0 49 4 74l-186 -66l-13 72l195 88h102v-848z" />
    <glyph glyph-name="ordmasculine" unicode="&#xba;" horiz-adv-x="733" 
d="M367 1239q147 0 206.5 -78.5t59.5 -271.5t-59.5 -271.5t-206.5 -78.5t-207 79t-60 271t60 271t207 79zM367 1155q-93 0 -128.5 -56.5t-35.5 -209.5q0 -151 35.5 -207.5t128.5 -56.5q91 0 126 56.5t35 207.5q0 153 -35 209.5t-126 56.5z" />
    <glyph glyph-name="guillemotright" unicode="&#xbb;" horiz-adv-x="794" 
d="M426 530v-32l-266 -412l-68 45l211 383l-209 377l68 45zM721 530v-32l-266 -412l-68 45l211 383l-209 377l68 45z" />
    <glyph glyph-name="onequarter" unicode="&#xbc;" horiz-adv-x="1417" 
d="M260 565v680q0 49 4 74l-186 -66l-12 72l194 88h102v-848h-102zM1061 1413l-742 -1413h-94l742 1413h94zM1348 223l-78 -8v-215h-99v213h-325q-44 0 -64.5 34.5t0.5 86.5l213 514h99l-205 -502q-8 -21 0.5 -36t28.5 -15h253v252l19 139h80v-391h78v-72z" />
    <glyph glyph-name="onehalf" unicode="&#xbd;" horiz-adv-x="1458" 
d="M362 565h-102v680q0 49 4 74l-186 -66l-12 72l194 88h102v-848zM309 0h-96l741 1413h97zM1102 862q131 0 188.5 -37t57.5 -149q0 -73 -32.5 -143t-105.5 -164l-215 -279q81 4 117 2h264l-2 -92h-510v57q0 23 17 47l217 283q71 91 104 157t33 126q1 64 -32.5 84t-106.5 20
q-97 0 -217 -20l-7 77q119 31 230 31z" />
    <glyph glyph-name="threequarters" unicode="&#xbe;" horiz-adv-x="1566" 
d="M584 797q2 -131 -55 -190.5t-191 -59.5q-88 0 -244 20l6 78q114 -12 213 -12q90 0 127 39t37 135q0 75 -30.5 117.5t-116.5 42.5l-142 2v71l142 4q44 1 72.5 16t41.5 41t17 49t4 54q0 77 -33.5 105t-122.5 28q-108 0 -196 -10l-7 76q109 20 218 20q136 0 188.5 -42
t52.5 -152q0 -90 -28 -145.5t-97 -69.5v-4q78 -13 110 -66t34 -147zM1227 1413l-742 -1413h-94l742 1413h94zM1497 223l-84 -8v-215h-98v213h-320q-43 0 -64 34.5t1 86.5l213 514h98l-205 -502q-7 -20 1.5 -35.5t27.5 -15.5h248v252l20 139h78v-391h84v-72z" />
    <glyph glyph-name="questiondown" unicode="&#xbf;" horiz-adv-x="825" 
d="M414 1016h32q28 0 39 -11.5t11 -39.5v-117q0 -28 -11 -39.5t-39 -11.5h-32q-28 0 -40 11.5t-12 39.5v117q0 28 12 39.5t40 11.5zM373 590h110q2 -107 -25.5 -194.5t-67.5 -146.5t-80.5 -111.5t-70 -114t-30.5 -129.5q-3 -114 50.5 -169t168.5 -55q35 0 63.5 0.5t56 2
t42.5 2t42.5 3.5t36 4t42.5 5.5t43 5.5l8 -94q-14 -3 -51 -11t-50.5 -10.5t-46.5 -7.5t-58.5 -7t-65.5 -3.5t-87 -1.5q-167 0 -250 77.5t-83 239.5q0 63 16 118t42 97.5t58 83t64 83.5t58.5 89t44.5 109t20 135z" />
    <glyph glyph-name="Agrave" unicode="&#xc0;" horiz-adv-x="1021" 
d="M547 1497l-309 262l75 99l281 -299zM745 467h-469l-118 -467h-140l369 1374q9 39 51 39h146q40 0 49 -39l371 -1374h-140zM715 584l-154 608q-26 103 -29 115h-43q-8 -37 -28 -115l-156 -608h410z" />
    <glyph glyph-name="Aacute" unicode="&#xc1;" horiz-adv-x="1021" 
d="M455 1497l-47 62l280 299l76 -99zM745 467h-469l-118 -467h-140l369 1374q9 39 51 39h146q40 0 49 -39l371 -1374h-140zM715 584l-154 608q-26 103 -29 115h-43q-8 -37 -28 -115l-156 -608h410z" />
    <glyph glyph-name="Acircumflex" unicode="&#xc2;" horiz-adv-x="1021" 
d="M291 1513l-43 58l217 254h96l217 -254l-47 -58l-213 203h-12zM745 467h-469l-118 -467h-140l369 1374q9 39 51 39h146q40 0 49 -39l371 -1374h-140zM715 584l-154 608q-26 103 -29 115h-43q-8 -37 -28 -115l-156 -608h410z" />
    <glyph glyph-name="Atilde" unicode="&#xc3;" horiz-adv-x="1021" 
d="M315 1577h-61q-10 108 27 164.5t100 50.5q34 -3 68 -21.5t58 -39t56.5 -39.5t63.5 -23q45 -6 62.5 21t17.5 92h63q9 -103 -27.5 -159t-101.5 -50q-37 3 -73.5 22t-60.5 40t-54.5 40t-57.5 23q-44 6 -62 -23.5t-18 -97.5zM745 467h-469l-118 -467h-140l369 1374
q9 39 51 39h146q40 0 49 -39l371 -1374h-140zM715 584l-154 608q-26 103 -29 115h-43q-8 -37 -28 -115l-156 -608h410z" />
    <glyph glyph-name="Adieresis" unicode="&#xc4;" horiz-adv-x="1021" 
d="M387 1579h-45q-35 0 -35 39v113q0 41 35 41h45q37 0 37 -41v-113q0 -39 -37 -39zM678 1579h-43q-37 0 -37 39v113q0 41 37 41h43q39 0 39 -41v-113q0 -39 -39 -39zM745 467h-469l-118 -467h-140l369 1374q9 39 51 39h146q40 0 49 -39l371 -1374h-140zM715 584l-154 608
q-26 103 -29 115h-43q-8 -37 -28 -115l-156 -608h410z" />
    <glyph glyph-name="Aring" unicode="&#xc5;" horiz-adv-x="1021" 
d="M512 1466q-72 0 -123 60t-51 147t51.5 148t122.5 61q72 0 124 -61t52 -148t-51 -147t-125 -60zM512 1810q-43 0 -71.5 -38.5t-28.5 -98.5t29 -97.5t71 -37.5q43 0 71.5 37t28.5 98q0 60 -28.5 98.5t-71.5 38.5zM745 467h-469l-118 -467h-140l369 1374q9 39 51 39h146
q40 0 49 -39l371 -1374h-140zM715 584l-154 608q-26 103 -29 115h-43q-8 -37 -28 -115l-156 -608h410z" />
    <glyph glyph-name="AE" unicode="&#xc6;" horiz-adv-x="1503" 
d="M1411 113l8 -103q-158 -12 -483 -12q-83 0 -134.5 65.5t-51.5 167.5v265h-377l-230 -496h-145l575 1208q58 122 135.5 163.5t227.5 41.5q304 0 483 -10l-8 -105h-422q-51 0 -81.5 -41t-30.5 -110v-340l471 -2v-109l-471 -2v-432q0 -149 112 -149h422zM750 608v555
q0 44 15.5 88.5t37.5 63.5h-15q-51 -35 -98 -135l-264 -572h324z" />
    <glyph glyph-name="Ccedilla" unicode="&#xc7;" horiz-adv-x="946" 
d="M547 1438q106 0 171.5 -8.5t135.5 -30.5l-14 -101q-133 19 -293 19q-114 0 -178.5 -57.5t-93.5 -188.5t-29 -364t29 -364t93.5 -189t178.5 -58q186 0 315 23l17 -101q-133 -43 -332 -43q-166 0 -261.5 71.5t-138.5 229.5t-43 431q0 205 23 342t76 225t136 126t208 38z
M455 -180l12 63q97 9 139 -20t41 -113q-3 -122 -79 -189t-193 -48l20 71q68 -3 111 42.5t45 115.5q2 43 -18 60t-78 18z" />
    <glyph glyph-name="Egrave" unicode="&#xc8;" horiz-adv-x="923" 
d="M557 1542l-309 262l76 99l280 -299zM831 113l7 -103q-152 -12 -488 -12q-98 0 -155.5 63.5t-57.5 169.5v951q0 106 58 169.5t155 63.5q336 0 488 -12l-7 -103h-458q-101 0 -101 -149v-346h496v-109h-496v-436q0 -147 101 -147h458z" />
    <glyph glyph-name="Eacute" unicode="&#xc9;" horiz-adv-x="923" 
d="M463 1542l-47 62l280 299l76 -99zM831 113l7 -103q-152 -12 -488 -12q-98 0 -155.5 63.5t-57.5 169.5v951q0 106 58 169.5t155 63.5q336 0 488 -12l-7 -103h-458q-101 0 -101 -149v-346h496v-109h-496v-436q0 -147 101 -147h458z" />
    <glyph glyph-name="Ecircumflex" unicode="&#xca;" horiz-adv-x="923" 
d="M299 1559l-43 57l217 254h96l217 -254l-47 -57l-213 202h-12zM831 113l7 -103q-152 -12 -488 -12q-98 0 -155.5 63.5t-57.5 169.5v951q0 106 58 169.5t155 63.5q336 0 488 -12l-7 -103h-458q-101 0 -101 -149v-346h496v-109h-496v-436q0 -147 101 -147h458z" />
    <glyph glyph-name="Edieresis" unicode="&#xcb;" horiz-adv-x="923" 
d="M397 1624h-45q-35 0 -35 39v113q0 41 35 41h45q37 0 37 -41v-113q0 -39 -37 -39zM688 1624h-43q-37 0 -37 39v113q0 41 37 41h43q39 0 39 -41v-113q0 -39 -39 -39zM831 113l7 -103q-152 -12 -488 -12q-98 0 -155.5 63.5t-57.5 169.5v951q0 106 58 169.5t155 63.5
q336 0 488 -12l-7 -103h-458q-101 0 -101 -149v-346h496v-109h-496v-436q0 -147 101 -147h458z" />
    <glyph glyph-name="Igrave" unicode="&#xcc;" horiz-adv-x="428" 
d="M295 1559l-47 -62l-309 262l75 99zM283 0h-136v1413h136v-1413z" />
    <glyph glyph-name="Iacute" unicode="&#xcd;" horiz-adv-x="428" 
d="M465 1759l-309 -262l-47 62l280 299zM283 0h-136v1413h136v-1413z" />
    <glyph glyph-name="Icircumflex" unicode="&#xce;" horiz-adv-x="428" 
d="M479 1571l-47 -58l-213 203h-12l-215 -203l-43 58l217 254h96zM283 0h-136v1413h136v-1413z" />
    <glyph glyph-name="Idieresis" unicode="&#xcf;" horiz-adv-x="428" 
d="M45 1772h45q37 0 37 -41v-113q0 -39 -37 -39h-45q-35 0 -35 39v113q0 41 35 41zM338 1772h43q39 0 39 -41v-113q0 -39 -39 -39h-43q-37 0 -37 39v113q0 41 37 41zM283 0h-136v1413h136v-1413z" />
    <glyph glyph-name="Eth" unicode="&#xd0;" horiz-adv-x="1101" 
d="M557 1432q165 0 260 -69t138.5 -226t43.5 -430t-43.5 -430t-138.5 -226t-260 -69q-190 0 -401 18v715h-117v80h117v618q222 19 401 19zM557 100q113 0 177.5 58t93 188.5t28.5 360.5t-28.5 360.5t-93 189t-177.5 58.5q-106 0 -266 -4v-516h252v-80h-252v-611
q152 -4 266 -4z" />
    <glyph glyph-name="Ntilde" unicode="&#xd1;" horiz-adv-x="1161" 
d="M457 1792q43 -4 84.5 -32.5t81.5 -57t79 -33.5q45 -6 62.5 21t17.5 92h64q9 -103 -27.5 -159t-101.5 -50q-37 3 -73.5 22t-60.5 40t-54.5 40t-57.5 23q-44 6 -62 -23.5t-18 -97.5h-61q-10 108 27 164.5t100 50.5zM1014 1413v-1356q0 -57 -53 -57h-150q-48 0 -59 45
l-387 1073q-20 65 -60 170h-24v-170l2 -1118h-136v1356q0 57 54 57h145q51 0 62 -45l374 -1049q9 -28 68 -190h31q-2 68 -2 203v1081h135z" />
    <glyph glyph-name="Ograve" unicode="&#xd2;" 
d="M631 1559l-47 -62l-310 262l76 99zM551 1438q167 0 262.5 -69.5t139.5 -227.5t44 -434q0 -208 -23 -345.5t-77 -225t-137.5 -124.5t-208.5 -37q-169 0 -265 70t-139 227.5t-43 434.5t43.5 434.5t139 227t264.5 69.5zM551 1319q-116 0 -181.5 -58.5t-94.5 -189.5t-29 -364
t29 -364.5t94.5 -190t181.5 -58.5q115 0 180 58.5t94 190t29 364.5q0 175 -15 289.5t-51.5 188t-93 104t-143.5 30.5z" />
    <glyph glyph-name="Oacute" unicode="&#xd3;" 
d="M801 1759l-309 -262l-48 62l281 299zM551 1438q167 0 262.5 -69.5t139.5 -227.5t44 -434q0 -208 -23 -345.5t-77 -225t-137.5 -124.5t-208.5 -37q-169 0 -265 70t-139 227.5t-43 434.5t43.5 434.5t139 227t264.5 69.5zM551 1319q-116 0 -181.5 -58.5t-94.5 -189.5
t-29 -364t29 -364.5t94.5 -190t181.5 -58.5q115 0 180 58.5t94 190t29 364.5q0 175 -15 289.5t-51.5 188t-93 104t-143.5 30.5z" />
    <glyph glyph-name="Ocircumflex" unicode="&#xd4;" 
d="M815 1571l-47 -58l-213 203h-12l-215 -203l-43 58l217 254h96zM551 1438q167 0 262.5 -69.5t139.5 -227.5t44 -434q0 -208 -23 -345.5t-77 -225t-137.5 -124.5t-208.5 -37q-169 0 -265 70t-139 227.5t-43 434.5t43.5 434.5t139 227t264.5 69.5zM551 1319
q-116 0 -181.5 -58.5t-94.5 -189.5t-29 -364t29 -364.5t94.5 -190t181.5 -58.5q115 0 180 58.5t94 190t29 364.5q0 175 -15 289.5t-51.5 188t-93 104t-143.5 30.5z" />
    <glyph glyph-name="Otilde" unicode="&#xd5;" 
d="M418 1792q34 -3 68 -21.5t58 -39t56.5 -39.5t63.5 -23q44 -6 61.5 21t17.5 92h64q9 -103 -27.5 -159t-101.5 -50q-37 3 -73.5 22t-60.5 40t-54.5 40t-57.5 23q-44 6 -62 -23.5t-18 -97.5h-61q-10 108 27 164.5t100 50.5zM551 1438q167 0 262.5 -69.5t139.5 -227.5
t44 -434q0 -208 -23 -345.5t-77 -225t-137.5 -124.5t-208.5 -37q-169 0 -265 70t-139 227.5t-43 434.5t43.5 434.5t139 227t264.5 69.5zM551 1319q-116 0 -181.5 -58.5t-94.5 -189.5t-29 -364t29 -364.5t94.5 -190t181.5 -58.5q115 0 180 58.5t94 190t29 364.5
q0 175 -15 289.5t-51.5 188t-93 104t-143.5 30.5z" />
    <glyph glyph-name="Odieresis" unicode="&#xd6;" 
d="M381 1772h45q37 0 37 -41v-113q0 -39 -37 -39h-45q-35 0 -35 39v113q0 41 35 41zM674 1772h43q39 0 39 -41v-113q0 -39 -39 -39h-43q-37 0 -37 39v113q0 41 37 41zM551 1438q167 0 262.5 -69.5t139.5 -227.5t44 -434q0 -208 -23 -345.5t-77 -225t-137.5 -124.5
t-208.5 -37q-169 0 -265 70t-139 227.5t-43 434.5t43.5 434.5t139 227t264.5 69.5zM551 1319q-116 0 -181.5 -58.5t-94.5 -189.5t-29 -364t29 -364.5t94.5 -190t181.5 -58.5q115 0 180 58.5t94 190t29 364.5q0 175 -15 289.5t-51.5 188t-93 104t-143.5 30.5z" />
    <glyph glyph-name="multiply" unicode="&#xd7;" horiz-adv-x="798" 
d="M473 592l256 -287l-63 -78l-260 289l-261 -289l-65 78l258 287l-258 285l65 79l261 -288l260 288l63 -77z" />
    <glyph glyph-name="Oslash" unicode="&#xd8;" 
d="M883 1497l-54 -141q89 -74 128.5 -230t39.5 -419q0 -208 -23 -345.5t-77 -225t-137.5 -124.5t-208.5 -37q-136 0 -225 45l-50 -133l-71 33l55 146q-83 77 -119.5 230t-36.5 411q0 277 43.5 434.5t139 227t264.5 69.5q128 0 213 -39l49 131zM246 707q0 -357 71 -488
l400 1055q-62 45 -166 45q-116 0 -181.5 -58.5t-94.5 -189.5t-29 -364zM551 94q115 0 180 58.5t94 190t29 364.5q0 372 -80 501l-399 -1061q64 -53 176 -53z" />
    <glyph glyph-name="Ugrave" unicode="&#xd9;" 
d="M633 1559l-47 -62l-310 262l76 99zM961 1413v-878q0 -305 -92 -432.5t-314 -127.5q-228 0 -322 127.5t-94 432.5v878h135v-878q0 -244 61.5 -342.5t213.5 -98.5t214 98.5t62 342.5v878h136z" />
    <glyph glyph-name="Uacute" unicode="&#xda;" 
d="M803 1759l-309 -262l-48 62l281 299zM961 1413v-878q0 -305 -92 -432.5t-314 -127.5q-228 0 -322 127.5t-94 432.5v878h135v-878q0 -244 61.5 -342.5t213.5 -98.5t214 98.5t62 342.5v878h136z" />
    <glyph glyph-name="Ucircumflex" unicode="&#xdb;" 
d="M817 1571l-47 -58l-213 203h-12l-215 -203l-43 58l217 254h96zM961 1413v-878q0 -305 -92 -432.5t-314 -127.5q-228 0 -322 127.5t-94 432.5v878h135v-878q0 -244 61.5 -342.5t213.5 -98.5t214 98.5t62 342.5v878h136z" />
    <glyph glyph-name="Udieresis" unicode="&#xdc;" 
d="M383 1772h45q37 0 37 -41v-113q0 -39 -37 -39h-45q-35 0 -35 39v113q0 41 35 41zM676 1772h43q39 0 39 -41v-113q0 -39 -39 -39h-43q-37 0 -37 39v113q0 41 37 41zM961 1413v-878q0 -305 -92 -432.5t-314 -127.5q-228 0 -322 127.5t-94 432.5v878h135v-878
q0 -244 61.5 -342.5t213.5 -98.5t214 98.5t62 342.5v878h136z" />
    <glyph glyph-name="Yacute" unicode="&#xdd;" horiz-adv-x="931" 
d="M408 1497l-48 62l281 299l76 -99zM532 506v-506h-133v506l-381 907h146l244 -620q14 -34 53 -152h12q23 79 51 150l244 622h141z" />
    <glyph glyph-name="Thorn" unicode="&#xde;" horiz-adv-x="974" 
d="M537 1153q138 0 213.5 -38t110 -131.5t34.5 -266.5t-34 -266.5t-106 -130.5t-204 -37q-124 0 -268 12v-295h-136v1413h136v-264q68 4 254 4zM283 399h249q88 0 135.5 27t70 95t22.5 196q0 129 -22.5 197.5t-70 95t-135.5 26.5q-183 0 -249 -2v-635z" />
    <glyph glyph-name="germandbls" unicode="&#xdf;" horiz-adv-x="1107" 
d="M723 604l178 -88q77 -40 110 -96t33 -164q0 -88 -17.5 -144.5t-57 -85.5t-87.5 -39t-124 -10q-131 0 -266 23l10 98q101 -12 231 -12q43 1 69 4t51 13t37.5 29t20 50t7.5 78q0 77 -24.5 109.5t-86.5 62.5l-180 92q-66 33 -100.5 86t-34.5 138q0 30 4.5 56t11 45t20 37.5
t23.5 30t31.5 27t34 23l40 24t41.5 25.5q63 39 86 79.5t23 116.5q0 81 -52.5 115.5t-187.5 34.5q-73 0 -117.5 -11t-74 -42t-40.5 -82t-11 -135v-1092h-131v887h-146v100l146 4v113q0 81 10.5 141t34 100t52 65t74 38t89.5 17.5t108 4.5q200 0 284.5 -55.5t84.5 -200.5
q0 -101 -30 -157t-116 -111q-17 -11 -50 -29.5t-44 -26t-30.5 -23.5t-25.5 -30t-12 -36t-6 -51q0 -57 25 -86.5t82 -59.5z" />
    <glyph glyph-name="agrave" unicode="&#xe0;" horiz-adv-x="903" 
d="M479 1126l-309 263l76 98l280 -299zM508 1018q137 0 203.5 -70t66.5 -235v-713h-102l-17 164q-56 -71 -145.5 -125.5t-189.5 -54.5q-108 0 -172 70t-64 198v115q0 115 57 178t160 63h342v105q-2 99 -37.5 145.5t-126.5 46.5q-131 0 -350 -28l-12 96q254 45 387 45z
M348 98q65 -2 147.5 41.5t151.5 118.5v250l-317 -4q-58 -3 -83.5 -41t-25.5 -113v-86q0 -166 127 -166z" />
    <glyph glyph-name="aacute" unicode="&#xe1;" horiz-adv-x="903" 
d="M385 1126l-47 62l280 299l76 -98zM508 1018q137 0 203.5 -70t66.5 -235v-713h-102l-17 164q-56 -71 -145.5 -125.5t-189.5 -54.5q-108 0 -172 70t-64 198v115q0 115 57 178t160 63h342v105q-2 99 -37.5 145.5t-126.5 46.5q-131 0 -350 -28l-12 96q254 45 387 45zM348 98
q65 -2 147.5 41.5t151.5 118.5v250l-317 -4q-58 -3 -83.5 -41t-25.5 -113v-86q0 -166 127 -166z" />
    <glyph glyph-name="acircumflex" unicode="&#xe2;" horiz-adv-x="903" 
d="M221 1143l-43 57l217 254h97l217 -254l-47 -57l-213 203h-13zM508 1018q137 0 203.5 -70t66.5 -235v-713h-102l-17 164q-56 -71 -145.5 -125.5t-189.5 -54.5q-108 0 -172 70t-64 198v115q0 115 57 178t160 63h342v105q-2 99 -37.5 145.5t-126.5 46.5q-131 0 -350 -28
l-12 96q254 45 387 45zM348 98q65 -2 147.5 41.5t151.5 118.5v250l-317 -4q-58 -3 -83.5 -41t-25.5 -113v-86q0 -166 127 -166z" />
    <glyph glyph-name="atilde" unicode="&#xe3;" horiz-adv-x="903" 
d="M248 1206h-62q-10 108 27 164.5t100 50.5q34 -3 68 -21.5t58 -39t56.5 -39.5t63.5 -23q45 -6 62.5 21t17.5 92h63q9 -103 -27.5 -159t-101.5 -50q-37 3 -73.5 22t-60 40t-54 40t-57.5 23q-44 6 -62 -23.5t-18 -97.5zM508 1018q137 0 203.5 -70t66.5 -235v-713h-102
l-17 164q-56 -71 -145.5 -125.5t-189.5 -54.5q-108 0 -172 70t-64 198v115q0 115 57 178t160 63h342v105q-2 99 -37.5 145.5t-126.5 46.5q-131 0 -350 -28l-12 96q254 45 387 45zM348 98q65 -2 147.5 41.5t151.5 118.5v250l-317 -4q-58 -3 -83.5 -41t-25.5 -113v-86
q0 -166 127 -166z" />
    <glyph glyph-name="adieresis" unicode="&#xe4;" horiz-adv-x="903" 
d="M319 1210h-45q-34 0 -34 39v113q0 41 34 41h45q37 0 37 -41v-113q0 -39 -37 -39zM610 1210h-43q-37 0 -37 39v113q0 41 37 41h43q39 0 39 -41v-113q0 -39 -39 -39zM508 1018q137 0 203.5 -70t66.5 -235v-713h-102l-17 164q-56 -71 -145.5 -125.5t-189.5 -54.5
q-108 0 -172 70t-64 198v115q0 115 57 178t160 63h342v105q-2 99 -37.5 145.5t-126.5 46.5q-131 0 -350 -28l-12 96q254 45 387 45zM348 98q65 -2 147.5 41.5t151.5 118.5v250l-317 -4q-58 -3 -83.5 -41t-25.5 -113v-86q0 -166 127 -166z" />
    <glyph glyph-name="aring" unicode="&#xe5;" horiz-adv-x="903" 
d="M444 1098q-72 0 -123 60t-51 147t51.5 147.5t122.5 60.5q73 0 125 -60.5t52 -147.5t-51.5 -147t-125.5 -60zM444 1442q-43 0 -71.5 -38.5t-28.5 -98.5t29 -98t71 -38q43 0 72 37.5t29 98.5q0 60 -29 98.5t-72 38.5zM508 1018q137 0 203.5 -70t66.5 -235v-713h-102
l-17 164q-56 -71 -145.5 -125.5t-189.5 -54.5q-108 0 -172 70t-64 198v115q0 115 57 178t160 63h342v105q-2 99 -37.5 145.5t-126.5 46.5q-131 0 -350 -28l-12 96q254 45 387 45zM348 98q65 -2 147.5 41.5t151.5 118.5v250l-317 -4q-58 -3 -83.5 -41t-25.5 -113v-86
q0 -166 127 -166z" />
    <glyph glyph-name="ae" unicode="&#xe6;" horiz-adv-x="1437" 
d="M1042 88q112 0 279 25l14 -88q-50 -23 -141.5 -36.5t-167.5 -13.5q-138 0 -221 52t-121 166q-57 -80 -153 -144.5t-207 -64.5q-108 0 -172 70t-64 198v115q0 116 56.5 178.5t160.5 62.5h342v105q0 99 -36 145.5t-128 46.5q-131 0 -350 -28l-12 96q254 45 387 45
q168 0 229 -107q86 107 275 107q178 0 260 -76.5t82 -232.5q2 -141 -49.5 -209t-161.5 -68h-359q5 -134 33.5 -209.5t81.5 -105t143 -29.5zM1018 905q-131 0 -182 -80t-54 -290h328q64 0 88.5 43t24.5 129q0 104 -48 151t-157 47zM348 98q69 -2 156.5 45.5t159.5 128.5
q-19 105 -19 228v8l-315 -4q-58 -3 -83.5 -41t-25.5 -113v-86q0 -166 127 -166z" />
    <glyph glyph-name="ccedilla" unicode="&#xe7;" horiz-adv-x="802" 
d="M473 1018q154 0 254 -45l-18 -84q-93 16 -215 16q-100 0 -156 -36.5t-82.5 -124.5t-26.5 -248q0 -159 26.5 -247.5t82.5 -124.5t156 -36q130 0 235 23l12 -91q-121 -45 -270 -45q-208 0 -293.5 117t-85.5 404t86 404.5t295 117.5zM377 -180l12 63q97 9 139 -20t41 -113
q-3 -122 -79 -189t-193 -48l20 71q68 -3 111 42.5t45 115.5q2 43 -18 60t-78 18z" />
    <glyph glyph-name="egrave" unicode="&#xe8;" horiz-adv-x="884" 
d="M494 1126l-310 263l76 98l281 -299zM487 88q114 0 281 25l12 -88q-51 -23 -141 -36.5t-168 -13.5q-205 0 -292 120t-87 405q0 286 85 402t282 116q176 0 258 -76.5t82 -232.5q3 -277 -189 -277h-379q5 -134 33.5 -209.5t81 -105t141.5 -29.5zM465 905q-131 0 -182 -80
t-54 -290h349q94 0 90 172q0 105 -47.5 151.5t-155.5 46.5z" />
    <glyph glyph-name="eacute" unicode="&#xe9;" horiz-adv-x="884" 
d="M399 1126l-47 62l281 299l76 -98zM487 88q114 0 281 25l12 -88q-51 -23 -141 -36.5t-168 -13.5q-205 0 -292 120t-87 405q0 286 85 402t282 116q176 0 258 -76.5t82 -232.5q3 -277 -189 -277h-379q5 -134 33.5 -209.5t81 -105t141.5 -29.5zM465 905q-131 0 -182 -80
t-54 -290h349q94 0 90 172q0 105 -47.5 151.5t-155.5 46.5z" />
    <glyph glyph-name="ecircumflex" unicode="&#xea;" horiz-adv-x="884" 
d="M236 1143l-43 57l217 254h96l217 -254l-47 -57l-213 203h-12zM487 88q114 0 281 25l12 -88q-51 -23 -141 -36.5t-168 -13.5q-205 0 -292 120t-87 405q0 286 85 402t282 116q176 0 258 -76.5t82 -232.5q3 -277 -189 -277h-379q5 -134 33.5 -209.5t81 -105t141.5 -29.5z
M465 905q-131 0 -182 -80t-54 -290h349q94 0 90 172q0 105 -47.5 151.5t-155.5 46.5z" />
    <glyph glyph-name="edieresis" unicode="&#xeb;" horiz-adv-x="884" 
d="M334 1210h-45q-35 0 -35 39v113q0 41 35 41h45q37 0 37 -41v-113q0 -39 -37 -39zM625 1210h-43q-37 0 -37 39v113q0 41 37 41h43q39 0 39 -41v-113q0 -39 -39 -39zM487 88q114 0 281 25l12 -88q-51 -23 -141 -36.5t-168 -13.5q-205 0 -292 120t-87 405q0 286 85 402
t282 116q176 0 258 -76.5t82 -232.5q3 -277 -189 -277h-379q5 -134 33.5 -209.5t81 -105t141.5 -29.5zM465 905q-131 0 -182 -80t-54 -290h349q94 0 90 172q0 105 -47.5 151.5t-155.5 46.5z" />
    <glyph glyph-name="igrave" unicode="&#xec;" horiz-adv-x="407" 
d="M285 1188l-47 -62l-310 263l76 98zM270 0h-131v991h131v-991z" />
    <glyph glyph-name="iacute" unicode="&#xed;" horiz-adv-x="407" 
d="M455 1389l-310 -263l-47 62l281 299zM270 0h-131v991h131v-991z" />
    <glyph glyph-name="icircumflex" unicode="&#xee;" horiz-adv-x="407" 
d="M469 1200l-47 -57l-213 203h-12l-215 -203l-43 57l217 254h96zM270 0h-131v991h131v-991z" />
    <glyph glyph-name="idieresis" unicode="&#xef;" horiz-adv-x="407" 
d="M35 1403h45q37 0 37 -41v-113q0 -39 -37 -39h-45q-35 0 -35 39v113q0 41 35 41zM328 1403h43q39 0 39 -41v-113q0 -39 -39 -39h-43q-37 0 -37 39v113q0 41 37 41zM270 0h-131v991h131v-991z" />
    <glyph glyph-name="eth" unicode="&#xf0;" horiz-adv-x="919" 
d="M727 1384l-115 -104q199 -206 199 -705q0 -110 -8.5 -194t-32 -163t-62.5 -130.5t-103.5 -82t-151.5 -30.5q-186 0 -272.5 113.5t-86.5 362.5q0 229 77.5 346.5t256.5 117.5q130 0 234 -79q-31 240 -134 368l-135 -123l-49 62l127 117q-100 79 -276 75l16 95
q205 7 344 -97l125 115zM453 86q49 0 85 14.5t60.5 46.5t40 72t23.5 100.5t11 121.5t3 147q0 84 -6 157q-99 60 -221 60q-62 0 -105 -24.5t-67.5 -72.5t-35 -110.5t-10.5 -146.5q0 -198 53 -281.5t169 -83.5z" />
    <glyph glyph-name="ntilde" unicode="&#xf1;" horiz-adv-x="954" 
d="M289 1206h-62q-10 108 27 164.5t100 50.5q34 -3 68 -21.5t58 -39t56.5 -39.5t63.5 -23q45 -6 62.5 21t17.5 92h63q9 -103 -27.5 -159t-101.5 -50q-37 3 -73.5 22t-60 40t-54 40t-57.5 23q-44 6 -62 -23.5t-18 -97.5zM612 1018q106 0 161.5 -70t55.5 -203v-745h-131v711
q0 105 -27.5 149.5t-92.5 44.5q-68 0 -138 -40t-178 -130v-735h-131v991h111l8 -162q195 189 362 189z" />
    <glyph glyph-name="ograve" unicode="&#xf2;" horiz-adv-x="933" 
d="M549 1188l-47 -62l-309 263l75 98zM467 1018q205 0 290 -118t85 -404t-84.5 -403.5t-290.5 -117.5q-204 0 -289.5 118t-85.5 403t85.5 403.5t289.5 118.5zM467 905q-91 0 -141.5 -37.5t-73.5 -125.5t-23 -246q0 -159 23 -246.5t73.5 -125.5t141.5 -38q136 0 188 88
t52 322t-52 321.5t-188 87.5z" />
    <glyph glyph-name="oacute" unicode="&#xf3;" horiz-adv-x="933" 
d="M719 1389l-309 -263l-48 62l281 299zM467 1018q205 0 290 -118t85 -404t-84.5 -403.5t-290.5 -117.5q-204 0 -289.5 118t-85.5 403t85.5 403.5t289.5 118.5zM467 905q-91 0 -141.5 -37.5t-73.5 -125.5t-23 -246q0 -159 23 -246.5t73.5 -125.5t141.5 -38q136 0 188 88
t52 322t-52 321.5t-188 87.5z" />
    <glyph glyph-name="ocircumflex" unicode="&#xf4;" horiz-adv-x="933" 
d="M733 1200l-47 -57l-213 203h-12l-215 -203l-43 57l217 254h96zM467 1018q205 0 290 -118t85 -404t-84.5 -403.5t-290.5 -117.5q-204 0 -289.5 118t-85.5 403t85.5 403.5t289.5 118.5zM467 905q-91 0 -141.5 -37.5t-73.5 -125.5t-23 -246q0 -159 23 -246.5t73.5 -125.5
t141.5 -38q136 0 188 88t52 322t-52 321.5t-188 87.5z" />
    <glyph glyph-name="otilde" unicode="&#xf5;" horiz-adv-x="933" 
d="M336 1421q34 -3 68 -21.5t58 -39t56.5 -39.5t63.5 -23q45 -6 62.5 21t17.5 92h63q9 -103 -27.5 -159t-101.5 -50q-37 3 -73.5 22t-60.5 40t-54.5 40t-57.5 23q-44 6 -62 -23.5t-18 -97.5h-61q-10 108 27 164.5t100 50.5zM467 1018q205 0 290 -118t85 -404t-84.5 -403.5
t-290.5 -117.5q-204 0 -289.5 118t-85.5 403t85.5 403.5t289.5 118.5zM467 905q-91 0 -141.5 -37.5t-73.5 -125.5t-23 -246q0 -159 23 -246.5t73.5 -125.5t141.5 -38q136 0 188 88t52 322t-52 321.5t-188 87.5z" />
    <glyph glyph-name="odieresis" unicode="&#xf6;" horiz-adv-x="933" 
d="M299 1403h45q37 0 37 -41v-113q0 -39 -37 -39h-45q-35 0 -35 39v113q0 41 35 41zM592 1403h43q39 0 39 -41v-113q0 -39 -39 -39h-43q-37 0 -37 39v113q0 41 37 41zM467 1018q205 0 290 -118t85 -404t-84.5 -403.5t-290.5 -117.5q-204 0 -289.5 118t-85.5 403t85.5 403.5
t289.5 118.5zM467 905q-91 0 -141.5 -37.5t-73.5 -125.5t-23 -246q0 -159 23 -246.5t73.5 -125.5t141.5 -38q136 0 188 88t52 322t-52 321.5t-188 87.5z" />
    <glyph glyph-name="divide" unicode="&#xf7;" horiz-adv-x="946" 
d="M453 1059h34q28 0 39 -11.5t11 -39.5v-111q0 -28 -11 -38.5t-39 -10.5h-34q-27 0 -38.5 11t-11.5 38v111q0 28 11.5 39.5t38.5 11.5zM831 555h-718v100h718v-100zM453 360h34q28 0 39 -11.5t11 -39.5v-108q0 -28 -11 -38.5t-39 -10.5h-34q-27 0 -38.5 11t-11.5 38v108
q0 27 11.5 39t38.5 12z" />
    <glyph glyph-name="oslash" unicode="&#xf8;" horiz-adv-x="935" 
d="M729 1100l-49 -129q85 -50 123.5 -164.5t38.5 -310.5q0 -286 -84.5 -403.5t-290.5 -117.5q-91 0 -156 21l-53 -139l-63 30l53 140q-82 52 -119 165t-37 304q0 285 85.5 403.5t289.5 118.5q82 0 147 -19l52 134zM229 496q0 -259 66 -342l278 735q-50 16 -106 16
q-91 0 -141.5 -37.5t-73.5 -125.5t-23 -246zM467 86q136 0 188 88t52 322q0 270 -74 352l-281 -742q44 -20 115 -20z" />
    <glyph glyph-name="ugrave" unicode="&#xf9;" horiz-adv-x="937" 
d="M506 1133l-309 262l75 98l281 -299zM807 991v-991h-105l-12 150q-181 -175 -346 -175q-107 0 -162 68.5t-55 202.5v745h131v-710q-2 -103 28.5 -148t100.5 -45q64 0 128 38t163 124v741h129z" />
    <glyph glyph-name="uacute" unicode="&#xfa;" horiz-adv-x="937" 
d="M414 1133l-47 61l280 299l76 -98zM807 991v-991h-105l-12 150q-181 -175 -346 -175q-107 0 -162 68.5t-55 202.5v745h131v-710q-2 -103 28.5 -148t100.5 -45q64 0 128 38t163 124v741h129z" />
    <glyph glyph-name="ucircumflex" unicode="&#xfb;" horiz-adv-x="937" 
d="M250 1147l-43 57l217 254h96l217 -254l-47 -57l-213 203h-12zM807 991v-991h-105l-12 150q-181 -175 -346 -175q-107 0 -162 68.5t-55 202.5v745h131v-710q-2 -103 28.5 -148t100.5 -45q64 0 128 38t163 124v741h129z" />
    <glyph glyph-name="udieresis" unicode="&#xfc;" horiz-adv-x="937" 
d="M346 1214h-45q-35 0 -35 39v113q0 41 35 41h45q37 0 37 -41v-113q0 -39 -37 -39zM637 1214h-43q-37 0 -37 39v113q0 41 37 41h43q39 0 39 -41v-113q0 -39 -39 -39zM807 991v-991h-105l-12 150q-181 -175 -346 -175q-107 0 -162 68.5t-55 202.5v745h131v-710
q-2 -103 28.5 -148t100.5 -45q64 0 128 38t163 124v741h129z" />
    <glyph glyph-name="yacute" unicode="&#xfd;" horiz-adv-x="866" 
d="M379 1126l-47 62l280 299l76 -98zM836 991l-324 -1061q-18 -55 -38 -100.5t-50 -90.5t-65.5 -77.5t-84.5 -55.5t-106 -30l-12 84q93 39 146.5 109t86.5 176l21 55h-35q-37 0 -49 35l-293 956h139l219 -774q31 -114 31 -115h22q28 90 35 117l215 772h142z" />
    <glyph glyph-name="thorn" unicode="&#xfe;" horiz-adv-x="940" 
d="M557 1016q157 0 224 -122t67 -402q0 -283 -68.5 -400t-224.5 -117q-151 0 -299 91q6 -61 6 -183v-301h-131v1852h131v-373q0 -125 -6 -191q140 146 301 146zM514 84q108 0 153.5 91t45.5 317q0 155 -20.5 245t-62 128t-110.5 38q-60 0 -121 -37t-137 -114v-586
q152 -82 252 -82z" />
    <glyph glyph-name="ydieresis" unicode="&#xff;" horiz-adv-x="866" 
d="M313 1210h-45q-35 0 -35 39v113q0 41 35 41h45q37 0 37 -41v-113q0 -39 -37 -39zM604 1210h-43q-37 0 -37 39v113q0 41 37 41h43q39 0 39 -41v-113q0 -39 -39 -39zM836 991l-324 -1061q-18 -55 -38 -100.5t-50 -90.5t-65.5 -77.5t-84.5 -55.5t-106 -30l-12 84
q93 39 146.5 109t86.5 176l21 55h-35q-37 0 -49 35l-293 956h139l219 -774q31 -114 31 -115h22q28 90 35 117l215 772h142z" />
    <glyph glyph-name="Amacron" unicode="&#x100;" horiz-adv-x="1021" 
d="M741 1624h-458v100h458v-100zM745 467h-469l-118 -467h-140l369 1374q9 39 51 39h146q40 0 49 -39l371 -1374h-140zM715 584l-154 608q-26 103 -29 115h-43q-8 -37 -28 -115l-156 -608h410z" />
    <glyph glyph-name="amacron" unicode="&#x101;" horiz-adv-x="903" 
d="M674 1253h-459v101h459v-101zM508 1018q137 0 203.5 -70t66.5 -235v-713h-102l-17 164q-56 -71 -145.5 -125.5t-189.5 -54.5q-108 0 -172 70t-64 198v115q0 115 57 178t160 63h342v105q-2 99 -37.5 145.5t-126.5 46.5q-131 0 -350 -28l-12 96q254 45 387 45zM348 98
q65 -2 147.5 41.5t151.5 118.5v250l-317 -4q-58 -3 -83.5 -41t-25.5 -113v-86q0 -166 127 -166z" />
    <glyph glyph-name="Abreve" unicode="&#x102;" horiz-adv-x="1021" 
d="M512 1534q-118 0 -185 70t-61 186l68 12q0 -80 46 -124t132 -44q83 0 129.5 44.5t46.5 123.5l68 -12q5 -116 -61.5 -186t-182.5 -70zM745 467h-469l-118 -467h-140l369 1374q9 39 51 39h146q40 0 49 -39l371 -1374h-140zM715 584l-154 608q-26 103 -29 115h-43
q-8 -37 -28 -115l-156 -608h410z" />
    <glyph glyph-name="abreve" unicode="&#x103;" horiz-adv-x="903" 
d="M444 1163q-118 0 -184.5 70t-60.5 186l67 13q0 -80 46 -124t132 -44q83 0 130 44.5t47 123.5l67 -13q5 -116 -61.5 -186t-182.5 -70zM508 1018q137 0 203.5 -70t66.5 -235v-713h-102l-17 164q-56 -71 -145.5 -125.5t-189.5 -54.5q-108 0 -172 70t-64 198v115
q0 115 57 178t160 63h342v105q-2 99 -37.5 145.5t-126.5 46.5q-131 0 -350 -28l-12 96q254 45 387 45zM348 98q65 -2 147.5 41.5t151.5 118.5v250l-317 -4q-58 -3 -83.5 -41t-25.5 -113v-86q0 -166 127 -166z" />
    <glyph glyph-name="Aogonek" unicode="&#x104;" horiz-adv-x="1021" 
d="M1012 -340l16 -57q-59 -30 -107.5 -37t-77.5 6t-47.5 39.5t-19 64t9.5 78.5q36 125 154 246h-76l-119 467h-469l-118 -467h-140l369 1374q9 39 51 39h146q40 0 49 -39l371 -1374q-90 -132 -123 -242q-26 -82 12.5 -108.5t118.5 10.5zM715 584l-154 608q-26 103 -29 115
h-43q-8 -37 -28 -115l-156 -608h410z" />
    <glyph glyph-name="aogonek" unicode="&#x105;" horiz-adv-x="903" 
d="M786 -340l17 -57q-59 -30 -107.5 -37t-77.5 6t-47.5 39.5t-19 64t9.5 78.5q36 125 154 246h-39l-17 164q-56 -71 -145.5 -125.5t-189.5 -54.5q-108 0 -172 70t-64 198v115q0 115 57 178t160 63h342v105q-2 99 -37.5 145.5t-126.5 46.5q-131 0 -350 -28l-12 96
q254 45 387 45q137 0 203.5 -70t66.5 -235v-713q-90 -132 -123 -242q-26 -82 12.5 -108.5t118.5 10.5zM348 98q65 -2 147.5 41.5t151.5 118.5v250l-317 -4q-58 -3 -83.5 -41t-25.5 -113v-86q0 -166 127 -166z" />
    <glyph glyph-name="Cacute" unicode="&#x106;" horiz-adv-x="946" 
d="M784 1759l-309 -262l-47 62l281 299zM547 1438q106 0 171.5 -8.5t135.5 -30.5l-14 -101q-133 19 -293 19q-114 0 -178.5 -57.5t-93.5 -188.5t-29 -364t29 -364t93.5 -189t178.5 -58q186 0 315 23l17 -101q-133 -43 -332 -43q-166 0 -261.5 71.5t-138.5 229.5t-43 431
q0 205 23 342t76 225t136 126t208 38z" />
    <glyph glyph-name="cacute" unicode="&#x107;" horiz-adv-x="802" 
d="M694 1389l-309 -263l-47 62l280 299zM473 1018q154 0 254 -45l-18 -84q-93 16 -215 16q-100 0 -156 -36.5t-82.5 -124.5t-26.5 -248q0 -159 26.5 -247.5t82.5 -124.5t156 -36q130 0 235 23l12 -91q-121 -45 -270 -45q-208 0 -293.5 117t-85.5 404t86 404.5t295 117.5z
" />
    <glyph glyph-name="Cdotaccent" unicode="&#x10a;" horiz-adv-x="946" 
d="M514 1772h43q39 0 39 -43v-121q0 -41 -39 -41h-43q-41 0 -41 41v121q0 43 41 43zM547 1438q106 0 171.5 -8.5t135.5 -30.5l-14 -101q-133 19 -293 19q-114 0 -178.5 -57.5t-93.5 -188.5t-29 -364t29 -364t93.5 -189t178.5 -58q186 0 315 23l17 -101q-133 -43 -332 -43
q-166 0 -261.5 71.5t-138.5 229.5t-43 431q0 205 23 342t76 225t136 126t208 38z" />
    <glyph glyph-name="cdotaccent" unicode="&#x10b;" horiz-adv-x="802" 
d="M422 1401h43q39 0 39 -43v-121q0 -41 -39 -41h-43q-41 0 -41 41v121q0 43 41 43zM473 1018q154 0 254 -45l-18 -84q-93 16 -215 16q-100 0 -156 -36.5t-82.5 -124.5t-26.5 -248q0 -159 26.5 -247.5t82.5 -124.5t156 -36q130 0 235 23l12 -91q-121 -45 -270 -45
q-208 0 -293.5 117t-85.5 404t86 404.5t295 117.5z" />
    <glyph glyph-name="Ccaron" unicode="&#x10c;" horiz-adv-x="946" 
d="M801 1782l-236 -252h-61l-234 252l43 57l215 -188h13l215 188zM547 1438q106 0 171.5 -8.5t135.5 -30.5l-14 -101q-133 19 -293 19q-114 0 -178.5 -57.5t-93.5 -188.5t-29 -364t29 -364t93.5 -189t178.5 -58q186 0 315 23l17 -101q-133 -43 -332 -43q-166 0 -261.5 71.5
t-138.5 229.5t-43 431q0 205 23 342t76 225t136 126t208 38z" />
    <glyph glyph-name="ccaron" unicode="&#x10d;" horiz-adv-x="802" 
d="M711 1411l-236 -252h-61l-234 252l43 57l215 -188h13l215 188zM473 1018q154 0 254 -45l-18 -84q-93 16 -215 16q-100 0 -156 -36.5t-82.5 -124.5t-26.5 -248q0 -159 26.5 -247.5t82.5 -124.5t156 -36q130 0 235 23l12 -91q-121 -45 -270 -45q-208 0 -293.5 117
t-85.5 404t86 404.5t295 117.5z" />
    <glyph glyph-name="Dcaron" unicode="&#x10e;" horiz-adv-x="1095" 
d="M524 1530l-233 252l43 57l215 -188h12l215 188l45 -57l-235 -252h-62zM549 1432q165 0 260 -69t138.5 -226t43.5 -430t-43.5 -430t-138.5 -226t-260 -69q-191 0 -402 18v1413q222 19 402 19zM549 100q113 0 177.5 58t93 188.5t28.5 360.5t-28.5 360.5t-93 189
t-177.5 58.5q-106 0 -266 -4v-1207q152 -4 266 -4z" />
    <glyph glyph-name="dcaron" unicode="&#x10f;" horiz-adv-x="942" 
d="M956 1440h35q24 0 33.5 -9.5t9.5 -33.5v-109q-3 -132 -49 -246l-55 15q14 98 14 200q-15 0 -24.5 10t-8.5 27v103q2 23 12 33t33 10zM680 1434h131v-1434h-102l-13 150q-151 -175 -317 -175q-152 0 -218.5 126t-66.5 397q0 281 72.5 400.5t228.5 119.5q151 0 293 -94
q-8 88 -8 192v318zM420 90q63 0 115.5 33.5t144.5 120.5v590q-84 37 -138 53t-114 16q-75 0 -117 -36t-62 -123.5t-20 -243.5q0 -231 43 -320.5t148 -89.5z" />
    <glyph glyph-name="Dcroat" unicode="&#x110;" horiz-adv-x="1101" 
d="M557 1432q165 0 260 -69t138.5 -226t43.5 -430t-43.5 -430t-138.5 -226t-260 -69q-190 0 -401 18v715h-117v80h117v618q222 19 401 19zM557 100q113 0 177.5 58t93 188.5t28.5 360.5t-28.5 360.5t-93 189t-177.5 58.5q-106 0 -266 -4v-516h252v-80h-252v-611
q152 -4 266 -4z" />
    <glyph glyph-name="dcroat" unicode="&#x111;" horiz-adv-x="933" 
d="M922 1186h-111v-1186h-102l-13 150q-151 -175 -317 -175q-152 0 -218.5 126t-66.5 397q0 281 72.5 400.5t228.5 119.5q151 0 293 -94q-8 88 -8 192v70h-258v80h258v168h131v-168h111v-80zM420 90q63 0 115.5 33.5t144.5 120.5v590q-84 37 -138 53t-114 16q-75 0 -117 -36
t-62 -123.5t-20 -243.5q0 -231 43 -320.5t148 -89.5z" />
    <glyph glyph-name="Emacron" unicode="&#x112;" horiz-adv-x="923" 
d="M752 1669h-459v100h459v-100zM831 113l7 -103q-152 -12 -488 -12q-98 0 -155.5 63.5t-57.5 169.5v951q0 106 58 169.5t155 63.5q336 0 488 -12l-7 -103h-458q-101 0 -101 -149v-346h496v-109h-496v-436q0 -147 101 -147h458z" />
    <glyph glyph-name="emacron" unicode="&#x113;" horiz-adv-x="884" 
d="M688 1253h-459v101h459v-101zM487 88q114 0 281 25l12 -88q-51 -23 -141 -36.5t-168 -13.5q-205 0 -292 120t-87 405q0 286 85 402t282 116q176 0 258 -76.5t82 -232.5q3 -277 -189 -277h-379q5 -134 33.5 -209.5t81 -105t141.5 -29.5zM465 905q-131 0 -182 -80t-54 -290
h349q94 0 90 172q0 105 -47.5 151.5t-155.5 46.5z" />
    <glyph glyph-name="Edotaccent" unicode="&#x116;" horiz-adv-x="923" 
d="M545 1612h-43q-41 0 -41 41v121q0 43 41 43h43q39 0 39 -43v-121q0 -41 -39 -41zM831 113l7 -103q-152 -12 -488 -12q-98 0 -155.5 63.5t-57.5 169.5v951q0 106 58 169.5t155 63.5q336 0 488 -12l-7 -103h-458q-101 0 -101 -149v-346h496v-109h-496v-436q0 -147 101 -147
h458z" />
    <glyph glyph-name="edotaccent" unicode="&#x117;" horiz-adv-x="884" 
d="M479 1196h-43q-41 0 -41 41v121q0 43 41 43h43q39 0 39 -43v-121q0 -41 -39 -41zM487 88q114 0 281 25l12 -88q-51 -23 -141 -36.5t-168 -13.5q-205 0 -292 120t-87 405q0 286 85 402t282 116q176 0 258 -76.5t82 -232.5q3 -277 -189 -277h-379q5 -134 33.5 -209.5
t81 -105t141.5 -29.5zM465 905q-131 0 -182 -80t-54 -290h349q94 0 90 172q0 105 -47.5 151.5t-155.5 46.5z" />
    <glyph glyph-name="Eogonek" unicode="&#x118;" horiz-adv-x="923" 
d="M846 -330l16 -57q-50 -25 -91.5 -34t-70.5 -3t-49.5 22.5t-30 42t-9.5 57t10 66.5q35 121 149 242q-135 -8 -420 -8q-98 0 -155.5 63.5t-57.5 169.5v951q0 106 58 169.5t155 63.5q336 0 488 -12l-7 -103h-458q-101 0 -101 -149v-346h496v-109h-496v-436q0 -147 101 -147
h458l7 -103q-90 -133 -123 -241q-26 -82 12.5 -109t118.5 10z" />
    <glyph glyph-name="eogonek" unicode="&#x119;" horiz-adv-x="884" 
d="M788 -315l17 -58q-59 -30 -107.5 -37t-77.5 6.5t-47.5 39.5t-19 64t9.5 79q33 113 129 219q-118 -23 -221 -23q-205 0 -292 120t-87 405q0 286 85 402t282 116q176 0 258 -76.5t82 -232.5q3 -277 -189 -277h-379q5 -134 33.5 -209.5t81 -105t141.5 -29.5q114 0 281 25
l12 -88q-90 -132 -123 -242q-26 -82 12.5 -108.5t118.5 10.5zM465 905q-131 0 -182 -80t-54 -290h349q94 0 90 172q0 105 -47.5 151.5t-155.5 46.5z" />
    <glyph glyph-name="Ecaron" unicode="&#x11a;" horiz-adv-x="923" 
d="M492 1575l-234 252l43 57l215 -188h12l215 188l45 -57l-235 -252h-61zM831 113l7 -103q-152 -12 -488 -12q-98 0 -155.5 63.5t-57.5 169.5v951q0 106 58 169.5t155 63.5q336 0 488 -12l-7 -103h-458q-101 0 -101 -149v-346h496v-109h-496v-436q0 -147 101 -147h458z" />
    <glyph glyph-name="ecaron" unicode="&#x11b;" horiz-adv-x="884" 
d="M428 1159l-233 252l43 57l215 -188h12l215 188l45 -57l-236 -252h-61zM487 88q114 0 281 25l12 -88q-51 -23 -141 -36.5t-168 -13.5q-205 0 -292 120t-87 405q0 286 85 402t282 116q176 0 258 -76.5t82 -232.5q3 -277 -189 -277h-379q5 -134 33.5 -209.5t81 -105
t141.5 -29.5zM465 905q-131 0 -182 -80t-54 -290h349q94 0 90 172q0 105 -47.5 151.5t-155.5 46.5z" />
    <glyph glyph-name="Gbreve" unicode="&#x11e;" horiz-adv-x="1034" 
d="M555 1534q-118 0 -185 70t-61 186l68 12q0 -80 46 -124t132 -44q83 0 129.5 44.5t46.5 123.5l68 -12q5 -116 -61.5 -186t-182.5 -70zM920 817v-817h-99l-16 154q-59 -78 -145.5 -128.5t-194.5 -50.5q-191 0 -276 175.5t-85 558.5q0 279 46 436t146.5 225t278.5 68
q184 0 316 -39l-14 -101q-153 21 -295 21q-130 0 -200 -51t-103 -183.5t-33 -382.5q0 -331 57.5 -470.5t196.5 -139.5q57 0 112.5 25t90.5 53.5t85 77.5v569h132z" />
    <glyph glyph-name="gbreve" unicode="&#x11f;" horiz-adv-x="917" 
d="M449 1163q-118 0 -185 70t-61 186l67 13q0 -80 46.5 -124t132.5 -44q83 0 129.5 44.5t46.5 123.5l67 -13q5 -116 -61 -186t-182 -70zM872 918l-131 -11q45 -71 45 -202q0 -165 -76.5 -238.5t-263.5 -73.5q-107 0 -172 23q-20 -41 -23 -82.5t17 -75.5t64 -43l301 -63
q110 -22 155.5 -85t45.5 -190q0 -167 -82.5 -232t-296.5 -65q-216 0 -300.5 64.5t-84.5 230.5q0 96 30.5 153t112.5 107q-72 54 -70.5 152.5t64.5 158.5q-103 68 -103 259q0 165 77.5 239t264.5 74q114 0 185 -27h250zM446 494q121 0 169.5 49t48.5 162q0 112 -48.5 161
t-169.5 49q-123 0 -173 -49t-50 -161t50.5 -161.5t172.5 -49.5zM707 -115q0 84 -28 117.5t-112 50.5l-268 53l-2 -2q-59 -51 -78.5 -98t-19.5 -117q0 -117 50.5 -157.5t199.5 -40.5q154 0 206 39.5t52 154.5z" />
    <glyph glyph-name="Gdotaccent" unicode="&#x120;" horiz-adv-x="1034" 
d="M578 1567h-43q-41 0 -41 41v121q0 43 41 43h43q38 0 38 -43v-121q0 -41 -38 -41zM920 817v-817h-99l-16 154q-59 -78 -145.5 -128.5t-194.5 -50.5q-191 0 -276 175.5t-85 558.5q0 279 46 436t146.5 225t278.5 68q184 0 316 -39l-14 -101q-153 21 -295 21q-130 0 -200 -51
t-103 -183.5t-33 -382.5q0 -331 57.5 -470.5t196.5 -139.5q57 0 112.5 25t90.5 53.5t85 77.5v569h132z" />
    <glyph glyph-name="gdotaccent" unicode="&#x121;" horiz-adv-x="917" 
d="M471 1196h-43q-41 0 -41 41v121q0 43 41 43h43q39 0 39 -43v-121q0 -41 -39 -41zM872 918l-131 -11q45 -71 45 -202q0 -165 -76.5 -238.5t-263.5 -73.5q-107 0 -172 23q-20 -41 -23 -82.5t17 -75.5t64 -43l301 -63q110 -22 155.5 -85t45.5 -190q0 -167 -82.5 -232
t-296.5 -65q-216 0 -300.5 64.5t-84.5 230.5q0 96 30.5 153t112.5 107q-72 54 -70.5 152.5t64.5 158.5q-103 68 -103 259q0 165 77.5 239t264.5 74q114 0 185 -27h250zM446 494q121 0 169.5 49t48.5 162q0 112 -48.5 161t-169.5 49q-123 0 -173 -49t-50 -161t50.5 -161.5
t172.5 -49.5zM707 -115q0 84 -28 117.5t-112 50.5l-268 53l-2 -2q-59 -51 -78.5 -98t-19.5 -117q0 -117 50.5 -157.5t199.5 -40.5q154 0 206 39.5t52 154.5z" />
    <glyph glyph-name="Gcommaaccent" unicode="&#x122;" horiz-adv-x="1034" 
d="M920 817v-817h-99l-16 154q-59 -78 -145.5 -128.5t-194.5 -50.5q-191 0 -276 175.5t-85 558.5q0 279 46 436t146.5 225t278.5 68q184 0 316 -39l-14 -101q-153 21 -295 21q-130 0 -200 -51t-103 -183.5t-33 -382.5q0 -331 57.5 -470.5t196.5 -139.5q57 0 112.5 25
t90.5 53.5t85 77.5v569h132zM522 -125h35q25 0 34 -9t9 -34v-115q-3 -145 -49 -260l-57 17q14 104 14 211q-33 0 -33 39v108q1 24 12 33.5t35 9.5z" />
    <glyph glyph-name="gcommaaccent" unicode="&#x123;" horiz-adv-x="917" 
d="M483 1147h-34q-25 0 -34 9t-9 34v115q3 145 49 260l57 -17q-14 -104 -14 -211q32 0 32 -39v-108q-1 -24 -12 -33.5t-35 -9.5zM872 918l-131 -11q45 -71 45 -202q0 -165 -76.5 -238.5t-263.5 -73.5q-107 0 -172 23q-20 -41 -23 -82.5t17 -75.5t64 -43l301 -63
q110 -22 155.5 -85t45.5 -190q0 -167 -82.5 -232t-296.5 -65q-216 0 -300.5 64.5t-84.5 230.5q0 96 30.5 153t112.5 107q-72 54 -70.5 152.5t64.5 158.5q-103 68 -103 259q0 165 77.5 239t264.5 74q114 0 185 -27h250zM446 494q121 0 169.5 49t48.5 162q0 112 -48.5 161
t-169.5 49q-123 0 -173 -49t-50 -161t50.5 -161.5t172.5 -49.5zM707 -115q0 84 -28 117.5t-112 50.5l-268 53l-2 -2q-59 -51 -78.5 -98t-19.5 -117q0 -117 50.5 -157.5t199.5 -40.5q154 0 206 39.5t52 154.5z" />
    <glyph glyph-name="Hbar" unicode="&#x126;" horiz-adv-x="1112" 
d="M1075 1067h-114v-1067h-136v698h-536v-698h-135v1067h-119v78h119v268h135v-268h536v268h136v-268h114v-78zM825 1067h-536v-254h536v254z" />
    <glyph glyph-name="hbar" unicode="&#x127;" horiz-adv-x="960" 
d="M616 1018q107 0 162.5 -69.5t55.5 -203.5v-745h-129v711q0 105 -28.5 149.5t-94.5 44.5q-68 0 -137.5 -39.5t-176.5 -128.5v-737h-131v1186h-127v80h127v168h131v-168h242v-80h-242v-164q0 -101 -10 -193q195 189 358 189z" />
    <glyph glyph-name="Imacron" unicode="&#x12a;" horiz-adv-x="428" 
d="M442 1624h-458v100h458v-100zM283 0h-136v1413h136v-1413z" />
    <glyph glyph-name="imacron" unicode="&#x12b;" horiz-adv-x="407" 
d="M432 1253h-459v101h459v-101zM270 0h-131v991h131v-991z" />
    <glyph glyph-name="Iogonek" unicode="&#x12e;" horiz-adv-x="428" 
d="M274 -340l17 -57q-59 -30 -107.5 -37t-77.5 6t-47.5 39.5t-19 64t9.5 78.5q36 125 154 246h-56v1413h136v-1413h-17q-90 -132 -123 -242q-26 -82 12.5 -108.5t118.5 10.5z" />
    <glyph glyph-name="iogonek" unicode="&#x12f;" horiz-adv-x="407" 
d="M225 1196h-43q-41 0 -41 41v121q0 43 41 43h43q39 0 39 -43v-121q0 -41 -39 -41zM264 -340l17 -57q-59 -30 -107.5 -37t-77.5 6t-47.5 39.5t-19 64t9.5 78.5q36 125 154 246h-54v991h131v-991h-14q-90 -132 -123 -242q-26 -82 12.5 -108.5t118.5 10.5z" />
    <glyph glyph-name="Idotaccent" unicode="&#x130;" horiz-adv-x="428" 
d="M193 1772h43q38 0 38 -43v-121q0 -41 -38 -41h-43q-41 0 -41 41v121q0 43 41 43zM283 0h-136v1413h136v-1413z" />
    <glyph glyph-name="dotlessi" unicode="&#x131;" horiz-adv-x="407" 
d="M270 0h-131v991h131v-991z" />
    <glyph glyph-name="IJ" unicode="&#x132;" horiz-adv-x="987" 
d="M283 0h-136v1413h136v-1413zM846 1413v-1139q0 -142 -56.5 -216t-162.5 -74q-74 0 -148 20l15 94h84q133 0 133 172v1143h135z" />
    <glyph glyph-name="ij" unicode="&#x133;" horiz-adv-x="815" 
d="M172 1409h61q41 0 41 -43v-119q0 -43 -41 -43h-61q-39 0 -39 43v119q0 43 39 43zM582 1409h61q41 0 41 -43v-119q0 -43 -41 -43h-61q-41 0 -41 43v119q0 43 41 43zM268 0h-129v991h129v-991zM678 991v-1040q0 -111 -40 -207.5t-112 -165.5l-71 57q92 142 92 316v1040h131
z" />
    <glyph glyph-name="Kcommaaccent" unicode="&#x136;" horiz-adv-x="970" 
d="M936 0h-152l-376 682h-138q11 -101 11 -160v-522h-134v1413h134v-457q0 -66 -11 -163h140l356 620h147l-344 -596q-27 -49 -61 -78v-6q48 -45 70 -84zM500 -125h35q25 0 34 -9t9 -34v-115q-3 -142 -50 -260l-57 17q14 104 14 211q-32 0 -32 39v108q1 24 12 33.5t35 9.5z
" />
    <glyph glyph-name="kcommaaccent" unicode="&#x137;" horiz-adv-x="833" 
d="M801 0h-148l-293 514h-106q8 -114 8 -166v-348h-131v1434h131v-652q0 -97 -8 -170h106l265 379h149l-254 -370q-26 -37 -55 -58v-4q30 -26 55 -70zM436 -125h35q25 0 34 -9t9 -34v-115q-3 -145 -49 -260l-57 17q14 104 14 211q-33 0 -33 39v108q1 24 12 33.5t35 9.5z" />
    <glyph glyph-name="Lacute" unicode="&#x139;" horiz-adv-x="845" 
d="M463 1759l-309 -262l-48 62l281 299zM276 1413v-1151q0 -149 113 -149h414l6 -103q-174 -12 -442 -12q-116 0 -171 66.5t-55 179.5v1169h135z" />
    <glyph glyph-name="lacute" unicode="&#x13a;" horiz-adv-x="485" 
d="M451 1804l-310 -262l-47 62l281 299zM264 1434l-2 -1188q0 -70 28.5 -107t82.5 -37h80l16 -98q-52 -20 -143 -20q-89 0 -141 61.5t-52 175.5v1213h131z" />
    <glyph glyph-name="Lcommaaccent" unicode="&#x13b;" horiz-adv-x="845" 
d="M276 1413v-1151q0 -149 113 -149h414l6 -103q-174 -12 -442 -12q-116 0 -171 66.5t-55 179.5v1169h135zM471 -135h35q25 0 34 -9t9 -34v-115q-3 -145 -49 -260l-58 16q15 111 15 211q-33 0 -33 39v109q1 24 12 33.5t35 9.5z" />
    <glyph glyph-name="lcommaaccent" unicode="&#x13c;" horiz-adv-x="485" 
d="M264 1434l-2 -1188q0 -70 28.5 -107t82.5 -37h80l16 -98q-52 -20 -143 -20q-89 0 -141 61.5t-52 175.5v1213h131zM268 -135h35q25 0 34 -9t9 -34v-115q-3 -145 -49 -260l-57 16q14 104 14 211q-33 0 -33 39v109q1 24 12 33.5t35 9.5z" />
    <glyph glyph-name="Lcaron" unicode="&#x13d;" horiz-adv-x="845" 
d="M522 1415h35q25 0 34 -9t9 -34v-115q-3 -145 -49 -260l-57 17q14 104 14 211q-33 0 -33 39v108q1 24 12 33.5t35 9.5zM276 1413v-1151q0 -149 113 -149h414l6 -103q-174 -12 -442 -12q-116 0 -171 66.5t-55 179.5v1169h135z" />
    <glyph glyph-name="lcaron" unicode="&#x13e;" horiz-adv-x="485" 
d="M412 1440h34q24 0 33.5 -9.5t9.5 -33.5v-109q-3 -132 -49 -246l-55 15q14 98 14 200q-15 0 -24 10t-8 27v103q2 23 12 33t33 10zM264 1434l-2 -1188q0 -70 28.5 -107t82.5 -37h80l16 -98q-52 -20 -143 -20q-89 0 -141 61.5t-52 175.5v1213h131z" />
    <glyph glyph-name="Ldot" unicode="&#x13f;" horiz-adv-x="845" 
d="M276 1413v-1151q0 -149 113 -149h414l6 -103q-174 -12 -442 -12q-116 0 -171 66.5t-55 179.5v1169h135zM659 688h-43q-38 0 -38 43v121q0 41 38 41h43q41 0 41 -41v-121q0 -43 -41 -43z" />
    <glyph glyph-name="ldot" unicode="&#x140;" horiz-adv-x="526" 
d="M264 1434l-2 -1188q0 -70 28.5 -107t82.5 -37h80l16 -98q-52 -20 -143 -20q-89 0 -141 61.5t-52 175.5v1213h131zM477 694h-43q-41 0 -41 43v121q0 43 41 43h43q39 0 39 -43v-121q0 -43 -39 -43z" />
    <glyph glyph-name="Lslash" unicode="&#x141;" horiz-adv-x="854" 
d="M811 113l6 -103q-172 -12 -442 -12q-115 0 -170 67t-55 179v454l-117 -59v86l117 59v629h137v-559l192 96v-86l-192 -96v-506q0 -149 110 -149h414z" />
    <glyph glyph-name="lslash" unicode="&#x142;" horiz-adv-x="534" 
d="M489 102l17 -98q-52 -20 -144 -20q-89 0 -140.5 61.5t-51.5 175.5v479l-133 -67v88l133 67v646h131v-580l178 92v-88l-180 -92v-520q0 -70 28.5 -107t82.5 -37h79z" />
    <glyph glyph-name="Nacute" unicode="&#x143;" horiz-adv-x="1161" 
d="M838 1759l-310 -262l-47 62l281 299zM1014 1413v-1356q0 -57 -53 -57h-150q-48 0 -59 45l-387 1073q-20 65 -60 170h-24v-170l2 -1118h-136v1356q0 57 54 57h145q51 0 62 -45l374 -1049q9 -28 68 -190h31q-2 68 -2 203v1081h135z" />
    <glyph glyph-name="nacute" unicode="&#x144;" horiz-adv-x="954" 
d="M428 1126l-47 62l281 299l75 -98zM612 1018q106 0 161.5 -70t55.5 -203v-745h-131v711q0 105 -27.5 149.5t-92.5 44.5q-68 0 -138 -40t-178 -130v-735h-131v991h111l8 -162q195 189 362 189z" />
    <glyph glyph-name="Ncommaaccent" unicode="&#x145;" horiz-adv-x="1161" 
d="M1014 1413v-1356q0 -57 -53 -57h-150q-48 0 -59 45l-387 1073q-20 65 -60 170h-24v-170l2 -1118h-136v1356q0 57 54 57h145q51 0 62 -45l374 -1049q9 -28 68 -190h31q-2 68 -2 203v1081h135zM541 -125h34q25 0 34 -9t9 -34v-115q-3 -145 -49 -260l-57 17q14 104 14 211
q-32 0 -32 39v108q1 24 12 33.5t35 9.5z" />
    <glyph glyph-name="ncommaaccent" unicode="&#x146;" horiz-adv-x="954" 
d="M612 1018q106 0 161.5 -70t55.5 -203v-745h-131v711q0 105 -27.5 149.5t-92.5 44.5q-68 0 -138 -40t-178 -130v-735h-131v991h111l8 -162q195 189 362 189zM463 -123h35q26 0 34.5 -9.5t8.5 -35.5v-115q0 -137 -49 -260l-58 19q15 108 15 209q-33 0 -33 39v108
q1 24 12 34.5t35 10.5z" />
    <glyph glyph-name="Ncaron" unicode="&#x147;" horiz-adv-x="1161" 
d="M854 1782l-236 -252h-61l-233 252l43 57l215 -188h12l215 188zM1014 1413v-1356q0 -57 -53 -57h-150q-48 0 -59 45l-387 1073q-20 65 -60 170h-24v-170l2 -1118h-136v1356q0 57 54 57h145q51 0 62 -45l374 -1049q9 -28 68 -190h31q-2 68 -2 203v1081h135z" />
    <glyph glyph-name="ncaron" unicode="&#x148;" horiz-adv-x="954" 
d="M457 1159l-234 252l43 57l215 -188h13l215 188l45 -57l-236 -252h-61zM612 1018q106 0 161.5 -70t55.5 -203v-745h-131v711q0 105 -27.5 149.5t-92.5 44.5q-68 0 -138 -40t-178 -130v-735h-131v991h111l8 -162q195 189 362 189z" />
    <glyph glyph-name="Eng" unicode="&#x14a;" horiz-adv-x="1161" 
d="M1014 1413v-1591q0 -130 -57.5 -199t-161.5 -69q-79 0 -144 20l15 84h84q137 0 137 174v168h-80q-30 0 -43 41l-397 1065q-21 66 -60 174h-28q4 -38 4 -176v-1104h-136v1356q0 57 54 57h131q47 0 61 -45l385 -1026q59 -162 72 -195h31q-2 68 -2 205v1061h135z" />
    <glyph glyph-name="eng" unicode="&#x14b;" horiz-adv-x="954" 
d="M610 1018q108 0 163.5 -69.5t55.5 -203.5v-899q0 -270 -202 -270q-64 0 -135 23l14 82h72q120 0 120 174v856q0 99 -28.5 142.5t-96.5 43.5q-118 0 -311 -166v-731h-131v991h102l13 -170q191 197 364 197z" />
    <glyph glyph-name="Omacron" unicode="&#x14c;" 
d="M778 1624h-459v100h459v-100zM551 1438q167 0 262.5 -69.5t139.5 -227.5t44 -434q0 -208 -23 -345.5t-77 -225t-137.5 -124.5t-208.5 -37q-169 0 -265 70t-139 227.5t-43 434.5t43.5 434.5t139 227t264.5 69.5zM551 1319q-116 0 -181.5 -58.5t-94.5 -189.5t-29 -364
t29 -364.5t94.5 -190t181.5 -58.5q115 0 180 58.5t94 190t29 364.5q0 175 -15 289.5t-51.5 188t-93 104t-143.5 30.5z" />
    <glyph glyph-name="omacron" unicode="&#x14d;" horiz-adv-x="933" 
d="M696 1253h-458v101h458v-101zM467 1018q205 0 290 -118t85 -404t-84.5 -403.5t-290.5 -117.5q-204 0 -289.5 118t-85.5 403t85.5 403.5t289.5 118.5zM467 905q-91 0 -141.5 -37.5t-73.5 -125.5t-23 -246q0 -159 23 -246.5t73.5 -125.5t141.5 -38q136 0 188 88t52 322
t-52 321.5t-188 87.5z" />
    <glyph glyph-name="Ohungarumlaut" unicode="&#x150;" 
d="M616 1808l-219 -319l-59 43l182 344zM883 1808l-219 -319l-58 43l180 344zM551 1438q167 0 262.5 -69.5t139.5 -227.5t44 -434q0 -208 -23 -345.5t-77 -225t-137.5 -124.5t-208.5 -37q-169 0 -265 70t-139 227.5t-43 434.5t43.5 434.5t139 227t264.5 69.5zM551 1319
q-116 0 -181.5 -58.5t-94.5 -189.5t-29 -364t29 -364.5t94.5 -190t181.5 -58.5q115 0 180 58.5t94 190t29 364.5q0 175 -15 289.5t-51.5 188t-93 104t-143.5 30.5z" />
    <glyph glyph-name="ohungarumlaut" unicode="&#x151;" horiz-adv-x="933" 
d="M535 1438l-220 -320l-59 43l182 344zM801 1438l-219 -320l-58 43l181 344zM467 1018q205 0 290 -118t85 -404t-84.5 -403.5t-290.5 -117.5q-204 0 -289.5 118t-85.5 403t85.5 403.5t289.5 118.5zM467 905q-91 0 -141.5 -37.5t-73.5 -125.5t-23 -246q0 -159 23 -246.5
t73.5 -125.5t141.5 -38q136 0 188 88t52 322t-52 321.5t-188 87.5z" />
    <glyph glyph-name="OE" unicode="&#x152;" horiz-adv-x="1501" 
d="M1411 113l6 -103q-154 -12 -487 -12q-64 0 -113 43q-66 -36 -124 -51t-142 -15q-169 0 -265 70t-139 227.5t-43 434.5t43.5 434.5t139 227t264.5 69.5q87 0 145 -14t127 -50q50 41 119 41q325 0 475 -12l-6 -103h-424q-113 0 -113 -149v-344l472 -2v-109l-472 -2v-434
q0 -147 113 -147h424zM246 707q0 -233 29 -364.5t94.5 -190t181.5 -58.5q119 0 205 41q-19 52 -19 109v925q0 57 19 109q-93 41 -205 41q-117 0 -182 -57t-94 -188t-29 -367z" />
    <glyph glyph-name="oe" unicode="&#x153;" horiz-adv-x="1497" 
d="M1104 88q109 0 276 25l13 -88q-50 -23 -141.5 -36.5t-166.5 -13.5q-227 0 -311 146q-42 -76 -117 -111t-190 -35q-204 0 -289.5 118t-85.5 403t85.5 403.5t289.5 118.5q114 0 188.5 -33.5t116.5 -107.5q41 74 112 107.5t179 33.5q350 0 350 -297q0 -159 -56.5 -222
t-191.5 -63h-323q5 -136 34.5 -212.5t82.5 -106t145 -29.5zM467 86q127 0 180.5 76t59.5 272l-2 68v61q-6 193 -59 267.5t-179 74.5q-91 0 -141.5 -37.5t-73.5 -125.5t-23 -246q0 -159 23 -246.5t73.5 -125.5t141.5 -38zM1067 905q-120 0 -170.5 -75.5t-56.5 -264.5v-28h317
q71 0 100 41t25 141q-3 95 -54.5 140.5t-160.5 45.5z" />
    <glyph glyph-name="Racute" unicode="&#x154;" horiz-adv-x="1017" 
d="M475 1497l-47 62l281 299l75 -99zM940 0h-143l-105 444q-21 87 -57 124.5t-94 37.5q-61 0 -148 1t-112 1v-608h-134v1413q149 17 390 17q101 0 167 -18.5t111 -65t64.5 -124t19.5 -196.5q0 -179 -47.5 -264t-161.5 -105v-8q45 -16 83.5 -68t57.5 -132zM281 723h251
q89 1 137.5 27t71.5 90t23 180q0 172 -50.5 233.5t-181.5 61.5q-54 0 -138 -1t-113 -1v-590z" />
    <glyph glyph-name="racute" unicode="&#x155;" horiz-adv-x="657" 
d="M317 1126l-47 62l281 299l76 -98zM233 991l13 -164q188 191 346 191h35l-15 -123h-45q-64 0 -129.5 -35t-175.5 -117v-743h-131v991h102z" />
    <glyph glyph-name="Rcommaaccent" unicode="&#x156;" horiz-adv-x="1017" 
d="M940 0h-143l-105 444q-21 87 -57 124.5t-94 37.5q-61 0 -148 1t-112 1v-608h-134v1413q149 17 390 17q101 0 167 -18.5t111 -65t64.5 -124t19.5 -196.5q0 -179 -47.5 -264t-161.5 -105v-8q45 -16 83.5 -68t57.5 -132zM281 723h251q89 1 137.5 27t71.5 90t23 180
q0 172 -50.5 233.5t-181.5 61.5q-54 0 -138 -1t-113 -1v-590zM524 -125h35q25 0 34 -9t9 -34v-115q-3 -145 -49 -260l-57 17q14 104 14 211q-33 0 -33 39v108q1 24 12 33.5t35 9.5z" />
    <glyph glyph-name="rcommaaccent" unicode="&#x157;" horiz-adv-x="657" 
d="M627 1018l-15 -123h-45q-64 0 -129.5 -35t-175.5 -117v-743h-131v991h102l13 -164q188 191 346 191h35zM168 -125h35q25 0 34 -9t9 -34v-115q-3 -145 -49 -260l-58 17q15 111 15 211q-33 0 -33 39v108q1 24 12 33.5t35 9.5z" />
    <glyph glyph-name="Rcaron" unicode="&#x158;" horiz-adv-x="1017" 
d="M504 1530l-234 252l43 57l215 -188h13l215 188l45 -57l-236 -252h-61zM940 0h-143l-105 444q-21 87 -57 124.5t-94 37.5q-61 0 -148 1t-112 1v-608h-134v1413q149 17 390 17q101 0 167 -18.5t111 -65t64.5 -124t19.5 -196.5q0 -179 -47.5 -264t-161.5 -105v-8
q45 -16 83.5 -68t57.5 -132zM281 723h251q89 1 137.5 27t71.5 90t23 180q0 172 -50.5 233.5t-181.5 61.5q-54 0 -138 -1t-113 -1v-590z" />
    <glyph glyph-name="rcaron" unicode="&#x159;" horiz-adv-x="657" 
d="M346 1159l-233 252l43 57l215 -188h12l215 188l45 -57l-235 -252h-62zM233 991l13 -164q188 191 346 191h35l-15 -123h-45q-64 0 -129.5 -35t-175.5 -117v-743h-131v991h102z" />
    <glyph glyph-name="Sacute" unicode="&#x15a;" horiz-adv-x="925" 
d="M723 1759l-309 -262l-47 62l280 299zM459 1436q187 0 336 -33l-11 -98q-188 12 -317 12q-50 0 -77 -1.5t-59 -9.5t-47.5 -23.5t-30 -43.5t-19.5 -70.5t-5 -103.5q0 -126 34 -182.5t114 -77.5l231 -62q128 -32 180 -122.5t52 -264.5q0 -82 -9.5 -142.5t-31 -102.5
t-50 -68.5t-74 -41t-95 -19.5t-119.5 -5q-187 0 -352 31l10 101q242 -13 346 -13q72 1 113 10t71.5 37.5t41.5 79t11 135.5q0 133 -33.5 188.5t-113.5 76.5l-238 63q-121 30 -173 122t-52 261q0 83 9 143t30.5 101t49 65.5t72 37.5t91 17t115.5 3z" />
    <glyph glyph-name="sacute" unicode="&#x15b;" horiz-adv-x="835" 
d="M684 1389l-309 -263l-47 62l280 299zM395 1018q187 -4 336 -31l-12 -94q-200 12 -305 12q-32 1 -58.5 0t-47.5 -3t-37 -9t-27 -17.5t-18 -28t-10 -41.5t-3 -58q0 -84 26.5 -117t90.5 -49l237 -58q97 -24 142 -84.5t45 -181.5q0 -73 -14 -123.5t-39 -81.5t-69.5 -48
t-94.5 -22.5t-125 -5.5q-166 0 -312 27l11 96q120 -15 276 -12q73 1 115 7t72.5 24.5t41.5 51t11 87.5q0 81 -31 114t-96 48l-234 57q-98 23 -140 85t-42 186q0 71 12.5 119.5t34.5 78.5t62.5 46t86 21.5t115.5 4.5z" />
    <glyph glyph-name="Scedilla" unicode="&#x15e;" horiz-adv-x="925" 
d="M459 1436q187 0 336 -33l-11 -98q-188 12 -317 12q-50 0 -77 -1.5t-59 -9.5t-47.5 -23.5t-30 -43.5t-19.5 -70.5t-5 -103.5q0 -126 34 -182.5t114 -77.5l231 -62q128 -32 180 -122.5t52 -264.5q0 -82 -9.5 -142.5t-31 -102.5t-50 -68.5t-74 -41t-95 -19.5t-119.5 -5
q-187 0 -352 31l10 101q242 -13 346 -13q72 1 113 10t71.5 37.5t41.5 79t11 135.5q0 133 -33.5 188.5t-113.5 76.5l-238 63q-121 30 -173 122t-52 261q0 83 9 143t30.5 101t49 65.5t72 37.5t91 17t115.5 3zM385 -178l12 63q97 9 139.5 -20t41.5 -113q-3 -122 -79.5 -189
t-193.5 -48l21 71q68 -3 110.5 42.5t44.5 115.5q2 43 -18 60t-78 18z" />
    <glyph glyph-name="scedilla" unicode="&#x15f;" horiz-adv-x="835" 
d="M395 1018q187 -4 336 -31l-12 -94q-200 12 -305 12q-32 1 -58.5 0t-47.5 -3t-37 -9t-27 -17.5t-18 -28t-10 -41.5t-3 -58q0 -84 26.5 -117t90.5 -49l237 -58q97 -24 142 -84.5t45 -181.5q0 -73 -14 -123.5t-39 -81.5t-69.5 -48t-94.5 -22.5t-125 -5.5q-166 0 -312 27
l11 96q120 -15 276 -12q73 1 115 7t72.5 24.5t41.5 51t11 87.5q0 81 -31 114t-96 48l-234 57q-98 23 -140 85t-42 186q0 71 12.5 119.5t34.5 78.5t62.5 46t86 21.5t115.5 4.5zM328 -178l12 63q97 9 139 -20t41 -113q-3 -122 -79 -189t-193 -48l20 71q68 -3 111 42.5
t45 115.5q2 43 -18 60t-78 18z" />
    <glyph glyph-name="Scaron" unicode="&#x160;" horiz-adv-x="925" 
d="M739 1782l-235 -252h-62l-233 252l43 57l215 -188h12l215 188zM459 1436q187 0 336 -33l-11 -98q-188 12 -317 12q-50 0 -77 -1.5t-59 -9.5t-47.5 -23.5t-30 -43.5t-19.5 -70.5t-5 -103.5q0 -126 34 -182.5t114 -77.5l231 -62q128 -32 180 -122.5t52 -264.5
q0 -82 -9.5 -142.5t-31 -102.5t-50 -68.5t-74 -41t-95 -19.5t-119.5 -5q-187 0 -352 31l10 101q242 -13 346 -13q72 1 113 10t71.5 37.5t41.5 79t11 135.5q0 133 -33.5 188.5t-113.5 76.5l-238 63q-121 30 -173 122t-52 261q0 83 9 143t30.5 101t49 65.5t72 37.5t91 17
t115.5 3z" />
    <glyph glyph-name="scaron" unicode="&#x161;" horiz-adv-x="835" 
d="M700 1411l-235 -252h-62l-233 252l43 57l215 -188h12l215 188zM395 1018q187 -4 336 -31l-12 -94q-200 12 -305 12q-32 1 -58.5 0t-47.5 -3t-37 -9t-27 -17.5t-18 -28t-10 -41.5t-3 -58q0 -84 26.5 -117t90.5 -49l237 -58q97 -24 142 -84.5t45 -181.5q0 -73 -14 -123.5
t-39 -81.5t-69.5 -48t-94.5 -22.5t-125 -5.5q-166 0 -312 27l11 96q120 -15 276 -12q73 1 115 7t72.5 24.5t41.5 51t11 87.5q0 81 -31 114t-96 48l-234 57q-98 23 -140 85t-42 186q0 71 12.5 119.5t34.5 78.5t62.5 46t86 21.5t115.5 4.5z" />
    <glyph glyph-name="Tcedilla" unicode="&#x162;" horiz-adv-x="954" 
d="M913 1413v-119h-368v-1294h-137v1294h-367v119h872zM403 -156l13 64q97 9 139 -20t41 -113q-3 -122 -79.5 -189.5t-192.5 -48.5l20 72q68 -3 111 42.5t45 115.5q2 43 -18.5 59.5t-78.5 17.5z" />
    <glyph glyph-name="tcedilla" unicode="&#x163;" horiz-adv-x="622" 
d="M319 889v-643q0 -75 26.5 -109.5t84.5 -34.5h125l16 -98q-85 -20 -178 -20q-101 0 -152 63t-51 184v658h-145v92l145 10v301h129v-301h261v-102h-261zM311 -172l13 63q97 9 139 -20t41 -113q-3 -122 -79.5 -189t-193.5 -48l21 71q68 -3 111 42.5t45 115.5q2 43 -18.5 60
t-78.5 18z" />
    <glyph glyph-name="Tcaron" unicode="&#x164;" horiz-adv-x="954" 
d="M449 1530l-234 252l43 57l215 -188h12l215 188l45 -57l-235 -252h-61zM913 1294h-368v-1294h-137v1294h-367v119h872v-119z" />
    <glyph glyph-name="tcaron" unicode="&#x165;" horiz-adv-x="622" 
d="M473 1370q-33 0 -33 39v109q1 24 12 33.5t35 9.5h35q25 0 34 -9t9 -34v-115q-3 -145 -49 -260l-57 16q14 104 14 211zM319 889v-643q0 -75 26.5 -109.5t84.5 -34.5h125l16 -98q-85 -20 -178 -20q-101 0 -152 63t-51 184v658h-145v92l145 10v301h129v-301h261v-102h-261z
" />
    <glyph glyph-name="Tbar" unicode="&#x166;" horiz-adv-x="954" 
d="M545 1294v-430h231v-80h-231v-784h-137v784h-234v80h234v430h-367v119h872v-119h-368z" />
    <glyph glyph-name="tbar" unicode="&#x167;" horiz-adv-x="624" 
d="M319 889v-213h222v-78h-222v-352q0 -75 26.5 -109.5t84.5 -34.5h125l16 -98q-85 -20 -178 -20q-101 0 -152 63t-51 184v367h-108v78h108v213h-145v92l145 10v301h129v-301h261v-102h-261z" />
    <glyph glyph-name="Umacron" unicode="&#x16a;" 
d="M780 1624h-458v100h458v-100zM961 1413v-878q0 -305 -92 -432.5t-314 -127.5q-228 0 -322 127.5t-94 432.5v878h135v-878q0 -244 61.5 -342.5t213.5 -98.5t214 98.5t62 342.5v878h136z" />
    <glyph glyph-name="umacron" unicode="&#x16b;" horiz-adv-x="937" 
d="M700 1257h-458v101h458v-101zM807 991v-991h-105l-12 150q-181 -175 -346 -175q-107 0 -162 68.5t-55 202.5v745h131v-710q-2 -103 28.5 -148t100.5 -45q64 0 128 38t163 124v741h129z" />
    <glyph glyph-name="Uring" unicode="&#x16e;" 
d="M551 1882q72 0 124 -61t52 -148t-51 -147t-125 -60q-72 0 -123 60t-51 147t51.5 148t122.5 61zM551 1810q-43 0 -71.5 -38.5t-28.5 -98.5t29 -97.5t71 -37.5q43 0 71.5 37t28.5 98q0 60 -28.5 98.5t-71.5 38.5zM961 1413v-878q0 -305 -92 -432.5t-314 -127.5
q-228 0 -322 127.5t-94 432.5v878h135v-878q0 -244 61.5 -342.5t213.5 -98.5t214 98.5t62 342.5v878h136z" />
    <glyph glyph-name="uring" unicode="&#x16f;" horiz-adv-x="937" 
d="M471 1102q-72 0 -123 60t-51 147t51.5 148t122.5 61q72 0 124 -61t52 -148t-51 -147t-125 -60zM471 1446q-43 0 -71.5 -38.5t-28.5 -98.5t29 -97.5t71 -37.5q43 0 71.5 37t28.5 98q0 60 -28.5 98.5t-71.5 38.5zM807 991v-991h-105l-12 150q-181 -175 -346 -175
q-107 0 -162 68.5t-55 202.5v745h131v-710q-2 -103 28.5 -148t100.5 -45q64 0 128 38t163 124v741h129z" />
    <glyph glyph-name="Uhungarumlaut" unicode="&#x170;" 
d="M618 1808l-219 -319l-59 43l182 344zM885 1808l-219 -319l-58 43l180 344zM961 1413v-878q0 -305 -92 -432.5t-314 -127.5q-228 0 -322 127.5t-94 432.5v878h135v-878q0 -244 61.5 -342.5t213.5 -98.5t214 98.5t62 342.5v878h136z" />
    <glyph glyph-name="uhungarumlaut" unicode="&#x171;" horiz-adv-x="937" 
d="M319 1124l-59 43l182 344l97 -67zM528 1167l181 344l96 -67l-219 -320zM807 991v-991h-105l-12 150q-181 -175 -346 -175q-107 0 -162 68.5t-55 202.5v745h131v-710q-2 -103 28.5 -148t100.5 -45q64 0 128 38t163 124v741h129z" />
    <glyph glyph-name="Uogonek" unicode="&#x172;" 
d="M961 1413v-878q0 -284 -79.5 -413.5t-267.5 -144.5q-84 -120 -120 -237q-26 -82 12.5 -108.5t118.5 10.5l16 -58q-59 -30 -107.5 -37t-77.5 6.5t-47.5 39.5t-19 64t9.5 79q36 122 148 239q-223 1 -315.5 129.5t-92.5 430.5v878h135v-878q0 -244 61.5 -342.5t213.5 -98.5
t214 98.5t62 342.5v878h136z" />
    <glyph glyph-name="uogonek" unicode="&#x173;" horiz-adv-x="937" 
d="M817 -340l17 -57q-59 -30 -107.5 -37t-77.5 6t-47.5 39.5t-19 64t9.5 78.5q36 127 153 246h-43l-12 150q-181 -175 -346 -175q-107 0 -162 68.5t-55 202.5v745h131v-710q-2 -103 28.5 -148t100.5 -45q64 0 128 38t163 124v741h129v-991h2q-90 -132 -123 -242
q-26 -82 12.5 -108.5t118.5 10.5z" />
    <glyph glyph-name="Wcircumflex" unicode="&#x174;" horiz-adv-x="1560" 
d="M1049 1569l-48 -58l-213 203h-12l-215 -203l-43 58l217 254h96zM1507 1413l-237 -1372q-10 -41 -53 -41h-158q-43 0 -53 43l-183 1108q-15 101 -26 158h-35q-5 -25 -13.5 -78t-13.5 -80l-180 -1108q-10 -43 -55 -43h-158q-43 0 -53 41l-238 1372h144l184 -1145
q15 -81 24 -164h39q4 31 14 85t13 77l182 1100q3 22 17.5 34.5t36.5 12.5h149q45 0 55 -47l181 -1100q14 -75 24 -162h41q21 141 25 160l186 1149h141z" />
    <glyph glyph-name="wcircumflex" unicode="&#x175;" horiz-adv-x="1355" 
d="M944 1200l-47 -57l-213 203h-12l-215 -203l-43 57l217 254h96zM1313 991l-238 -952q-9 -39 -51 -39h-121q-20 0 -35 11.5t-18 31.5l-135 711q-14 89 -29 153h-18q-4 -25 -29 -153l-135 -711q-1 -20 -16 -31.5t-37 -11.5h-119q-42 0 -51 39l-240 952h135l174 -760
q5 -23 14.5 -71t14.5 -72h20q28 138 29 143l137 719q7 41 51 41h125q19 0 33 -11.5t17 -31.5l135 -717q20 -94 28 -143h25q16 98 27 143l172 760h135z" />
    <glyph glyph-name="Ycircumflex" unicode="&#x176;" horiz-adv-x="931" 
d="M244 1513l-43 58l217 254h96l217 -254l-47 -58l-213 203h-12zM532 506v-506h-133v506l-381 907h146l244 -620q14 -34 53 -152h12q23 79 51 150l244 622h141z" />
    <glyph glyph-name="ycircumflex" unicode="&#x177;" horiz-adv-x="866" 
d="M215 1143l-43 57l217 254h96l217 -254l-47 -57l-213 203h-12zM836 991l-324 -1061q-18 -55 -38 -100.5t-50 -90.5t-65.5 -77.5t-84.5 -55.5t-106 -30l-12 84q93 39 146.5 109t86.5 176l21 55h-35q-37 0 -49 35l-293 956h139l219 -774q31 -114 31 -115h22q28 90 35 117
l215 772h142z" />
    <glyph glyph-name="Ydieresis" unicode="&#x178;" horiz-adv-x="931" 
d="M342 1579h-45q-35 0 -35 39v113q0 41 35 41h45q37 0 37 -41v-113q0 -39 -37 -39zM633 1579h-43q-37 0 -37 39v113q0 41 37 41h43q39 0 39 -41v-113q0 -39 -39 -39zM532 506v-506h-133v506l-381 907h146l244 -620q14 -34 53 -152h12q23 79 51 150l244 622h141z" />
    <glyph glyph-name="Zacute" unicode="&#x179;" horiz-adv-x="931" 
d="M412 1497l-47 62l280 299l76 -99zM852 115v-115h-772v115l620 1183h-610v115h752v-115l-619 -1183h629z" />
    <glyph glyph-name="zacute" unicode="&#x17a;" horiz-adv-x="839" 
d="M365 1126l-48 62l281 299l76 -98zM758 109v-109h-676v109l530 776h-526v106h666v-106l-529 -776h535z" />
    <glyph glyph-name="Zdotaccent" unicode="&#x17b;" horiz-adv-x="931" 
d="M492 1567h-43q-41 0 -41 41v121q0 43 41 43h43q38 0 38 -43v-121q0 -41 -38 -41zM852 115v-115h-772v115l620 1183h-610v115h752v-115l-619 -1183h629z" />
    <glyph glyph-name="zdotaccent" unicode="&#x17c;" horiz-adv-x="839" 
d="M446 1196h-43q-41 0 -41 41v121q0 43 41 43h43q39 0 39 -43v-121q0 -41 -39 -41zM758 109v-109h-676v109l530 776h-526v106h666v-106l-529 -776h535z" />
    <glyph glyph-name="Zcaron" unicode="&#x17d;" horiz-adv-x="931" 
d="M440 1530l-233 252l43 57l215 -188h12l215 188l45 -57l-235 -252h-62zM852 115v-115h-772v115l620 1183h-610v115h752v-115l-619 -1183h629z" />
    <glyph glyph-name="zcaron" unicode="&#x17e;" horiz-adv-x="839" 
d="M393 1159l-233 252l43 57l215 -188h12l215 188l45 -57l-235 -252h-62zM758 109v-109h-676v109l530 776h-526v106h666v-106l-529 -776h535z" />
    <glyph glyph-name="florin" unicode="&#x192;" horiz-adv-x="720" 
d="M682 1323h-117q-78 0 -112 -39.5t-41 -146.5l-25 -332h242l-11 -105h-239l-51 -702q-11 -143 -67.5 -214t-174.5 -71q-105 0 -164 13l17 96h110q74 0 107.5 42t40.5 146l51 690h-162l8 97l162 8l27 344q19 285 252 285q93 0 163 -13z" />
    <glyph glyph-name="Scommaaccent" unicode="&#x218;" horiz-adv-x="925" 
d="M459 1436q187 0 336 -33l-11 -98q-188 12 -317 12q-50 0 -77 -1.5t-59 -9.5t-47.5 -23.5t-30 -43.5t-19.5 -70.5t-5 -103.5q0 -126 34 -182.5t114 -77.5l231 -62q128 -32 180 -122.5t52 -264.5q0 -82 -9.5 -142.5t-31 -102.5t-50 -68.5t-74 -41t-95 -19.5t-119.5 -5
q-187 0 -352 31l10 101q242 -13 346 -13q72 1 113 10t71.5 37.5t41.5 79t11 135.5q0 133 -33.5 188.5t-113.5 76.5l-238 63q-121 30 -173 122t-52 261q0 83 9 143t30.5 101t49 65.5t72 37.5t91 17t115.5 3zM457 -125h35q25 0 34 -9t9 -34v-115q-3 -142 -50 -260l-57 17
q14 104 14 211q-32 0 -32 39v108q1 24 12 33.5t35 9.5z" />
    <glyph glyph-name="scommaaccent" unicode="&#x219;" horiz-adv-x="835" 
d="M395 1018q187 -4 336 -31l-12 -94q-200 12 -305 12q-32 1 -58.5 0t-47.5 -3t-37 -9t-27 -17.5t-18 -28t-10 -41.5t-3 -58q0 -84 26.5 -117t90.5 -49l237 -58q97 -24 142 -84.5t45 -181.5q0 -73 -14 -123.5t-39 -81.5t-69.5 -48t-94.5 -22.5t-125 -5.5q-166 0 -312 27
l11 96q120 -15 276 -12q73 1 115 7t72.5 24.5t41.5 51t11 87.5q0 81 -31 114t-96 48l-234 57q-98 23 -140 85t-42 186q0 71 12.5 119.5t34.5 78.5t62.5 46t86 21.5t115.5 4.5zM414 -125h35q25 0 34 -9t9 -34v-115q-3 -142 -50 -260l-57 17q14 104 14 211q-32 0 -32 39v108
q1 24 12 33.5t35 9.5z" />
    <glyph glyph-name="uni021A" unicode="&#x21a;" horiz-adv-x="954" 
d="M913 1294h-368v-1294h-137v1294h-367v119h872v-119zM442 -125h35q25 0 34 -9t9 -34v-115q-3 -145 -49 -260l-57 17q14 104 14 211q-33 0 -33 39v108q1 24 12 33.5t35 9.5z" />
    <glyph glyph-name="uni021B" unicode="&#x21b;" horiz-adv-x="622" 
d="M319 889v-643q0 -75 26.5 -109.5t84.5 -34.5h125l16 -98q-85 -20 -178 -20q-101 0 -152 63t-51 184v658h-145v92l145 10v301h129v-301h261v-102h-261zM362 -125h35q25 0 34 -9t9 -34v-115q-3 -145 -49 -260l-57 17q14 104 14 211q-33 0 -33 39v108q1 24 12 33.5t35 9.5z
" />
    <glyph glyph-name="circumflex" unicode="&#x2c6;" horiz-adv-x="686" 
d="M610 1200l-47 -57l-213 203h-12l-215 -203l-43 57l217 254h96z" />
    <glyph glyph-name="caron" unicode="&#x2c7;" horiz-adv-x="686" 
d="M610 1411l-235 -252h-62l-233 252l43 57l215 -188h12l215 188z" />
    <glyph glyph-name="breve" unicode="&#x2d8;" horiz-adv-x="612" 
d="M485 1419l68 -12q5 -116 -61.5 -186t-182.5 -70q-118 0 -185 70t-61 186l68 12q0 -80 46 -124t132 -44q83 0 129.5 44.5t46.5 123.5z" />
    <glyph glyph-name="dotaccent" unicode="&#x2d9;" horiz-adv-x="360" 
d="M160 1397h43q39 0 39 -43v-121q0 -41 -39 -41h-43q-41 0 -41 41v121q0 43 41 43z" />
    <glyph glyph-name="ring" unicode="&#x2da;" horiz-adv-x="493" 
d="M246 1513q73 0 124.5 -60.5t51.5 -147.5t-51 -147t-125 -60q-72 0 -123 60t-51 147t51.5 147.5t122.5 60.5zM246 1442q-43 0 -72 -38.5t-29 -98.5t29.5 -98t71.5 -38q43 0 71.5 37.5t28.5 98.5q0 60 -28.5 98.5t-71.5 38.5z" />
    <glyph glyph-name="ogonek" unicode="&#x2db;" horiz-adv-x="415" 
d="M238 4l59 -4q-90 -132 -123 -242q-26 -82 12.5 -108.5t118.5 10.5l17 -57q-59 -30 -107.5 -37t-77.5 6t-47.5 39.5t-19 64t9.5 78.5q36 125 158 250z" />
    <glyph glyph-name="tilde" unicode="&#x2dc;" horiz-adv-x="686" 
d="M213 1423q34 -3 68 -21.5t58 -39t56.5 -39.5t63.5 -23q45 -6 62.5 21t17.5 92h63q9 -103 -27.5 -159t-101.5 -50q-37 3 -73.5 22t-60.5 40t-54.5 40t-57.5 23q-44 6 -62 -23.5t-18 -97.5h-61q-10 108 27 164.5t100 50.5z" />
    <glyph glyph-name="hungarumlaut" unicode="&#x2dd;" horiz-adv-x="741" 
d="M371 1421l-219 -319l-60 43l182 344zM637 1421l-219 -319l-58 43l181 344z" />
    <glyph glyph-name="Delta" unicode="&#x394;" horiz-adv-x="1028" 
d="M985 66v-66h-942v66l403 1347h136zM516 1280q-7 -26 -19.5 -77.5t-19.5 -76.5l-278 -1015h630l-276 1017q-16 49 -37 152z" />
    <glyph glyph-name="Omega" unicode="&#x3a9;" horiz-adv-x="1183" 
d="M592 1438q243 0 353 -169.5t110 -518.5q0 -233 -56 -378t-186 -261q78 8 107 8h178v-119h-410v113q125 114 175 255.5t50 366.5q0 307 -75 445.5t-246 138.5q-175 0 -249.5 -138.5t-74.5 -449.5q0 -233 51.5 -365t176.5 -253v-113h-410v119h178q58 0 107 -8
q-130 116 -186 263.5t-56 377.5q0 349 109 517.5t354 168.5z" />
    <glyph glyph-name="mu" unicode="&#x3bc;" horiz-adv-x="976" 
d="M827 991v-991h-102l-14 158q-158 -183 -324 -183q-77 0 -135 39q8 -57 8 -131v-301h-117v1409h131v-710q0 -94 35 -138.5t107 -44.5q62 0 123.5 34t156.5 114v745h131z" />
    <glyph glyph-name="pi" unicode="&#x3c0;" horiz-adv-x="1058" 
d="M1012 887h-156v-887h-131v887h-391v-887h-131v887h-158v104h969z" />
    <glyph glyph-name="uni0401" unicode="&#x401;" horiz-adv-x="921" 
d="M387 1624h-45q-37 0 -37 41v113q0 39 37 39h45q35 0 35 -39v-113q0 -41 -35 -41zM678 1624h-43q-39 0 -39 41v113q0 39 39 39h43q37 0 37 -39v-113q0 -41 -37 -41zM829 113l9 -103q-154 -12 -488 -12q-98 0 -155.5 63.5t-57.5 169.5v951q0 106 57.5 169.5t155.5 63.5
q334 0 488 -12l-9 -103h-456q-101 0 -101 -149v-346h494v-109h-494v-436q0 -147 101 -147h456z" />
    <glyph glyph-name="uni0402" unicode="&#x402;" horiz-adv-x="1239" 
d="M883 899q64 0 112.5 -20.5t88 -67t60.5 -132.5t21 -208q0 -261 -109 -372.5t-313 -102.5l-12 96q77 6 129 24.5t92 58.5t59 110t19 174q0 99 -11 162.5t-36 98t-58.5 47.5t-84.5 13q-74 0 -140.5 -29t-154.5 -96v-655h-137v1294h-367v119h872v-119h-368v-528
q161 133 338 133z" />
    <glyph glyph-name="uni0403" unicode="&#x403;" horiz-adv-x="851" 
d="M745 1759l-309 -262l-47 62l281 299zM346 1415q321 0 471 -12l-6 -103h-422q-113 0 -113 -153v-1147h-135v1169q0 107 58 176.5t147 69.5z" />
    <glyph glyph-name="uni0404" unicode="&#x404;" horiz-adv-x="950" 
d="M866 121l15 -103q-128 -43 -324 -43q-169 0 -267 71.5t-142 229.5t-44 431t44 430.5t142 229t267 71.5q189 0 313 -39l-14 -103q-147 21 -299 21q-164 0 -234 -113.5t-77 -396.5l489 -2v-105l-491 -2q0 -229 30 -358t97.5 -186.5t185.5 -57.5q184 0 309 25z" />
    <glyph glyph-name="uni0405" unicode="&#x405;" horiz-adv-x="925" 
d="M459 1436q187 0 336 -33l-11 -98q-188 12 -317 12q-50 0 -77 -1.5t-59 -9.5t-47.5 -23.5t-30 -43.5t-19.5 -70.5t-5 -103.5q0 -126 34 -182.5t114 -77.5l231 -62q128 -32 180 -122.5t52 -264.5q0 -82 -9.5 -142.5t-31 -102.5t-50 -68.5t-74 -41t-95 -19.5t-119.5 -5
q-187 0 -352 31l10 101q242 -13 346 -13q72 1 113 10t71.5 37.5t41.5 79t11 135.5q0 133 -33.5 188.5t-113.5 76.5l-238 63q-121 30 -173 122t-52 261q0 83 9 143t30.5 101t49 65.5t72 37.5t91 17t115.5 3z" />
    <glyph glyph-name="uni0406" unicode="&#x406;" horiz-adv-x="428" 
d="M283 0h-136v1413h136v-1413z" />
    <glyph glyph-name="uni0407" unicode="&#x407;" horiz-adv-x="425" 
d="M45 1769h45q35 0 35 -38v-113q0 -41 -35 -41h-45q-37 0 -37 41v113q0 38 37 38zM338 1769h43q37 0 37 -38v-113q0 -41 -37 -41h-43q-37 0 -37 41v113q0 38 37 38zM281 0h-134v1413h134v-1413z" />
    <glyph glyph-name="uni0408" unicode="&#x408;" horiz-adv-x="557" 
d="M418 1413v-1139q0 -142 -56.5 -216t-162.5 -74q-74 0 -148 20l15 94h84q133 0 133 172v1143h135z" />
    <glyph glyph-name="uni0409" unicode="&#x409;" horiz-adv-x="1597" 
d="M907 823h242q209 0 290 -94t81 -328q0 -124 -19 -204.5t-63.5 -128t-108 -66t-160.5 -18.5q-254 0 -395 16l2 10v1293h-221q-55 0 -81.5 -39t-31.5 -115q-31 -451 -50.5 -607t-72.5 -288q-43 -116 -108 -180t-162 -76l-12 92q45 25 83.5 70t76.5 133q52 125 70.5 271.5
t38.5 506.5q3 62 5 96q15 246 230 246h366v-590zM1149 102q94 0 142.5 25t69.5 88.5t21 187.5q0 174 -47 240t-186 66h-242v-605q63 -2 242 -2z" />
    <glyph glyph-name="uni040A" unicode="&#x40a;" horiz-adv-x="1613" 
d="M926 819h239q209 0 290 -93t81 -325q0 -165 -36 -255.5t-109.5 -126t-204.5 -35.5q-254 0 -395 16v707h-508v-707h-136v1413h136v-594h508v594h135v-594zM1165 102q95 0 143.5 25t69.5 88t21 186q0 174 -47 240t-187 66h-239v-603q63 -2 239 -2z" />
    <glyph glyph-name="uni040B" unicode="&#x40b;" horiz-adv-x="1280" 
d="M928 899q132 0 195 -77t63 -234v-588h-133v561q0 117 -39 167t-131 50q-89 0 -164.5 -28.5t-173.5 -98.5v-651h-137v1294h-367v119h872v-119h-368v-530q187 135 383 135z" />
    <glyph glyph-name="uni040C" unicode="&#x40c;" horiz-adv-x="985" 
d="M459 1497l-47 62l280 299l76 -99zM528 739v-4q35 -4 65.5 -16.5t57.5 -38.5t48 -52.5t43 -73t38 -84t37 -102t35.5 -110.5t38.5 -125.5t41 -132.5h-144q-14 46 -39 133q-32 107 -48 158t-43.5 129t-49.5 114t-54.5 76.5t-69.5 56t-83 15.5h-131q11 -101 11 -160v-522
h-134v1413h134v-457q0 -66 -11 -163h129q45 0 83.5 19.5t69.5 58.5t57 86.5t50 114.5t44 131t45 148q12 41 18 62h137q-10 -34 -30 -100q-29 -99 -44.5 -147.5t-43.5 -127t-51 -119t-55 -86t-69.5 -67.5t-81.5 -27z" />
    <glyph glyph-name="uni040D" unicode="&#x40d;" horiz-adv-x="1138" 
d="M664 1559l-48 -62l-309 262l76 99zM993 0h-133v1065q0 81 6 164h-6q-28 -84 -59 -152l-488 -1077h-166v1413h132v-1057q0 -42 -9 -170h9q22 63 61 158l485 1069h168v-1413z" />
    <glyph glyph-name="uni040E" unicode="&#x40e;" horiz-adv-x="921" 
d="M463 1534q-118 0 -185 70t-61 186l68 12q0 -80 46 -124t132 -44q83 0 129.5 44.5t46.5 123.5l68 -12q5 -116 -61.5 -186t-182.5 -70zM901 1413l-309 -1071q-19 -63 -34 -106t-38.5 -92.5t-47.5 -79.5t-57.5 -51.5t-72.5 -24.5q-41 -5 -101 3t-100 23l17 97q44 -6 72 -9.5
t56 -0.5t43 5.5t32.5 19t26.5 29.5t22.5 47t22 60.5t24.5 81.5l22 70h-65q-86 0 -111 88l-266 911h139l238 -848q10 -37 37 -37h63l248 885h139z" />
    <glyph glyph-name="uni040F" unicode="&#x40f;" horiz-adv-x="1110" 
d="M965 1413v-1413h-353l-6 -309h-92l-8 309h-359v1413h136v-1302h544v1302h138z" />
    <glyph glyph-name="uni0410" unicode="&#x410;" horiz-adv-x="1021" 
d="M745 467h-469l-118 -467h-140l369 1374q9 39 51 39h146q40 0 49 -39l371 -1374h-140zM715 584l-154 608q-26 103 -29 115h-43q-8 -37 -28 -115l-156 -608h410z" />
    <glyph glyph-name="uni0411" unicode="&#x411;" horiz-adv-x="987" 
d="M283 788h247q208 0 289.5 -90t81.5 -315q0 -102 -16 -173.5t-45 -115.5t-79.5 -68.5t-108.5 -33t-144 -8.5q-213 0 -358 16h-3v1413q195 10 351 10q150 0 342 -10l-13 -110h-544v-515zM530 98q95 0 143.5 23.5t69.5 84.5t21 181q0 168 -47.5 230.5t-186.5 62.5h-247v-580
q66 -2 247 -2z" />
    <glyph glyph-name="uni0412" unicode="&#x412;" horiz-adv-x="1021" 
d="M696 737v-8q123 -13 174.5 -106.5t51.5 -270.5q0 -110 -19 -180.5t-64 -112.5t-110.5 -58.5t-167.5 -16.5q-269 0 -414 16v1413q137 17 363 17q109 0 178.5 -16.5t116 -59t65.5 -113t19 -180.5q0 -154 -46.5 -233t-146.5 -91zM758 1047q0 82 -12.5 133.5t-44 82t-77 41.5
t-118.5 11q-166 0 -225 -2v-529h247q88 1 136 23t71 78.5t23 161.5zM541 98q141 0 193 55t52 218q0 92 -13 150t-44.5 93.5t-78 49.5t-120.5 16h-249v-580q68 -2 260 -2z" />
    <glyph glyph-name="uni0413" unicode="&#x413;" horiz-adv-x="851" 
d="M346 1415q321 0 471 -12l-6 -103h-422q-113 0 -113 -153v-1147h-135v1169q0 107 58 176.5t147 69.5z" />
    <glyph glyph-name="uni0414" unicode="&#x414;" horiz-adv-x="1136" 
d="M1083 111v-420h-94l-14 309h-830l-14 -309h-94v420h98q89 219 128.5 479.5t49.5 576.5q5 117 64.5 181.5t163.5 64.5h401v-1302h141zM809 111v1192h-246q-61 0 -88.5 -36t-32.5 -116q-13 -334 -51.5 -582.5t-124.5 -457.5h543z" />
    <glyph glyph-name="uni0415" unicode="&#x415;" horiz-adv-x="921" 
d="M829 113l9 -103q-154 -12 -488 -12q-98 0 -155.5 63.5t-57.5 169.5v951q0 106 57.5 169.5t155.5 63.5q334 0 488 -12l-9 -103h-456q-101 0 -101 -149v-346h494v-109h-494v-436q0 -147 101 -147h456z" />
    <glyph glyph-name="uni0416" unicode="&#x416;" horiz-adv-x="1490" 
d="M1034 739v-4q56 -6 103.5 -42t78.5 -77t68.5 -136.5t56.5 -155.5t60 -200q8 -26 12.5 -41.5t11.5 -39t13 -43.5h-142q-15 48 -36 117.5t-33.5 110.5t-31 98t-31 90.5t-31 76t-34 66.5t-36.5 51t-42.5 40.5t-47.5 22.5t-55 9h-115q12 -110 12 -160v-522h-129v522
q0 68 10 160h-123q-29 0 -55 -9t-47.5 -22.5t-42.5 -40.5t-36.5 -51t-34 -66.5t-31 -76t-31 -90.5t-31 -98t-33.5 -110.5t-36 -117.5h-142q13 43 37 125q34 113 51 167.5t46.5 138.5t53 124.5t57 87t72 67t85.5 25.5v4q-44 5 -81 28.5t-68 64.5t-56 88.5t-49.5 115.5
t-44 130t-44.5 146q-20 67 -30 101h137q8 -27 25 -81q29 -97 44.5 -145t43 -124t49.5 -113.5t52.5 -80t65 -59.5t74.5 -17h123q-10 66 -10 163v457h129v-457q0 -83 -12 -163h112q112 0 194 157q52 99 131 358q28 91 32 105h137q-86 -284 -100 -323q-78 -226 -167 -302
q-49 -41 -108 -49z" />
    <glyph glyph-name="uni0417" unicode="&#x417;" horiz-adv-x="905" 
d="M397 1430q107 0 175.5 -16.5t115 -59t65.5 -113t19 -180.5q0 -154 -46 -233t-146 -91v-8q123 -13 174 -106.5t51 -270.5q0 -110 -19 -180.5t-63.5 -112.5t-109 -58.5t-164.5 -16.5q-239 0 -388 39l13 98q4 0 64.5 -6.5t90.5 -9.5t88 -6t109 -3q93 0 142.5 22.5t73.5 81.5
t24 171q0 179 -54.5 243t-197.5 64h-189v108h189q125 0 173 54t48 207q0 111 -24.5 169t-75 79.5t-144.5 21.5q-57 0 -113 -3.5t-107.5 -9t-72.5 -6.5l-10 101q135 31 309 31z" />
    <glyph glyph-name="uni0418" unicode="&#x418;" horiz-adv-x="1138" 
d="M993 0h-133v1065q0 81 6 164h-6q-28 -84 -59 -152l-488 -1077h-166v1413h132v-1057q0 -42 -9 -170h9q22 63 61 158l485 1069h168v-1413z" />
    <glyph glyph-name="uni0419" unicode="&#x419;" horiz-adv-x="1138" 
d="M725 1804h100q5 -118 -61 -194t-182 -76q-117 0 -184.5 76.5t-61.5 193.5h100q0 -93 38.5 -143.5t107.5 -50.5q68 0 105.5 50.5t37.5 143.5zM993 0h-133v1065q0 81 6 164h-6q-28 -84 -59 -152l-488 -1077h-166v1413h132v-1057q0 -42 -9 -170h9q22 63 61 158l485 1069h168
v-1413z" />
    <glyph glyph-name="uni041A" unicode="&#x41a;" horiz-adv-x="985" 
d="M528 739v-4q35 -4 65.5 -16.5t57.5 -38.5t48 -52.5t43 -73t38 -84t37 -102t35.5 -110.5t38.5 -125.5t41 -132.5h-144q-14 46 -39 133q-32 107 -48 158t-43.5 129t-49.5 114t-54.5 76.5t-69.5 56t-83 15.5h-131q11 -101 11 -160v-522h-134v1413h134v-457q0 -66 -11 -163
h129q45 0 83.5 19.5t69.5 58.5t57 86.5t50 114.5t44 131t45 148q12 41 18 62h137q-10 -34 -30 -100q-29 -99 -44.5 -147.5t-43.5 -127t-51 -119t-55 -86t-69.5 -67.5t-81.5 -27z" />
    <glyph glyph-name="uni041B" unicode="&#x41b;" horiz-adv-x="1071" 
d="M924 1413v-1413h-136v1303h-237q-112 0 -121 -154q-32 -477 -50 -606q-23 -168 -73 -289q-44 -112 -114 -179t-162 -77l-13 104q55 24 94 67t68 124q49 132 69.5 289.5t47.5 588.5q7 120 63.5 181t157.5 61h406z" />
    <glyph glyph-name="uni041C" unicode="&#x41c;" horiz-adv-x="1439" 
d="M1059 1413h155q55 0 58 -59l47 -1354h-135l-43 1300h-35l-262 -1107q-15 -46 -60 -46h-127q-46 0 -61 46l-264 1107h-33l-41 -1300h-135l45 1354q3 59 57 59h158q45 0 57 -47l219 -922q42 -174 46 -192h30q14 67 45 194l219 920q12 47 60 47z" />
    <glyph glyph-name="uni041D" unicode="&#x41d;" horiz-adv-x="1101" 
d="M954 1413v-1413h-135v698h-536v-698h-136v1413h136v-600h536v600h135z" />
    <glyph glyph-name="uni041E" unicode="&#x41e;" 
d="M551 1438q167 0 262.5 -69.5t139.5 -227.5t44 -434q0 -208 -23 -345.5t-77 -225t-137.5 -124.5t-208.5 -37q-169 0 -265 70t-139 227.5t-43 434.5t43.5 434.5t139 227t264.5 69.5zM551 1319q-116 0 -181.5 -58.5t-94.5 -189.5t-29 -364t29 -364.5t94.5 -190t181.5 -58.5
q115 0 180 58.5t94 190t29 364.5q0 175 -15 289.5t-51.5 188t-93 104t-143.5 30.5z" />
    <glyph glyph-name="uni041F" unicode="&#x41f;" horiz-adv-x="1101" 
d="M956 1413v-1413h-135v1303h-538v-1303h-136v1413h809z" />
    <glyph glyph-name="uni0420" unicode="&#x420;" horiz-adv-x="970" 
d="M537 1430q138 0 213.5 -38.5t110 -131t34.5 -263.5t-34 -264t-106.5 -130.5t-203.5 -37.5q-133 0 -268 15v-580h-136v1413q149 17 390 17zM283 682h249q88 0 135.5 27t70 94.5t22.5 193.5q0 186 -49 252t-179 66q-183 0 -249 -2v-631z" />
    <glyph glyph-name="uni0421" unicode="&#x421;" horiz-adv-x="937" 
d="M547 1438q106 0 171.5 -8.5t135.5 -30.5l-14 -101q-133 19 -293 19q-114 0 -178.5 -57.5t-93.5 -188.5t-29 -364t29 -364t93.5 -189t178.5 -58q186 0 315 23l17 -101q-133 -43 -332 -43q-166 0 -261.5 71.5t-138.5 229.5t-43 431q0 205 23 342t76 225t136 126t208 38z
" />
    <glyph glyph-name="uni0422" unicode="&#x422;" horiz-adv-x="954" 
d="M913 1294h-368v-1294h-137v1294h-367v119h872v-119z" />
    <glyph glyph-name="uni0423" unicode="&#x423;" horiz-adv-x="921" 
d="M901 1413l-309 -1071q-19 -63 -34 -106t-38.5 -92.5t-47.5 -79.5t-57.5 -51.5t-72.5 -24.5q-41 -5 -101 3t-100 23l17 97q44 -6 72 -9.5t56 -0.5t43 5.5t32.5 19t26.5 29.5t22.5 47t22 60.5t24.5 81.5l22 70h-65q-86 0 -111 88l-266 911h139l238 -848q10 -37 37 -37h63
l248 885h139z" />
    <glyph glyph-name="uni0424" unicode="&#x424;" horiz-adv-x="1351" 
d="M1266 723q0 -319 -117.5 -453.5t-403.5 -146.5v-207h-137v207q-287 10 -404.5 145t-117.5 455q0 220 51.5 349t164 190.5t306.5 68.5v205h135l2 -205q287 -12 404 -148t117 -460zM225 723q0 -267 83.5 -372.5t303.5 -114.5v981q-149 -6 -231.5 -53.5t-119 -151.5
t-36.5 -289zM739 1217v-981q220 9 303.5 114.5t83.5 372.5q0 185 -36.5 289t-119 151.5t-231.5 53.5z" />
    <glyph glyph-name="uni0425" unicode="&#x425;" horiz-adv-x="1001" 
d="M518 684h-35l-295 -684h-145l322 733l-302 680h144l272 -625h43l271 625h147l-305 -680l326 -733h-148z" />
    <glyph glyph-name="uni0426" unicode="&#x426;" horiz-adv-x="1136" 
d="M1083 111v-420h-94l-14 309h-828v1413h136v-1302h524v1302h137v-1302h139z" />
    <glyph glyph-name="uni0427" unicode="&#x427;" horiz-adv-x="1030" 
d="M883 1413v-1413h-135v668q-194 -142 -396 -142q-252 0 -252 312v575h136v-549q0 -115 38 -166t125 -51q92 0 170.5 29t178.5 102v635h135z" />
    <glyph glyph-name="uni0428" unicode="&#x428;" horiz-adv-x="1529" 
d="M1382 1413v-1413h-1235v1413h134v-1302h417v1302h133v-1302h418v1302h133z" />
    <glyph glyph-name="uni0429" unicode="&#x429;" horiz-adv-x="1562" 
d="M1509 111v-420h-94l-12 309h-1256v1413h134v-1302h411v1302h133v-1302h414v1302h131v-1302h139z" />
    <glyph glyph-name="uni042A" unicode="&#x42a;" horiz-adv-x="1230" 
d="M539 823h245q208 0 288.5 -94t80.5 -328q0 -165 -36 -255.5t-109.5 -126t-204.5 -35.5q-257 0 -400 16v1294h-364v119h500v-590zM784 102q71 0 114 12.5t71 47t38.5 90.5t10.5 149q0 174 -47.5 241t-186.5 67h-245v-605q63 -2 245 -2z" />
    <glyph glyph-name="uni042B" unicode="&#x42b;" horiz-adv-x="1390" 
d="M283 823h245q209 0 291 -94t82 -328q0 -124 -19 -204.5t-63 -128t-108 -66t-162 -18.5q-256 0 -399 16h-3v1413h136v-590zM1243 1413v-1413h-133v1413h133zM528 102q95 0 144 25t70.5 88t21.5 186q0 174 -47.5 241t-188.5 67h-245v-605q63 -2 245 -2z" />
    <glyph glyph-name="uni042C" unicode="&#x42c;" horiz-adv-x="978" 
d="M283 823h245q209 0 291 -94t82 -328q0 -124 -19 -204.5t-63 -128t-108 -66t-162 -18.5q-256 0 -399 16h-3v1413h136v-590zM528 102q95 0 144 25t70.5 88t21.5 186q0 174 -47.5 241t-188.5 67h-245v-605q63 -2 245 -2z" />
    <glyph glyph-name="uni042D" unicode="&#x42d;" horiz-adv-x="950" 
d="M391 1438q128 0 213 -38t140 -126t78.5 -225t23.5 -342q0 -273 -44.5 -431t-142.5 -229.5t-268 -71.5q-193 0 -323 43l16 103q122 -25 309 -25q118 0 185 57t98 187t31 358l-492 2v105l490 2q-7 282 -78 396t-234 114q-152 0 -299 -21l-16 103q71 22 139 30.5t174 8.5z
" />
    <glyph glyph-name="uni042E" unicode="&#x42e;" horiz-adv-x="1519" 
d="M969 1438q169 0 264.5 -69.5t138.5 -227t43 -434.5t-43 -434.5t-138.5 -227.5t-264.5 -70q-156 0 -246.5 67.5t-133 219.5t-44.5 418h-262v-680h-136v1413h136v-622h262q6 243 50 383t133.5 202t240.5 62zM969 94q116 0 181.5 58.5t94.5 190t29 364.5t-29 364
t-94.5 189.5t-181.5 58.5q-111 0 -173.5 -58.5t-90 -189.5t-27.5 -364t27.5 -364.5t90 -190t173.5 -58.5z" />
    <glyph glyph-name="uni042F" unicode="&#x42f;" horiz-adv-x="1009" 
d="M479 1430q236 0 383 -17v-1413h-135v590q-26 0 -111 -1t-145 -1q-58 0 -95.5 -38t-58.5 -124l-100 -426h-145l106 432q22 83 63.5 132.5t90.5 64.5l-2 12q-73 13 -120.5 65.5t-68 129.5t-20.5 180q0 226 83.5 320t274.5 94zM727 705v608q-63 2 -246 2
q-124 0 -173.5 -65.5t-49.5 -239.5q0 -148 49 -226.5t164 -78.5h256z" />
    <glyph glyph-name="uni0430" unicode="&#x430;" horiz-adv-x="907" 
d="M510 1018q137 0 203.5 -70t66.5 -235v-713h-102l-16 164q-56 -71 -146 -125.5t-190 -54.5q-109 0 -173.5 70t-64.5 198v115q0 115 57.5 178t161.5 63h342v105q-2 99 -37.5 145.5t-126.5 46.5q-131 0 -350 -28l-12 96q254 45 387 45zM350 98q65 -2 147.5 41.5t151.5 118.5
v250l-317 -4q-58 -3 -83.5 -41t-25.5 -113v-86q0 -85 30.5 -125.5t96.5 -40.5z" />
    <glyph glyph-name="uni0431" unicode="&#x431;" horiz-adv-x="944" 
d="M776 1507l33 -100q-58 -46 -110.5 -69.5t-127 -42.5t-104.5 -29q-63 -23 -107 -60.5t-69.5 -90t-39 -107t-20.5 -127.5q-10 -69 -14 -144h4q16 47 34 80t52 70t90.5 56.5t132.5 19.5q176 0 247 -110.5t71 -373.5q0 -122 -16 -209t-55.5 -156.5t-112.5 -104t-181 -34.5
q-56 0 -102.5 10t-81.5 26t-62.5 45t-46 59t-32 75t-21 85.5t-12 100t-5.5 109t-1 119.5q0 119 4 203.5t16 167t33 139.5t54.5 107.5t82.5 85.5t115 59q37 13 110.5 31.5t128 41.5t113.5 68zM496 850q-60 0 -103.5 -17t-69.5 -46t-41.5 -77.5t-20.5 -101.5t-5 -127
q0 -223 50.5 -308t178.5 -85q126 0 176 85.5t50 307.5q0 212 -46 290.5t-169 78.5z" />
    <glyph glyph-name="uni0432" unicode="&#x432;" horiz-adv-x="911" 
d="M618 512v-4q109 -10 156 -74.5t47 -187.5q0 -149 -71.5 -203.5t-249.5 -54.5q-231 0 -367 12v989q120 12 322 12q190 0 263 -55t73 -209q0 -106 -41 -161t-132 -64zM668 727q0 100 -47.5 136t-169.5 36h-195v-340h215q112 0 154.5 34.5t42.5 133.5zM256 92h223
q120 0 164.5 35.5t44.5 140.5q0 112 -47 153.5t-170 41.5h-215v-371z" />
    <glyph glyph-name="uni0433" unicode="&#x433;" horiz-adv-x="757" 
d="M303 995q287 0 418 -12l-4 -94h-359q-52 0 -75 -31.5t-23 -101.5v-756h-131v786q0 101 44.5 155t129.5 54z" />
    <glyph glyph-name="uni0434" unicode="&#x434;" horiz-adv-x="960" 
d="M897 106v-403h-86l-12 297h-654l-10 -297h-88v403h82q112 257 133 672q9 213 201 213h325v-885h109zM664 106v783h-181q-96 0 -102 -129q-20 -401 -135 -654h418z" />
    <glyph glyph-name="uni0435" unicode="&#x435;" horiz-adv-x="888" 
d="M489 88q114 0 281 25l12 -88q-52 -23 -142 -36.5t-167 -13.5q-205 0 -292 120t-87 405q0 286 85 402t282 116q176 0 258 -76.5t82 -232.5q3 -277 -189 -277h-379q5 -134 33.5 -209.5t81 -105t141.5 -29.5zM467 905q-131 0 -182 -80t-54 -290h349q94 0 90 172
q0 105 -47.5 151.5t-155.5 46.5z" />
    <glyph glyph-name="uni0436" unicode="&#x436;" horiz-adv-x="1296" 
d="M922 520v-4q30 -3 55 -13t47 -28.5t39.5 -38.5t35 -53t31.5 -63.5t30.5 -78t29.5 -87t32 -100.5q11 -36 17 -54h-133q-8 25 -24 72q-16 50 -24 73.5t-22.5 64.5t-22.5 60t-21 49.5t-22.5 45t-23.5 35t-26.5 30t-28 19.5t-32.5 14t-36 4h-123q11 -68 11 -107v-360h-117
v360q0 45 10 107h-129q-37 -1 -67 -18t-52.5 -45t-45 -78t-41.5 -103t-46 -133q-6 -19 -9.5 -30t-9.5 -28t-11 -32h-134q77 246 107 316q58 137 137 178q33 17 74 22v4q-25 3 -46.5 11.5t-39.5 19.5t-35.5 31.5t-30 38t-27.5 49t-24.5 53.5t-24 63.5t-23 67.5t-24.5 75
q-13 41 -20 62h131q71 -212 98 -270q57 -126 131 -148q18 -6 39 -6h121q-8 52 -8 117v307h117v-307q0 -58 -9 -117h113q89 0 151 113q38 68 104 270v1v2l13 38h134q-7 -21 -20 -62q-29 -90 -43.5 -132.5t-41.5 -104.5t-51 -90.5t-59.5 -52.5t-79.5 -29z" />
    <glyph glyph-name="uni0437" unicode="&#x437;" horiz-adv-x="815" 
d="M336 1008q200 0 278 -54t78 -209q0 -111 -38 -167t-130 -66v-4q104 -10 150.5 -73.5t46.5 -190.5q0 -145 -77.5 -202.5t-262.5 -57.5q-173 0 -315 26l10 101q198 -17 295 -17q123 0 169 38.5t46 137.5q0 108 -46 147.5t-167 41.5h-189v96l189 2q111 0 150.5 35.5
t39.5 136.5q0 102 -47 135t-182 33q-140 0 -234 -16l-10 98q102 29 246 29z" />
    <glyph glyph-name="uni0438" unicode="&#x438;" horiz-adv-x="966" 
d="M834 0h-119v692q0 37 4 135h-4q-10 -30 -56 -114l-393 -713h-133v991h119v-690q0 -45 -4 -135h4q6 15 55 117l393 708h134v-991z" />
    <glyph glyph-name="uni0439" unicode="&#x439;" horiz-adv-x="966" 
d="M625 1434h100q5 -118 -61.5 -194.5t-182.5 -76.5q-117 0 -184 76.5t-61 194.5h100q0 -94 38 -144.5t107 -50.5q68 0 106 51t38 144zM834 0h-119v692q0 37 4 135h-4q-10 -30 -56 -114l-393 -713h-133v991h119v-690q0 -45 -4 -135h4q6 15 55 117l393 708h134v-991z" />
    <glyph glyph-name="uni043A" unicode="&#x43a;" horiz-adv-x="880" 
d="M492 518v-4q108 -11 175 -114q49 -75 116 -279q7 -19 20 -61l20 -60h-137q-77 232 -103 291q-54 123 -125 157q-35 16 -79 17h-125q10 -62 10 -105v-360h-131v991h131v-307q0 -65 -8 -117h117q28 0 52 7t45 22.5t38 32.5t34 47t29.5 55t28 67t26 73t27.5 81l4.5 13.5
l4 12l4.5 13.5h133q-73 -217 -96 -270q-61 -139 -140 -181q-33 -17 -71 -22z" />
    <glyph glyph-name="uni043B" unicode="&#x43b;" horiz-adv-x="921" 
d="M788 991v-991h-131v889h-182q-52 0 -75 -30.5t-29 -100.5q-1 -9 -7.5 -80t-8.5 -90t-8.5 -79.5t-11.5 -88.5t-12.5 -74t-15.5 -80t-18 -65q-27 -93 -88 -147.5t-154 -63.5l-14 102q61 23 92 59t47 91q11 34 21 82t16.5 88.5t13.5 102.5t10 93.5t8.5 94t6.5 73.5
q9 109 57.5 162t145.5 53h337z" />
    <glyph glyph-name="uni043C" unicode="&#x43c;" horiz-adv-x="1226" 
d="M887 991h139q51 0 51 -51l35 -940h-123l-31 891h-28l-211 -746q-12 -43 -53 -43h-109q-39 0 -51 43l-211 746h-29l-30 -891h-119l33 940q0 51 51 51h139q36 0 51 -43l172 -616q3 -10 17 -62t20 -80h25q8 28 20.5 78t16.5 64l174 616q12 43 51 43z" />
    <glyph glyph-name="uni043D" unicode="&#x43d;" horiz-adv-x="956" 
d="M823 991v-991h-127v477h-434v-477h-129v991h129v-411h434v411h127z" />
    <glyph glyph-name="uni043E" unicode="&#x43e;" horiz-adv-x="937" 
d="M469 1018q205 0 290 -118t85 -404t-84.5 -403.5t-290.5 -117.5q-204 0 -289.5 118t-85.5 403t85.5 403.5t289.5 118.5zM469 905q-91 0 -141.5 -37.5t-73.5 -125.5t-23 -246q0 -159 23 -246.5t73.5 -125.5t141.5 -38q136 0 188 88t52 322t-52 321.5t-188 87.5z" />
    <glyph glyph-name="uni043F" unicode="&#x43f;" horiz-adv-x="946" 
d="M813 991v-991h-127v887h-424v-887h-129v991h680z" />
    <glyph glyph-name="uni0440" unicode="&#x440;" horiz-adv-x="956" 
d="M584 1018q146 0 211 -127.5t65 -398.5q0 -279 -72.5 -398t-230.5 -119q-154 0 -299 103q6 -68 6 -195v-301h-131v1409h107l12 -162q67 89 156 139t176 50zM526 90q75 0 117 36.5t62 124t20 243.5q0 226 -41.5 317.5t-140.5 91.5q-66 0 -129.5 -40t-149.5 -130v-569
q88 -39 145.5 -56.5t116.5 -17.5z" />
    <glyph glyph-name="uni0441" unicode="&#x441;" horiz-adv-x="808" 
d="M473 1018q156 0 256 -45l-18 -84q-93 16 -215 16q-101 0 -157 -36.5t-82 -124.5t-26 -248t26 -247.5t82 -124t157 -36.5q130 0 235 23l12 -91q-121 -45 -270 -45q-208 0 -293.5 117t-85.5 404t86 404.5t293 117.5z" />
    <glyph glyph-name="uni0442" unicode="&#x442;" horiz-adv-x="806" 
d="M762 885h-295v-885h-129v885h-293v106h717v-106z" />
    <glyph glyph-name="uni0443" unicode="&#x443;" horiz-adv-x="870" 
d="M838 991l-324 -1061q-64 -203 -152 -282q-109 -93 -290 -64l12 88q129 -7 195 54q59 59 112 219l21 55h-35q-37 0 -49 35l-293 956h139l219 -774q31 -114 31 -115h22q28 90 35 117l215 772h142z" />
    <glyph glyph-name="uni0444" unicode="&#x444;" horiz-adv-x="1179" 
d="M1087 496q0 -266 -100 -386.5t-336 -132.5v-395h-121v395q-236 10 -337 131t-101 388q0 268 100.5 389t337.5 131v418h121v-418q236 -12 336 -132.5t100 -387.5zM219 496q0 -216 70 -306.5t243 -99.5v813q-174 -9 -243.5 -99t-69.5 -308zM647 903v-813q174 9 244 99.5
t70 306.5q0 218 -70 308t-244 99z" />
    <glyph glyph-name="uni0445" unicode="&#x445;" horiz-adv-x="872" 
d="M446 465h-20l-240 -465h-143l272 514l-254 477h144l217 -422h29l217 422h143l-252 -477l270 -514h-141z" />
    <glyph glyph-name="uni0446" unicode="&#x446;" horiz-adv-x="974" 
d="M909 106v-399h-86l-14 293h-676v991h129v-885h410v885h131l-2 -885h108z" />
    <glyph glyph-name="uni0447" unicode="&#x447;" horiz-adv-x="872" 
d="M739 991l-2 -991h-129v440q-80 -42 -165 -63t-152 -21q-199 0 -199 215v420h129v-381q0 -78 25.5 -111.5t85.5 -33.5q72 0 135 18.5t141 63.5v444h131z" />
    <glyph glyph-name="uni0448" unicode="&#x448;" horiz-adv-x="1323" 
d="M1190 991v-991h-1057v991h127v-885h342v885h119v-885h344v885h125z" />
    <glyph glyph-name="uni0449" unicode="&#x449;" horiz-adv-x="1363" 
d="M1300 106v-399h-88l-14 293h-1065v991h127v-885h342v885h117v-885h346v885h125v-885h110z" />
    <glyph glyph-name="uni044A" unicode="&#x44a;" horiz-adv-x="1042" 
d="M455 588h194q182 0 251 -66t69 -235q0 -172 -68 -235.5t-233 -63.5q-215 0 -340 12v887h-285v104h412v-403zM649 92q105 0 145 40.5t40 160.5q0 112 -39 154t-146 42h-194v-395q51 -2 194 -2z" />
    <glyph glyph-name="uni044B" unicode="&#x44b;" horiz-adv-x="1179" 
d="M260 588h197q175 0 241 -66t66 -235q0 -89 -16 -146.5t-52 -91.5t-88 -47.5t-131 -13.5q-215 0 -342 12h-2v991h127v-403zM1047 991v-991h-129v991h129zM457 92q99 0 136.5 40.5t37.5 160.5q0 112 -36.5 154t-137.5 42h-197v-395q53 -2 197 -2z" />
    <glyph glyph-name="uni044C" unicode="&#x44c;" horiz-adv-x="847" 
d="M260 588h197q181 0 250 -66t69 -235q0 -89 -16.5 -146.5t-54.5 -91.5t-92 -47.5t-136 -13.5q-215 0 -342 12h-2v991h127v-403zM457 92q104 0 144 40.5t40 160.5q0 112 -38.5 154t-145.5 42h-197v-395q53 -2 197 -2z" />
    <glyph glyph-name="uni044D" unicode="&#x44d;" horiz-adv-x="831" 
d="M346 1004q217 0 304 -113.5t87 -398.5q0 -282 -87.5 -396t-303.5 -114q-170 0 -276 34l12 93q117 -15 264 -15q142 0 198.5 78.5t59.5 284.5h-409v98l407 2q-6 189 -63 262.5t-193 73.5t-254 -14l-14 92q58 20 115 26.5t153 6.5z" />
    <glyph glyph-name="uni044E" unicode="&#x44e;" horiz-adv-x="1306" 
d="M831 1018q144 0 224.5 -48t117.5 -159.5t37 -312.5q0 -198 -37 -308.5t-117.5 -158t-224.5 -47.5q-132 0 -208 44t-112.5 147.5t-39.5 285.5h-207v-461h-131v991h131v-428h207q6 174 43.5 272.5t112.5 140.5t204 42zM829 94q140 0 193 88t53 318q0 231 -53 318t-193 87
q-132 0 -181.5 -86.5t-49.5 -318.5q0 -231 49.5 -318.5t181.5 -87.5z" />
    <glyph glyph-name="uni044F" unicode="&#x44f;" horiz-adv-x="892" 
d="M408 1001q233 0 352 -14v-987h-129v381h-219q-123 0 -148 -117l-61 -264h-135l73 293q26 110 156 131v6q-184 19 -184 285q0 138 67 212t228 74zM631 479v412q-57 2 -221 2q-97 0 -132.5 -48t-35.5 -151q0 -113 37.5 -164t138.5 -51h213z" />
    <glyph glyph-name="uni0451" unicode="&#x451;" horiz-adv-x="888" 
d="M338 1208h-43q-37 0 -37 41v113q0 39 37 39h43q37 0 37 -39v-113q0 -41 -37 -41zM631 1208h-43q-39 0 -39 41v113q0 39 39 39h43q37 0 37 -39v-113q0 -41 -37 -41zM489 88q114 0 281 25l12 -88q-52 -23 -142 -36.5t-167 -13.5q-205 0 -292 120t-87 405q0 286 85 402
t282 116q176 0 258 -76.5t82 -232.5q3 -277 -189 -277h-379q5 -134 33.5 -209.5t81 -105t141.5 -29.5zM467 905q-131 0 -182 -80t-54 -290h349q94 0 90 172q0 105 -47.5 151.5t-155.5 46.5z" />
    <glyph glyph-name="uni0452" unicode="&#x452;" horiz-adv-x="960" 
d="M649 817q108 0 163.5 -69t55.5 -203v-594q0 -111 -39.5 -207.5t-109.5 -165.5l-74 57q92 137 92 316v561q0 99 -33 142.5t-110 43.5q-64 0 -130 -35.5t-163 -115.5v-547h-131v1024h-125v80h125v330h131l2 -330h309v-80h-309v-203q0 -90 -10 -178q190 174 356 174z" />
    <glyph glyph-name="uni0453" unicode="&#x453;" horiz-adv-x="757" 
d="M690 1389l-309 -263l-47 62l280 299zM303 995q287 0 418 -12l-4 -94h-359q-52 0 -75 -31.5t-23 -101.5v-756h-131v786q0 101 44.5 155t129.5 54z" />
    <glyph glyph-name="uni0454" unicode="&#x454;" horiz-adv-x="831" 
d="M750 109l14 -93q-112 -34 -279 -34q-215 0 -302 114t-87 396q0 285 86.5 398.5t302.5 113.5q96 0 153.5 -6.5t115.5 -26.5l-15 -92q-118 14 -254 14t-192 -73.5t-62 -262.5l408 -2v-98h-410q4 -206 60.5 -284.5t195.5 -78.5q145 0 265 15z" />
    <glyph glyph-name="uni0455" unicode="&#x455;" horiz-adv-x="839" 
d="M397 1018q187 -4 336 -31l-12 -94q-200 12 -305 12q-32 1 -58.5 0t-47.5 -3t-37 -9t-27 -17.5t-18 -28t-10 -41.5t-3 -58q0 -84 26.5 -117t90.5 -49l237 -58q97 -24 142 -84.5t45 -181.5q0 -73 -14 -123.5t-39 -81.5t-69.5 -48t-94.5 -22.5t-125 -5.5q-166 0 -312 27
l11 96q120 -15 276 -12q73 1 115 7t72.5 24.5t41.5 51t11 87.5q0 81 -31 114t-96 48l-234 57q-98 23 -140 85t-42 186q0 89 17 143t58.5 82t94 37t141.5 8z" />
    <glyph glyph-name="uni0456" unicode="&#x456;" horiz-adv-x="411" 
d="M174 1409h62q40 0 40 -43v-119q0 -43 -40 -43h-62q-41 0 -41 43v119q0 43 41 43zM270 0h-129v991h129v-991z" />
    <glyph glyph-name="uni0457" unicode="&#x457;" horiz-adv-x="409" 
d="M35 1401h45q37 0 37 -39v-113q0 -41 -37 -41h-45q-35 0 -35 41v113q0 39 35 39zM328 1401h43q39 0 39 -39v-113q0 -41 -39 -41h-43q-37 0 -37 41v113q0 39 37 39zM270 0h-131v991h131v-991z" />
    <glyph glyph-name="uni0458" unicode="&#x458;" horiz-adv-x="411" 
d="M174 1409h64q38 0 38 -43v-119q0 -43 -38 -43h-64q-39 0 -39 43v119q0 43 39 43zM270 991v-1040q0 -112 -39 -208.5t-110 -164.5l-72 57q92 142 92 316v1040h129z" />
    <glyph glyph-name="uni0459" unicode="&#x459;" horiz-adv-x="1318" 
d="M748 600h186q177 0 244 -67.5t67 -239.5q0 -97 -17 -157.5t-57.5 -93t-93.5 -43.5t-139 -11q-195 0 -315 12v893h-142q-46 0 -69 -25t-27 -82q-22 -285 -37.5 -394t-52.5 -204q-29 -86 -92.5 -134t-143.5 -58l-12 92q31 18 48 30t41 40t40 65q38 90 52 187t38 399
q15 182 183 182h299v-391zM748 94l170 -2q58 0 91.5 6.5t58.5 28.5t34.5 62t9.5 108q0 116 -37.5 161.5t-140.5 45.5h-186v-410z" />
    <glyph glyph-name="uni045A" unicode="&#x45a;" horiz-adv-x="1331" 
d="M760 598h186q178 0 244.5 -67t66.5 -236q0 -177 -65 -242t-225 -65q-208 0 -330 12v500h-383v-500h-121v991h121v-395h383v395h123v-393zM760 94l186 -2q101 0 139.5 41t38.5 164q0 116 -37.5 160.5t-140.5 44.5h-186v-408z" />
    <glyph glyph-name="uni045B" unicode="&#x45b;" horiz-adv-x="960" 
d="M649 817q108 0 163.5 -69t55.5 -203v-545h-131v512q0 100 -32.5 143t-110.5 43q-64 0 -130 -35.5t-163 -115.5v-547h-131v1024h-125v80h125v330h131l2 -330h309v-80h-309v-203q0 -90 -10 -178q190 174 356 174z" />
    <glyph glyph-name="uni045C" unicode="&#x45c;" horiz-adv-x="880" 
d="M401 1126l-47 62l281 299l76 -98zM492 518v-4q108 -11 175 -114q49 -75 116 -279q7 -19 20 -61l20 -60h-137q-77 232 -103 291q-54 123 -125 157q-35 16 -79 17h-125q10 -62 10 -105v-360h-131v991h131v-307q0 -65 -8 -117h117q28 0 52 7t45 22.5t38 32.5t34 47t29.5 55
t28 67t26 73t27.5 81l4.5 13.5l4 12l4.5 13.5h133q-73 -217 -96 -270q-61 -139 -140 -181q-33 -17 -71 -22z" />
    <glyph glyph-name="uni045D" unicode="&#x45d;" horiz-adv-x="966" 
d="M563 1188l-47 -62l-309 263l76 98zM834 0h-119v692q0 37 4 135h-4q-10 -30 -56 -114l-393 -713h-133v991h119v-690q0 -45 -4 -135h4q6 15 55 117l393 708h134v-991z" />
    <glyph glyph-name="uni045E" unicode="&#x45e;" horiz-adv-x="870" 
d="M436 1163q-117 0 -184.5 77t-61.5 194h101q0 -94 38 -144.5t107 -50.5q68 0 106 51t38 144h100q5 -118 -61.5 -194.5t-182.5 -76.5zM838 991l-324 -1061q-64 -203 -152 -282q-109 -93 -290 -64l12 88q129 -7 195 54q59 59 112 219l21 55h-35q-37 0 -49 35l-293 956h139
l219 -774q31 -114 31 -115h22q28 90 35 117l215 772h142z" />
    <glyph glyph-name="uni045F" unicode="&#x45f;" horiz-adv-x="952" 
d="M819 991v-991h-289l-10 -340h-88l-12 340h-287v991h129l4 -885h422v885h131z" />
    <glyph glyph-name="uni0490" unicode="&#x490;" horiz-adv-x="860" 
d="M823 1722v-329l-6 -93h-428q-113 0 -113 -153v-1147h-135v1169q0 107 58 176.5t147 69.5q254 0 375 -10l14 317h88z" />
    <glyph glyph-name="uni0491" unicode="&#x491;" horiz-adv-x="761" 
d="M723 1292v-309l-6 -94h-359q-51 0 -74.5 -32t-23.5 -101v-756h-129v786q0 102 44 155.5t130 53.5q214 0 316 -6l16 303h86z" />
    <glyph glyph-name="uni04B0" unicode="&#x4b0;" horiz-adv-x="952" 
d="M565 555h230v-84h-250v-471h-133v471h-250v84h229l-360 858h145l244 -627q18 -45 53 -151h12q15 52 52 149l243 629h142z" />
    <glyph glyph-name="uni04B1" unicode="&#x4b1;" horiz-adv-x="958" 
d="M567 137h230v-86h-250v-469h-133v469h-252v86h231l-358 854h143l244 -618q10 -25 27.5 -77.5t25.5 -74.5h10q35 108 54 152l243 618h142z" />
    <glyph glyph-name="uni04B6" unicode="&#x4b6;" horiz-adv-x="1071" 
d="M1018 96v-405h-94l-15 309h-161v659q-190 -133 -388 -133q-132 0 -196 77.5t-64 234.5v575h138v-549q-2 -116 37.5 -167.5t130.5 -51.5q90 0 166.5 28.5t175.5 100.5v639h137v-1317h133z" />
    <glyph glyph-name="uni04B7" unicode="&#x4b7;" horiz-adv-x="911" 
d="M846 106v-399h-86l-15 293h-137v440q-80 -42 -165 -63t-152 -21q-199 0 -199 215v420h129v-381q0 -78 25.5 -111.5t85.5 -33.5q72 0 135 18.5t141 63.5v444h131l-2 -885h109z" />
    <glyph glyph-name="uni04BA" unicode="&#x4ba;" horiz-adv-x="1030" 
d="M670 887q132 0 196 -77.5t64 -234.5v-575h-135v549q0 116 -40 167.5t-130 51.5q-89 0 -168 -29t-174 -100v-639h-136v1413h136v-657q95 66 197.5 98.5t189.5 32.5z" />
    <glyph glyph-name="uni04C0" unicode="&#x4c0;" horiz-adv-x="430" 
d="M283 0h-136v1413h136v-1413z" />
    <glyph glyph-name="Wgrave" unicode="&#x1e80;" horiz-adv-x="1560" 
d="M864 1556l-47 -61l-309 262l76 98zM1507 1413l-237 -1372q-10 -41 -53 -41h-158q-43 0 -53 43l-183 1108q-15 101 -26 158h-35q-5 -25 -13.5 -78t-13.5 -80l-180 -1108q-10 -43 -55 -43h-158q-43 0 -53 41l-238 1372h144l184 -1145q15 -81 24 -164h39q4 31 14 85t13 77
l182 1100q3 22 17.5 34.5t36.5 12.5h149q45 0 55 -47l181 -1100q14 -75 24 -162h41q21 141 25 160l186 1149h141z" />
    <glyph glyph-name="wgrave" unicode="&#x1e81;" horiz-adv-x="1355" 
d="M760 1188l-47 -62l-310 263l76 98zM1313 991l-238 -952q-9 -39 -51 -39h-121q-20 0 -35 11.5t-18 31.5l-135 711q-14 89 -29 153h-18q-4 -25 -29 -153l-135 -711q-1 -20 -16 -31.5t-37 -11.5h-119q-42 0 -51 39l-240 952h135l174 -760q5 -23 14.5 -71t14.5 -72h20
q28 138 29 143l137 719q7 41 51 41h125q19 0 33 -11.5t17 -31.5l135 -717q20 -94 28 -143h25q16 98 27 143l172 760h135z" />
    <glyph glyph-name="Wacute" unicode="&#x1e82;" horiz-adv-x="1560" 
d="M1034 1757l-309 -262l-47 61l280 299zM1507 1413l-237 -1372q-10 -41 -53 -41h-158q-43 0 -53 43l-183 1108q-15 101 -26 158h-35q-5 -25 -13.5 -78t-13.5 -80l-180 -1108q-10 -43 -55 -43h-158q-43 0 -53 41l-238 1372h144l184 -1145q15 -81 24 -164h39q4 31 14 85
t13 77l182 1100q3 22 17.5 34.5t36.5 12.5h149q45 0 55 -47l181 -1100q14 -75 24 -162h41q21 141 25 160l186 1149h141z" />
    <glyph glyph-name="wacute" unicode="&#x1e83;" horiz-adv-x="1355" 
d="M930 1389l-309 -263l-48 62l281 299zM1313 991l-238 -952q-9 -39 -51 -39h-121q-20 0 -35 11.5t-18 31.5l-135 711q-14 89 -29 153h-18q-4 -25 -29 -153l-135 -711q-1 -20 -16 -31.5t-37 -11.5h-119q-42 0 -51 39l-240 952h135l174 -760q5 -23 14.5 -71t14.5 -72h20
q28 138 29 143l137 719q7 41 51 41h125q19 0 33 -11.5t17 -31.5l135 -717q20 -94 28 -143h25q16 98 27 143l172 760h135z" />
    <glyph glyph-name="Wdieresis" unicode="&#x1e84;" horiz-adv-x="1560" 
d="M612 1772h45q37 0 37 -41v-113q0 -39 -37 -39h-45q-34 0 -34 39v113q0 41 34 41zM905 1772h43q39 0 39 -41v-113q0 -39 -39 -39h-43q-37 0 -37 39v113q0 41 37 41zM1507 1413l-237 -1372q-10 -41 -53 -41h-158q-43 0 -53 43l-183 1108q-15 101 -26 158h-35
q-5 -25 -13.5 -78t-13.5 -80l-180 -1108q-10 -43 -55 -43h-158q-43 0 -53 41l-238 1372h144l184 -1145q15 -81 24 -164h39q4 31 14 85t13 77l182 1100q3 22 17.5 34.5t36.5 12.5h149q45 0 55 -47l181 -1100q14 -75 24 -162h41q21 141 25 160l186 1149h141z" />
    <glyph glyph-name="wdieresis" unicode="&#x1e85;" horiz-adv-x="1355" 
d="M508 1403h45q37 0 37 -41v-113q0 -39 -37 -39h-45q-35 0 -35 39v113q0 41 35 41zM801 1403h43q39 0 39 -41v-113q0 -39 -39 -39h-43q-37 0 -37 39v113q0 41 37 41zM1313 991l-238 -952q-9 -39 -51 -39h-121q-20 0 -35 11.5t-18 31.5l-135 711q-14 89 -29 153h-18
q-4 -25 -29 -153l-135 -711q-1 -20 -16 -31.5t-37 -11.5h-119q-42 0 -51 39l-240 952h135l174 -760q5 -23 14.5 -71t14.5 -72h20q28 138 29 143l137 719q7 41 51 41h125q19 0 33 -11.5t17 -31.5l135 -717q20 -94 28 -143h25q16 98 27 143l172 760h135z" />
    <glyph glyph-name="Ygrave" unicode="&#x1ef2;" horiz-adv-x="931" 
d="M500 1497l-310 262l76 99l281 -299zM532 506v-506h-133v506l-381 907h146l244 -620q14 -34 53 -152h12q23 79 51 150l244 622h141z" />
    <glyph glyph-name="ygrave" unicode="&#x1ef3;" horiz-adv-x="866" 
d="M471 1126l-309 263l76 98l280 -299zM836 991l-324 -1061q-18 -55 -38 -100.5t-50 -90.5t-65.5 -77.5t-84.5 -55.5t-106 -30l-12 84q93 39 146.5 109t86.5 176l21 55h-35q-37 0 -49 35l-293 956h139l219 -774q31 -114 31 -115h22q28 90 35 117l215 772h142z" />
    <glyph glyph-name="endash" unicode="&#x2013;" horiz-adv-x="978" 
d="M858 465h-737v102h737v-102z" />
    <glyph glyph-name="emdash" unicode="&#x2014;" horiz-adv-x="1482" 
d="M1362 465h-1241v102h1241v-102z" />
    <glyph glyph-name="quoteleft" unicode="&#x2018;" horiz-adv-x="354" 
d="M197 1038h-37q-26 0 -36.5 11t-10.5 38v125q3 156 53 283l61 -18q-14 -109 -14 -230q16 0 26 -11.5t9 -29.5v-119q-2 -26 -13.5 -37.5t-37.5 -11.5z" />
    <glyph glyph-name="quoteright" unicode="&#x2019;" horiz-adv-x="350" 
d="M156 1481h39q26 0 35.5 -11t9.5 -38v-125q-3 -153 -52 -285l-63 18q16 107 16 230q-17 0 -26.5 11.5t-8.5 31.5v119q1 26 13 37.5t37 11.5z" />
    <glyph glyph-name="quotesinglbase" unicode="&#x201a;" horiz-adv-x="374" 
d="M170 211h39q26 0 36.5 -11t10.5 -38v-125q-3 -161 -55 -285l-64 19q17 113 17 229q-37 0 -37 43v119q1 26 14 37.5t39 11.5z" />
    <glyph glyph-name="quotedblleft" unicode="&#x201c;" horiz-adv-x="600" 
d="M199 1040h-41q-26 0 -35.5 11t-9.5 36v125q3 153 51 283l63 -18q-14 -109 -14 -230q38 0 35 -41v-119q-2 -25 -12.5 -36t-36.5 -11zM442 1040h-39q-27 0 -37 10.5t-10 36.5v125q3 154 54 283l63 -18q-14 -109 -14 -230q16 0 25.5 -10.5t9.5 -30.5v-119q-2 -25 -14 -36
t-38 -11z" />
    <glyph glyph-name="quotedblright" unicode="&#x201d;" horiz-adv-x="593" 
d="M156 1481h39q26 0 35.5 -11t9.5 -38v-125q-3 -153 -52 -285l-63 18q16 107 16 230q-17 0 -26.5 11.5t-8.5 31.5v119q1 26 13 37.5t37 11.5zM401 1481h37q27 0 37 -11t10 -38v-125q-3 -158 -53 -285l-61 18q16 128 16 230q-37 0 -37 43v119q2 26 13.5 37.5t37.5 11.5z" />
    <glyph glyph-name="quotedblbase" unicode="&#x201e;" horiz-adv-x="618" 
d="M168 211h37q27 0 37 -11t10 -38v-125q-3 -158 -53 -285l-62 19q15 120 15 229q-15 0 -25 11.5t-10 31.5v119q2 26 13.5 37.5t37.5 11.5zM412 211h39q26 0 35.5 -11t9.5 -38v-125q-3 -153 -52 -285l-63 19q16 107 16 229q-17 0 -26.5 11.5t-8.5 31.5v119q0 49 50 49z" />
    <glyph glyph-name="dagger" unicode="&#x2020;" horiz-adv-x="745" 
d="M432 -225h-119l4 1136v72l-4 432h121l-8 -432v-72zM72 874v117h217v-100zM672 991v-117l-215 17v100h215z" />
    <glyph glyph-name="daggerdbl" unicode="&#x2021;" horiz-adv-x="804" 
d="M457 989v-788l6 -426h-121l6 426v788l-6 426h121zM317 891l-215 -17v117h215v-100zM702 874l-217 17v100h217v-117zM317 299v-100h-215v116zM702 199h-217v100l217 16v-116z" />
    <glyph glyph-name="bullet" unicode="&#x2022;" horiz-adv-x="595" 
d="M291 719h20q74 0 103.5 -35t29.5 -123v-22q0 -90 -29.5 -126t-103.5 -36h-20q-79 0 -109 35.5t-30 126.5v22q0 88 30 123t109 35z" />
    <glyph glyph-name="ellipsis" unicode="&#x2026;" horiz-adv-x="1382" 
d="M166 219h43q27 0 38 -11.5t11 -39.5v-117q0 -28 -11 -39.5t-38 -11.5h-43q-27 0 -38 11.5t-11 39.5v117q0 28 11 39.5t38 11.5zM670 219h43q26 0 37.5 -11.5t11.5 -39.5v-117q0 -28 -11.5 -39.5t-37.5 -11.5h-43q-27 0 -38 11.5t-11 39.5v117q0 28 11 39.5t38 11.5z
M1174 219h43q28 0 39.5 -11.5t11.5 -39.5v-117q0 -28 -11.5 -39.5t-39.5 -11.5h-43q-28 0 -39 11.5t-11 39.5v117q0 28 11 39.5t39 11.5z" />
    <glyph glyph-name="perthousand" unicode="&#x2030;" horiz-adv-x="2082" 
d="M342 1438q146 0 205 -96.5t59 -321.5t-59 -321.5t-205 -96.5q-144 0 -203 97t-59 321t59 321t203 97zM410 0h-95l742 1413h94zM342 1354q-91 0 -126.5 -75t-35.5 -259q0 -185 35.5 -259.5t126.5 -74.5t126.5 74.5t35.5 259.5q0 184 -35.5 259t-126.5 75zM1128 821
q144 0 203.5 -97.5t59.5 -322.5q0 -224 -59 -320.5t-204 -96.5t-203.5 96t-58.5 321t58.5 322.5t203.5 97.5zM1739 821q144 0 203 -97.5t59 -322.5q0 -224 -59 -320.5t-203 -96.5q-145 0 -203.5 96t-58.5 321t58.5 322.5t203.5 97.5zM1126 735q-91 0 -125 -74.5t-34 -259.5
t34 -259t125 -74q93 0 128.5 74.5t35.5 258.5t-35.5 259t-128.5 75zM1737 735q-90 0 -125 -75t-35 -259q0 -183 35 -258t125 -75q93 0 128.5 74.5t35.5 258.5t-35.5 259t-128.5 75z" />
    <glyph glyph-name="guilsinglleft" unicode="&#x2039;" horiz-adv-x="458" 
d="M389 891l-211 -377l213 -383l-67 -45l-267 412v32l265 406z" />
    <glyph glyph-name="guilsinglright" unicode="&#x203a;" horiz-adv-x="462" 
d="M403 530v-32l-266 -412l-69 45l213 383l-211 377l67 45z" />
    <glyph glyph-name="fraction" unicode="&#x2044;" horiz-adv-x="262" 
d="M-193 0h-94l742 1413h94z" />
    <glyph glyph-name="Euro" unicode="&#x20ac;" horiz-adv-x="1052" 
d="M952 121l15 -103q-121 -43 -289 -43q-217 0 -321.5 140t-125.5 430h-141v86h137v76q0 75 2 112h-139v86h146q24 270 128 401.5t314 131.5q157 0 270 -39l-14 -103q-131 26 -264 21q-136 -4 -205 -104.5t-88 -307.5h424l-10 -86h-420q-2 -37 -2 -114v-74h364l-10 -86h-350
q15 -225 85 -335t212 -114q154 -3 282 25z" />
    <glyph glyph-name="trademark" unicode="&#x2122;" horiz-adv-x="1587" 
d="M645 1425v-82h-219v-696h-96v696h-217v82h532zM1462 647h-88l-26 703h-21l-156 -586q-9 -31 -41 -31h-73q-30 0 -39 31l-158 586h-20l-25 -703h-88l27 737q3 41 37 41h98q29 0 39 -32l131 -484q6 -21 14 -61t10 -47h21q15 69 26 110l127 482q11 32 39 32h103q39 0 39 -41
z" />
    <glyph glyph-name="partialdiff" unicode="&#x2202;" horiz-adv-x="944" 
d="M219 1337v101q145 1 242 -15t178.5 -61.5t124.5 -130t63 -217.5t11 -326q-6 -131 -20.5 -234.5t-44 -195.5t-73 -152.5t-109.5 -95.5t-151 -35q-80 0 -142.5 26.5t-102 71.5t-64 107.5t-33.5 130.5t-6 146q8 211 95.5 334t248.5 122q173 0 271 -163q4 123 -2.5 210.5
t-29 155t-57.5 109t-93 67.5t-130.5 36t-175.5 9zM442 92q59 0 103 30.5t71 79.5t45.5 126.5t27 154t13.5 179.5q-104 141 -241 141q-114 0 -173.5 -92t-64.5 -254q-3 -105 17 -184.5t71.5 -130t130.5 -50.5z" />
    <glyph glyph-name="emptyset" unicode="&#x2205;" horiz-adv-x="1402" 
d="M702 1296q122 0 232.5 -47.5t190.5 -127.5t127.5 -190.5t47.5 -232.5t-47.5 -233.5t-127.5 -191.5t-190.5 -127.5t-232.5 -47.5t-233.5 47.5t-191.5 127.5t-127.5 191.5t-47.5 233.5t47.5 232.5t127.5 190.5t191.5 127.5t233.5 47.5zM702 1116q-39 0 -68.5 -1t-56 -3.5
t-39.5 -4.5t-42.5 -6.5t-42.5 -6.5l6 -93q130 19 243 19q64 0 100 -25t36 -69q0 -36 -20.5 -72.5t-50 -70.5t-58.5 -72.5t-49.5 -95t-20.5 -121.5h111q0 59 20 108.5t48 84t56 68t48 77t20 94.5q0 190 -240 190zM735 350h-80q-14 0 -14 -16v-76q0 -14 14 -14h80q17 0 17 14
v76q0 16 -17 16z" />
    <glyph glyph-name="product" unicode="&#x220f;" horiz-adv-x="1191" 
d="M1126 1303h-174v-1520h-131v1520h-450v-1520h-131v1520h-174v110h1060v-110z" />
    <glyph glyph-name="summation" unicode="&#x2211;" horiz-adv-x="970" 
d="M868 1303h-618l278 -580l-301 -817h658v-111h-803v111l299 817l-279 580v110h766v-110z" />
    <glyph glyph-name="minus" unicode="&#x2212;" horiz-adv-x="964" 
d="M842 555h-719v100h719v-100z" />
    <glyph glyph-name="radical" unicode="&#x221a;" horiz-adv-x="927" 
d="M889 1794l-428 -1778q-6 -16 -23 -16h-151q-21 0 -21 16l-209 975h113l182 -899h23l401 1702h113z" />
    <glyph glyph-name="infinity" unicode="&#x221e;" horiz-adv-x="1288" 
d="M963 907q96 0 159.5 -68.5t63.5 -199.5q0 -137 -69.5 -214t-174.5 -77q-91 0 -162 54.5t-133 140.5q-149 -195 -303 -195q-103 0 -172.5 77t-69.5 214q0 132 66 200t170 68q169 0 307 -202q148 202 318 202zM365 446q70 0 119 44t108 135q-33 49 -51 73.5t-48.5 55
t-63 43t-73.5 12.5q-141 0 -141 -174q0 -92 40 -140.5t110 -48.5zM926 446q69 0 108 49t39 142q0 172 -135 172q-33 0 -64 -12.5t-52.5 -28t-47.5 -45.5t-39 -49t-37 -56q19 -34 37 -58.5t46 -53.5t65 -44.5t80 -15.5z" />
    <glyph glyph-name="integral" unicode="&#x222b;" horiz-adv-x="614" 
d="M397 1462q87 0 160 -8l-10 -94h-107q-63 0 -89.5 -43t-22.5 -146l73 -1353q8 -138 -37 -205.5t-153 -67.5q-101 0 -156 9l11 94h104q64 0 91 43t24 147l-74 1352q-6 134 41.5 203t144.5 69z" />
    <glyph glyph-name="approxequal" unicode="&#x2248;" horiz-adv-x="970" 
d="M285 905q49 -1 121.5 -32t147 -61.5t126.5 -31.5q40 -2 56 21t16 94h90q12 -111 -27 -164.5t-131 -52.5q-54 0 -127.5 31t-146 62.5t-119.5 33.5q-41 0 -57.5 -25t-16.5 -98h-90q-11 120 31.5 172.5t126.5 50.5zM285 514q49 -1 121.5 -32t147 -61.5t126.5 -31.5
q40 -2 56 21.5t16 93.5h90q12 -111 -27 -164.5t-131 -52.5q-53 1 -127.5 32t-146.5 62t-119 33q-42 0 -58 -24.5t-16 -98.5h-90q-11 121 31.5 173.5t126.5 49.5z" />
    <glyph glyph-name="notequal" unicode="&#x2260;" horiz-adv-x="964" 
d="M571 764l-165 -332h436v-100h-488l-127 -254l-41 24l115 230h-178v100h227l166 332h-393v100h442l111 221l43 -24l-98 -197h221v-100h-271z" />
    <glyph glyph-name="lessequal" unicode="&#x2264;" horiz-adv-x="937" 
d="M805 971l-555 -244l555 -217v-107l-672 271v106l672 297v-106zM821 180h-704v99h704v-99z" />
    <glyph glyph-name="greaterequal" unicode="&#x2265;" horiz-adv-x="937" 
d="M805 780v-106l-672 -271v105l555 219l-555 244v106zM821 180h-704v99h704v-99z" />
    <glyph glyph-name="lozenge" unicode="&#x25ca;" horiz-adv-x="952" 
d="M489 1417l400 -692q11 -17 0 -33l-400 -696q-13 -20 -26 0l-402 696q-8 16 0 33l402 692q13 19 26 0zM168 709l309 -582l305 582l-305 577z" />
    <glyph glyph-name="c_t" horiz-adv-x="1357" 
d="M1057 889v-643q0 -75 26 -109.5t84 -34.5h125l15 -98q-85 -20 -177 -20q-100 0 -151 63t-51 184v658h-434q-148 0 -206.5 -84t-58.5 -309q0 -160 25.5 -248t80 -124t152.5 -36q118 0 213 23l15 -91q-115 -45 -250 -45q-204 0 -288.5 117t-84.5 404q0 267 90 381t291 114
h455v301h129v-301h260v-102h-260z" />
    <glyph glyph-name="f_f_y" horiz-adv-x="1972" 
d="M1939 991l-323 -1061q-22 -70 -50 -125.5t-68.5 -106t-97 -82t-126.5 -40.5l-14 84q92 39 145 108t88 177l20 55h-34q-38 0 -47 35l-228 753q-30 101 -108 101h-232v-889h-131v889h-409v-889h-131v889h-146v92l146 10v158q0 287 231 287q110 0 199 -13l-9 -96h-145
q-82 0 -113.5 -41t-31.5 -149v-146h409v191q0 142 54 213t178 71q129 0 223 -12l-10 -96h-168q-81 0 -113.5 -42.5t-32.5 -146.5v-178h256q80 0 130.5 -41t78.5 -129l166 -604q20 -62 31 -115h24q15 58 33 117l217 772h139z" />
    <glyph glyph-name="f_t" horiz-adv-x="1169" 
d="M868 889v-643q0 -75 26.5 -109.5t84.5 -34.5h123l14 -98q-82 -20 -176 -20q-99 0 -151 63.5t-52 183.5v658h-413v-889h-131v889h-146v92l146 10v191q0 142 54 213t177 71q122 0 211 -12l-10 -96h-156q-81 0 -113 -42.5t-32 -146.5v-178h413v301h131v-301h258v-102h-258z
" />
    <glyph glyph-name="f_y" horiz-adv-x="1431" 
d="M1399 991l-326 -1061q-21 -70 -49 -125.5t-68 -105.5t-97.5 -82t-127.5 -41l-14 84q93 39 147.5 109t87.5 176l21 55h-35q-37 0 -49 35l-227 753q-27 101 -107 101h-231v-889h-131v889h-146v92l146 10v191q0 142 54 213t177 71q130 0 221 -12l-10 -96h-166
q-81 0 -113 -42.5t-32 -146.5v-178h256q80 0 130 -41t76 -129l168 -604q31 -114 31 -115h23q2 7 12 39.5t16 48.5l221 801h142z" />
    <glyph glyph-name="s_t" horiz-adv-x="1413" 
d="M1110 889v-643q0 -76 26 -110t85 -34h125l14 -98q-85 -20 -176 -20q-101 0 -153 63.5t-52 183.5v658h-565q-39 0 -59 -0.5t-46 -3t-37.5 -8t-26 -15.5t-19.5 -25.5t-9 -37t-4 -51.5q0 -84 26.5 -117t90.5 -49l237 -58q98 -24 142.5 -84.5t44.5 -181.5q0 -73 -14 -123.5
t-39 -81.5t-69.5 -48t-94.5 -22.5t-125 -5.5q-166 0 -312 27l11 96q120 -15 276 -12q73 1 115 7t72.5 24.5t41.5 51t11 87.5q0 81 -31 114t-96 48l-234 57q-98 23 -140 85t-42 186q0 64 12.5 107.5t34.5 70.5t62.5 41.5t86 19.5t115.5 4h584v301h131v-301h260v-102h-260z
" />
    <glyph glyph-name="t_t" horiz-adv-x="1187" 
d="M887 889v-643q0 -76 25.5 -110t84.5 -34h125l15 -98q-85 -20 -179 -20q-99 0 -150.5 63.5t-51.5 183.5v658h-437v-643q0 -75 26.5 -109.5t84.5 -34.5h125l16 -98q-85 -20 -178 -20q-101 0 -152 63t-51 184v658h-145v92l145 10v301h129v-301h437v301h131v-301h258v-102
h-258z" />
    <glyph glyph-name="t_y" horiz-adv-x="1468" 
d="M1436 991l-326 -1061q-17 -55 -37 -101t-49.5 -90.5t-65 -77t-84.5 -55.5t-106 -30l-12 84q92 39 145 108t88 177l19 55h-33q-38 0 -47 35l-230 753q-27 101 -106 101h-273v-643q0 -75 26.5 -109.5t84.5 -34.5h125l16 -98q-85 -20 -178 -20q-101 0 -152 63t-51 184v658
h-145v92l145 10v301h129v-301h297q156 0 207 -168l166 -606q26 -79 33 -115h20l33 101l219 788h142z" />
    <glyph glyph-name="brevecy" horiz-adv-x="612" 
d="M453 1421h100q5 -118 -61.5 -194t-182.5 -76q-117 0 -184.5 76.5t-61.5 193.5h101q0 -93 38 -143.5t107 -50.5q68 0 106 50.5t38 143.5z" />
    </font>
</defs>
</svg>
