<?xml version="1.0" standalone="no"?>
<!DOCTYPE svg PUBLIC "-//W3C//DTD SVG 1.1//EN" "http://www.w3.org/Graphics/SVG/1.1/DTD/svg11.dtd" >
<svg xmlns="http://www.w3.org/2000/svg" xmlns:xlink="http://www.w3.org/1999/xlink" version="1.1">
<metadata>
Created by FontForge 20170731 at Thu Aug 20 10:32:33 2020
 By Aleksey,,,
Copyright (c) 2014, Natanael Gama (www.ndiscovered.com . info(at)ndiscovered.com)
</metadata>
<defs>
<font id="Exo2-MediumCondensed" horiz-adv-x="954" >
  <font-face 
    font-family="Exo 2 Medium Condensed"
    font-weight="500"
    font-stretch="condensed"
    units-per-em="2048"
    panose-1="0 0 6 6 0 0 0 0 0 0"
    ascent="1638"
    descent="-410"
    x-height="999"
    cap-height="1413"
    bbox="-291 -569 2052 1921"
    underline-thickness="102"
    underline-position="-307"
    unicode-range="U+0020-FB02"
  />
<missing-glyph horiz-adv-x="993" 
 />
    <glyph glyph-name="fi" unicode="fi" horiz-adv-x="1056" 
d="M938 999v-999h-197v846h-358v-846h-195v846h-147v143l147 10v150q0 159 57.5 239t192.5 80q132 0 203 -14v-147h-135q-69 0 -96 -40.5t-27 -140.5v-127h555zM791 1425h94q53 0 53 -57v-115q0 -59 -53 -59h-94q-56 0 -56 59v115q0 57 56 57z" />
    <glyph glyph-name="fl" unicode="fl" horiz-adv-x="1155" 
d="M1118 135l23 -127q-25 -12 -77 -19t-93 -7q-99 0 -156 62t-57 175v1090h-254q-67 1 -94 -40t-27 -143v-127h219v-153h-219v-846h-197v846h-147v143l147 10v150q0 159 58.5 239t191.5 80q381 0 518 -24v-1180q0 -129 97 -129h67z" />
    <glyph glyph-name="f_f" unicode="ff" horiz-adv-x="1224" 
d="M1237 1307h-160q-67 0 -94 -35.5t-27 -120.5v-152h236v-153h-236v-846h-198v846h-375v-846h-195v846h-147v143l147 10v152q0 140 63.5 217.5t186.5 77.5q128 0 205 -14l-16 -148h-121q-70 0 -96.5 -32t-26.5 -124v-129h375v175q0 146 58.5 220t191.5 74q163 0 245 -14z
" />
    <glyph glyph-name="f_f_i" unicode="ffi" horiz-adv-x="1609" 
d="M1489 999v-999h-197v846h-354v-846h-199v846h-372v-846h-199v846h-127v143l127 8v154q0 140 63.5 217.5t186.5 77.5q130 0 207 -14l-17 -148h-121q-69 0 -94.5 -32t-25.5 -124v-129h372v150q0 159 58.5 239t191.5 80q130 0 201 -14v-147h-131q-67 0 -94 -40.5t-27 -140.5
v-127h551zM1343 1425h93q55 0 55 -57v-115q0 -59 -55 -59h-93q-57 0 -57 59v115q0 57 57 57z" />
    <glyph glyph-name="f_f_l" unicode="ffl" horiz-adv-x="1730" 
d="M1692 135l22 -127q-25 -12 -78 -19t-92 -7q-101 0 -158 62t-57 175v1090h-252q-67 1 -94 -40t-27 -143v-127h218v-153h-218v-846h-198v846h-375v-846h-195v846h-147v143l147 10v152q0 140 63.5 217.5t186.5 77.5q128 0 205 -14l-16 -148h-121q-70 0 -96.5 -32t-26.5 -124
v-129h375v150q0 159 58.5 239t191.5 80q383 0 518 -24v-1180q0 -62 24.5 -95.5t69.5 -33.5h72z" />
    <glyph glyph-name=".notdef" horiz-adv-x="993" 
 />
    <glyph glyph-name=".null" horiz-adv-x="0" 
 />
    <glyph glyph-name="nonmarkingreturn" horiz-adv-x="682" 
 />
    <glyph glyph-name="space" unicode=" " horiz-adv-x="364" 
 />
    <glyph glyph-name="exclam" unicode="!" horiz-adv-x="471" 
d="M334 811l-21 -375h-155l-21 375v612h197v-612zM213 254h47q38 0 54 -16t16 -56v-108q0 -41 -16 -57.5t-54 -16.5h-47q-40 0 -56 16.5t-16 57.5v108q0 40 16 56t56 16z" />
    <glyph glyph-name="quotedbl" unicode="&#x22;" horiz-adv-x="608" 
d="M244 971h-133l-11 442h156zM498 971h-131l-13 442h156z" />
    <glyph glyph-name="numbersign" unicode="#" horiz-adv-x="1150" 
d="M887 909l-49 -354h184l-25 -125h-176l-61 -430h-152l62 430h-264l-62 -430h-151l61 430h-195l23 125h188l49 354h-190l23 125h186l53 379h152l-54 -379h265l53 379h151l-53 -379h187l-25 -125h-180zM735 909h-264l-49 -354h264z" />
    <glyph glyph-name="dollar" unicode="$" horiz-adv-x="937" 
d="M864 365q0 -98 -14 -165t-42 -112t-77.5 -69.5t-111.5 -34t-154 -9.5l-16 -231h-99l17 233q-139 8 -271 39l15 158l270 -8l35 461l-105 37q-123 42 -175 138.5t-52 262.5q0 82 9.5 141.5t31.5 101t50.5 67t75 39.5t96.5 19t122 5h16l13 196h98l-14 -200q127 -6 243 -39
l-14 -150q-24 1 -108 4t-132 4l-30 -454l92 -33q129 -42 180 -138t51 -263zM289 1059q0 -71 15 -113.5t40 -63.5t72 -38l28 -10l27 421q-38 0 -60 -1.5t-45.5 -8t-35.5 -19t-22.5 -34.5t-14.5 -54.5t-4 -78.5zM510 594l-31 -428q74 1 110 17t52 57.5t16 126.5
q0 75 -14 118.5t-36.5 62.5t-67.5 36z" />
    <glyph glyph-name="percent" unicode="%" horiz-adv-x="1490" 
d="M340 1440q154 0 215 -95t61 -325q0 -229 -61.5 -324.5t-214.5 -95.5q-151 0 -212.5 96t-61.5 324q0 229 61.5 324.5t212.5 95.5zM455 0h-133l710 1413h133zM338 1317q-71 0 -98 -65t-27 -232q0 -168 26.5 -232.5t98.5 -64.5q76 0 103.5 64t27.5 233q0 168 -27.5 232.5
t-103.5 64.5zM1149 819q152 0 213 -96t61 -324q0 -229 -61 -324t-213 -95q-153 0 -214 95t-61 324q0 228 61.5 324t213.5 96zM1147 694q-73 0 -100 -63t-27 -232t27 -233t100 -64q75 0 103 64.5t28 232.5q0 169 -28 232t-103 63z" />
    <glyph glyph-name="ampersand" unicode="&#x26;" horiz-adv-x="1269" 
d="M1178 154l20 -146q-77 -26 -192 -26q-84 0 -138 42.5t-71 120.5q-67 -91 -150.5 -129.5t-210.5 -38.5q-184 0 -261 85t-77 296q0 170 52 264t172 107v8q-101 12 -146 92.5t-45 237.5q0 82 10 141t35 100.5t56.5 66.5t85 38.5t109.5 18t140 4.5q151 0 264 -23l-22 -153
q-76 6 -248 6q-69 0 -107.5 -7.5t-67 -32t-38.5 -68.5t-10 -120q0 -135 38.5 -182t143.5 -47h275l16 252h166v-252h192l2 -156h-194v-370q0 -72 18.5 -100.5t71.5 -28.5h111zM492 156q182 0 299 141v356h-281q-112 0 -154.5 -55t-42.5 -205q0 -137 37.5 -187t141.5 -50z" />
    <glyph glyph-name="quotesingle" unicode="'" horiz-adv-x="354" 
d="M244 971h-133l-11 442h156z" />
    <glyph glyph-name="parenleft" unicode="(" horiz-adv-x="600" 
d="M535 1618l24 -92q-154 -95 -223.5 -313t-69.5 -572q0 -348 70 -567t223 -320l-24 -92q-237 105 -348 342.5t-111 634.5q0 400 111 637.5t348 341.5z" />
    <glyph glyph-name="parenright" unicode=")" horiz-adv-x="600" 
d="M41 1526l25 92q237 -104 347.5 -341.5t110.5 -637.5q0 -397 -110.5 -634.5t-347.5 -342.5l-25 92q152 101 222.5 320.5t70.5 566.5q0 353 -70 571.5t-223 313.5z" />
    <glyph glyph-name="asterisk" unicode="*" horiz-adv-x="743" 
d="M410 1083l172 -264l-90 -69l-121 254l-121 -252l-92 69l174 262l-17 332h113zM303 1141l-2 -51l-25 -33l-204 67l37 111zM670 1122l-205 -65l-27 33v51l197 94z" />
    <glyph glyph-name="plus" unicode="+" horiz-adv-x="909" 
d="M825 539h-299v-357h-145v357h-299v147h297v358h147v-358h299v-147z" />
    <glyph glyph-name="comma" unicode="," horiz-adv-x="395" 
d="M172 254h55q40 0 55 -16t13 -56l2 -131q-3 -176 -74 -325l-94 24q23 121 23 250q-26 0 -41 17t-15 46v119q3 40 20.5 56t55.5 16z" />
    <glyph glyph-name="hyphen" unicode="-" horiz-adv-x="712" 
d="M606 442h-500v152h500v-152z" />
    <glyph glyph-name="period" unicode="." horiz-adv-x="401" 
d="M168 254h63q40 0 56 -16t16 -56v-108q0 -41 -16 -57.5t-56 -16.5h-63q-40 0 -55 16.5t-15 57.5v108q0 40 15.5 56t54.5 16z" />
    <glyph glyph-name="slash" unicode="/" horiz-adv-x="876" 
d="M193 -137h-158l649 1550h160z" />
    <glyph glyph-name="zero" unicode="0" horiz-adv-x="1017" 
d="M508 1440q229 0 322.5 -169t93.5 -564t-93.5 -564.5t-322.5 -169.5q-228 0 -321 169.5t-93 564.5t93 564t321 169zM506 1262q-121 0 -168 -123.5t-47 -431.5t47 -431.5t168 -123.5q125 0 172 122.5t47 432.5t-47 432.5t-172 122.5z" />
    <glyph glyph-name="one" unicode="1" horiz-adv-x="710" 
d="M537 0h-203v1094q0 73 10 127l-264 -105l-25 154l279 143h203v-1413z" />
    <glyph glyph-name="two" unicode="2" horiz-adv-x="935" 
d="M455 1438q90 0 151.5 -12.5t112 -45.5t74.5 -95.5t24 -156.5q0 -135 -39.5 -244.5t-150.5 -260.5l-297 -433q80 9 180 9h344v-199h-768v129q0 39 29 86l295 444q107 146 156 254t48 203q-1 46 -12 74.5t-36.5 43t-54.5 19t-77 4.5q-156 0 -330 -30l-10 159q189 52 361 52
z" />
    <glyph glyph-name="three" unicode="3" horiz-adv-x="925" 
d="M438 1440q191 0 275 -72.5t84 -255.5q0 -73 -7.5 -129.5t-25 -105t-50 -79.5t-79.5 -42v-8q103 -22 146 -109.5t46 -245.5q3 -219 -82.5 -319.5t-289.5 -100.5q-153 0 -377 37l10 166q205 -20 311 -20q127 0 177.5 56.5t50.5 203.5q0 125 -41.5 185.5t-155.5 60.5h-209
v159h209q46 1 78.5 14.5t51 34t28.5 54t12.5 64.5t1.5 75q-1 66 -9.5 103.5t-33 59t-58.5 28t-95 6.5q-129 0 -295 -17l-13 160q173 37 340 37z" />
    <glyph glyph-name="four" unicode="4" horiz-adv-x="1036" 
d="M973 502v-146l-146 -20h-6v-336h-192v336h-434q-81 0 -119.5 72.5t-7.5 158.5l301 846h198l-288 -831q-13 -40 -2.5 -60t38.5 -20h314v409l35 230h157v-639h152z" />
    <glyph glyph-name="five" unicode="5" horiz-adv-x="897" 
d="M776 1237h-465l-12 -352l137 -15q212 -23 296.5 -123t84.5 -323q0 -449 -381 -449q-170 0 -362 52l20 166q158 -35 291 -35q70 0 115.5 16t70 52t33.5 81.5t10 116.5q2 63 -2.5 105.5t-23.5 73t-36 47t-63 29t-80 17.5t-110 13l-104 10q-33 1 -53.5 26t-20.5 62l29 606
h632z" />
    <glyph glyph-name="six" unicode="6" horiz-adv-x="956" 
d="M559 926q180 0 249 -103t69 -360q0 -94 -9 -164t-33 -133.5t-65.5 -103.5t-108.5 -63.5t-159 -23.5q-102 0 -170.5 22t-116 68t-73 132.5t-36 199t-10.5 283.5q0 140 10 249t28 188.5t48 136.5t65 92.5t85 56t101 28t120 7.5q150 0 250 -31l-12 -150q-93 7 -238 7
q-55 0 -92 -10t-68.5 -37.5t-50 -79t-30 -132t-15.5 -198.5q54 66 114 92.5t148 26.5zM504 152q40 0 69.5 8.5t49 27.5t31.5 42.5t18 62t8 76t2 94.5q0 165 -37.5 231t-140.5 66q-60 0 -106 -22t-103 -81q0 -112 1.5 -175.5t9 -129t20 -97t36.5 -58.5t58 -36t84 -9z" />
    <glyph glyph-name="seven" unicode="7" horiz-adv-x="851" 
d="M37 1413h659q57 0 81 -36t7 -97l-344 -1280h-204l301 1130q8 37 41 109h-533z" />
    <glyph glyph-name="eight" unicode="8" horiz-adv-x="1003" 
d="M502 1436q113 -1 185.5 -22t114.5 -69.5t58.5 -115t16.5 -168.5q0 -302 -164 -324v-8q105 -13 147.5 -108t42.5 -269q0 -80 -10.5 -137t-36.5 -104t-72 -74.5t-115 -43t-167 -16.5q-119 -1 -197.5 21t-123.5 70.5t-63 116t-18 167.5q0 85 9 148.5t30 114t58.5 79
t91.5 35.5v8q-164 22 -164 324q0 102 17 169t59.5 115t115.5 69.5t185 21.5zM504 1270q-116 0 -154.5 -48t-38.5 -182q0 -136 38 -180.5t157 -44.5q61 0 96.5 9.5t56 37t27 67.5t6.5 111q0 135 -36.5 182.5t-151.5 47.5zM506 651q-130 -1 -172.5 -52t-42.5 -202
q0 -141 42.5 -192t170.5 -51q125 0 165 50.5t40 192.5q0 155 -39 204.5t-164 49.5z" />
    <glyph glyph-name="nine" unicode="9" 
d="M463 1438q86 0 146.5 -14t105 -50.5t71 -87t42 -136t21 -183.5t5.5 -244q0 -119 -6 -213t-19.5 -169.5t-32 -131t-47 -96.5t-61.5 -67.5t-78.5 -42t-95 -22t-113.5 -6.5q-157 0 -270 31l14 152q84 -6 254 -6q100 0 152 38t77 135t29 287q-55 -69 -115 -97t-151 -28
q-309 0 -309 461q-2 253 87 371.5t294 118.5zM451 651q59 0 103.5 23t104.5 84q0 74 -0.5 122t-3 100.5t-6.5 84.5t-11 66t-18 52.5t-25 36.5t-34 26t-44 13t-56 5q-113 0 -151 -74.5t-38 -241.5q0 -153 39 -225t140 -72z" />
    <glyph glyph-name="colon" unicode=":" horiz-adv-x="417" 
d="M170 905h63q40 0 56 -15.5t16 -55.5v-111q0 -40 -16 -56t-56 -16h-63q-39 0 -54.5 16t-15.5 56v111q0 40 15 55.5t55 15.5zM170 254h63q40 0 56 -16t16 -56v-108q0 -41 -16 -57.5t-56 -16.5h-63q-40 0 -55 16.5t-15 57.5v108q0 40 15.5 56t54.5 16z" />
    <glyph glyph-name="semicolon" unicode=";" horiz-adv-x="419" 
d="M182 905h64q38 0 53.5 -15.5t15.5 -55.5v-111q0 -40 -15.5 -56t-53.5 -16h-64q-41 0 -56 16t-15 56v111q0 40 15 55.5t56 15.5zM184 254h56q39 0 54 -16t13 -56l2 -131q-3 -176 -71 -325l-95 24q21 126 21 250q-26 0 -40.5 17t-14.5 46v119q3 40 20 56t55 16z" />
    <glyph glyph-name="less" unicode="&#x3c;" horiz-adv-x="868" 
d="M762 885l-516 -275l516 -268v-158l-684 348v156l684 354v-157z" />
    <glyph glyph-name="equal" unicode="=" horiz-adv-x="966" 
d="M856 743h-745v148h745v-148zM856 311h-745v148h745v-148z" />
    <glyph glyph-name="greater" unicode="&#x3e;" horiz-adv-x="868" 
d="M791 688v-156l-685 -348v158l519 268l-519 275v157z" />
    <glyph glyph-name="question" unicode="?" horiz-adv-x="833" 
d="M436 1458q171 0 255.5 -77.5t84.5 -239.5q0 -62 -15.5 -116.5t-40.5 -96.5t-55 -82.5t-61 -82.5t-57 -87.5t-43.5 -107t-20.5 -132.5h-166q-2 88 15.5 164.5t44.5 127.5t60 102t61.5 90t48.5 87.5t22 98.5q5 95 -38 139.5t-140 44.5q-159 0 -325 -18l-9 143q18 3 63 12.5
t65 13t61 8.5t86 7t104 2zM377 254h49q38 0 54 -16t16 -56v-108q0 -41 -16 -57.5t-54 -16.5h-49q-40 0 -55 16.5t-15 57.5v108q0 40 15.5 56t54.5 16z" />
    <glyph glyph-name="at" unicode="@" horiz-adv-x="1210" 
d="M596 1204h240q135 0 201.5 -70t66.5 -231v-633h-148l-18 154q-46 -66 -127.5 -118t-171.5 -52q-100 0 -161.5 64.5t-61.5 185.5v102q0 102 48 157.5t142 55.5h312v78q0 82 -25.5 112.5t-93.5 30.5h-205q-46 0 -73.5 -1t-59.5 -5.5t-49.5 -10.5t-38 -20.5t-30 -31.5
t-20.5 -46.5t-15.5 -62.5t-8.5 -82.5t-5 -103.5t-1 -129q0 -99 1.5 -163.5t10.5 -122.5t16.5 -90.5t32 -59.5t44.5 -38.5t66 -19.5t84 -9t111 -1h443v-147q-279 -19 -440 -19q-100 -1 -168 2.5t-129.5 17.5t-98.5 33t-69 58.5t-47.5 84t-26.5 119.5t-14 155t-3 200
q0 117 2.5 195t12.5 150.5t23.5 116t41.5 82t61 57.5t87 33t114 18.5t148 4.5zM918 698l-236 -8q-51 -3 -67.5 -25.5t-16.5 -82.5v-43q0 -127 82 -127q60 0 126.5 33.5t111.5 93.5v159z" />
    <glyph glyph-name="A" unicode="A" horiz-adv-x="1048" 
d="M733 426h-420l-96 -426h-209l344 1358q6 25 26 40t46 15h201q25 0 44 -14.5t25 -40.5l344 -1358h-209zM692 604l-121 537q-2 11 -8 35.5t-10 43t-6 35.5h-45q-4 -22 -14 -66t-11 -48l-123 -537h338z" />
    <glyph glyph-name="B" unicode="B" horiz-adv-x="1034" 
d="M723 737v-8q124 -13 175.5 -106.5t51.5 -270.5q0 -110 -20 -180.5t-66 -112.5t-113 -58.5t-171 -16.5q-295 0 -449 16v1413q147 17 397 17q111 0 182.5 -16.5t119.5 -59t68 -113t20 -180.5q0 -154 -46.5 -233t-148.5 -91zM520 1255h-190v-444h207q106 0 146 46t40 179
q0 130 -43.5 174.5t-159.5 44.5zM330 160l215 -2q119 0 161 46t42 183q0 106 -20 162.5t-63.5 79.5t-125.5 24h-209v-493z" />
    <glyph glyph-name="C" unicode="C" horiz-adv-x="956" 
d="M549 1438q112 0 181.5 -9t146.5 -32l-21 -158q-136 16 -307 16q-95 0 -147.5 -51t-75.5 -168.5t-23 -328.5q0 -212 23 -329t75.5 -168.5t147.5 -51.5q215 0 330 22l20 -155q-143 -50 -350 -50q-171 0 -270.5 71.5t-145 229.5t-45.5 431t45.5 431t145 229t270.5 71z" />
    <glyph glyph-name="D" unicode="D" horiz-adv-x="1105" 
d="M551 1432q175 0 274 -67.5t145 -224t46 -433.5t-46 -433.5t-145 -224t-274 -67.5q-195 0 -420 18v1413q234 19 420 19zM551 160q73 0 119.5 27t76.5 92.5t42 167.5t12 260q0 210 -23.5 326.5t-76.5 168t-150 51.5q-43 0 -114.5 -1t-102.5 -1v-1087q126 -4 217 -4z" />
    <glyph glyph-name="E" unicode="E" horiz-adv-x="940" 
d="M852 170l8 -158q-147 -16 -491 -16q-116 0 -182 68t-66 186v913q0 117 66.5 185.5t181.5 68.5q344 0 491 -16l-8 -160h-451q-45 0 -60 -28.5t-15 -102.5v-283h465v-165h-465v-361q0 -74 15 -102.5t60 -28.5h451z" />
    <glyph glyph-name="F" unicode="F" horiz-adv-x="901" 
d="M838 1241h-412q-56 0 -75 -28.5t-19 -102.5v-305h446v-166l-446 -2v-637h-207v1153q0 125 67 194.5t183 69.5q332 0 475 -18z" />
    <glyph glyph-name="G" unicode="G" horiz-adv-x="1044" 
d="M944 815v-815h-149l-19 135q-54 -68 -139.5 -115t-194.5 -47q-186 0 -269 178t-83 562q0 172 17.5 293t53 206.5t96.5 134.5t142.5 71t196.5 22q174 0 313 -43l-16 -156q-139 16 -285 16q-60 0 -101 -7.5t-77.5 -29t-58 -59.5t-37.5 -101t-22.5 -151t-6.5 -211
q0 -306 42.5 -426t154.5 -120q64 0 122 31t124 87v545h196z" />
    <glyph glyph-name="H" unicode="H" horiz-adv-x="1118" 
d="M989 1413v-1413h-205v666h-450v-666h-203v1413h203v-571h450v571h205z" />
    <glyph glyph-name="I" unicode="I" horiz-adv-x="462" 
d="M334 0h-203v1413h203v-1413z" />
    <glyph glyph-name="J" unicode="J" horiz-adv-x="577" 
d="M453 1413v-1104q0 -160 -60.5 -243.5t-171.5 -83.5q-110 0 -180 26l22 148h76q111 0 111 143v1114h203z" />
    <glyph glyph-name="K" unicode="K" horiz-adv-x="1005" 
d="M420 653h-101q15 -73 15 -145v-508h-203v1413h203v-434q0 -83 -15 -160h101l328 594h219l-320 -577q-27 -48 -78 -99v-6q66 -60 90 -108l328 -623h-225z" />
    <glyph glyph-name="L" unicode="L" horiz-adv-x="856" 
d="M330 1413v-1110q0 -74 19 -102.5t75 -28.5h393l10 -158q-159 -18 -434 -18q-147 0 -207.5 73t-60.5 205v1139h205z" />
    <glyph glyph-name="M" unicode="M" horiz-adv-x="1470" 
d="M1024 1413h213q79 0 82 -84l47 -1329h-199l-39 1243h-34l-189 -1005q-18 -70 -86 -70h-166q-69 0 -90 70l-190 1005h-33l-35 -1243h-199l44 1329q3 84 79 84h222q62 0 81 -70l156 -827q3 -14 16 -83.5t19 -106.5h22l35 192l156 825q19 70 88 70z" />
    <glyph glyph-name="N" unicode="N" horiz-adv-x="1183" 
d="M1055 1413v-1333q0 -80 -74 -80h-207q-67 0 -84 63l-282 963q-14 51 -58 197h-18v-197l2 -1026h-203v1333q0 80 74 80h203q69 0 86 -63l272 -938q7 -26 29.5 -99t33.5 -112h23q-2 1 -1 109.5t1 109.5v993h203z" />
    <glyph glyph-name="O" unicode="O" horiz-adv-x="1112" 
d="M557 1440q132 0 218.5 -36t143.5 -123t81 -225t24 -349q0 -280 -46 -438.5t-145.5 -227t-275.5 -68.5q-177 0 -277 68.5t-146 227t-46 438.5t46 438t146 226.5t277 68.5zM557 1257q-99 0 -153 -51.5t-77.5 -168.5t-23.5 -330q0 -128 8 -218t25 -156t47.5 -104t72 -55.5
t101.5 -17.5q98 0 152 51.5t77 169t23 330.5t-23 330t-77 168.5t-152 51.5z" />
    <glyph glyph-name="P" unicode="P" horiz-adv-x="987" 
d="M539 1432q112 0 183.5 -20.5t118 -73t65 -136.5t18.5 -217t-18.5 -218.5t-63 -137t-110.5 -72t-169 -20.5q-110 0 -229 14v-551h-203v1413q153 19 408 19zM334 713h201q107 0 146.5 56.5t39.5 215.5t-39.5 214.5t-146.5 55.5l-201 -2v-540z" />
    <glyph glyph-name="Q" unicode="Q" horiz-adv-x="1116" 
d="M559 1440q132 0 218.5 -36t143.5 -123t81 -225t24 -349q0 -280 -46 -438.5t-145.5 -227t-275.5 -68.5q-177 0 -277 68.5t-146 227t-46 438.5t46 438t146 226.5t277 68.5zM559 1257q-99 0 -153 -51.5t-77.5 -168.5t-23.5 -330q0 -128 8 -218t25 -156t47.5 -104t72 -55.5
t101.5 -17.5q98 0 152 51.5t77 169t23 330.5t-23 330t-77 168.5t-152 51.5zM430 -209l51 125q203 -92 480 -139l-66 -205q-129 32 -239.5 87t-225.5 132z" />
    <glyph glyph-name="R" unicode="R" horiz-adv-x="1034" 
d="M973 0h-217l-90 440q-17 76 -47.5 109t-81.5 33h-205v-582h-201v1413q153 19 408 19q144 0 227 -36.5t123.5 -126t40.5 -247.5q0 -171 -47.5 -256.5t-161.5 -103.5v-11q48 -17 90 -68.5t61 -136.5zM332 758h205q108 2 149 54.5t41 197.5q0 144 -40.5 194.5t-149.5 50.5
l-205 -2v-495z" />
    <glyph glyph-name="S" unicode="S" horiz-adv-x="937" 
d="M467 1438q205 0 356 -43l-14 -150q-230 10 -332 10q-41 0 -63 -1.5t-47.5 -7.5t-37.5 -18.5t-23 -34.5t-15 -54.5t-4 -79.5q0 -103 28.5 -146.5t96.5 -68.5l219 -78q129 -42 180 -138t51 -263q0 -123 -20.5 -198.5t-72 -118.5t-123 -58t-187.5 -15q-181 0 -363 41l13 152
q289 -10 356 -10q60 1 94 8.5t57.5 31t31 62.5t7.5 107q0 75 -14 118.5t-36.5 62.5t-67.5 36l-228 80q-123 42 -175 138.5t-52 262.5q0 82 9.5 141.5t31.5 101t50.5 67t75 39.5t96.5 19t122 5z" />
    <glyph glyph-name="T" unicode="T" horiz-adv-x="976" 
d="M940 1231h-348v-1231h-207v1231h-348v182h903v-182z" />
    <glyph glyph-name="U" unicode="U" horiz-adv-x="1103" 
d="M983 1413v-868q0 -311 -96 -441.5t-326 -130.5q-241 0 -339.5 130t-98.5 442v868h203v-868q0 -219 49 -304t178 -85q125 0 175 86t50 303v868h205z" />
    <glyph glyph-name="V" unicode="V" horiz-adv-x="1024" 
d="M1006 1413l-322 -1356q-8 -25 -29 -41t-47 -16h-192q-26 0 -47 16t-25 41l-324 1356h209l232 -1100q16 -57 31 -155h43q3 23 8 48.5t12 58t10 48.5l232 1100h209z" />
    <glyph glyph-name="W" unicode="W" horiz-adv-x="1587" 
d="M1536 1413l-193 -1354q-6 -27 -26 -43t-47 -16h-221q-29 0 -49.5 16.5t-26.5 44.5l-142 1039q-3 27 -11 80.5t-11 79.5h-31q-6 -30 -12.5 -85.5t-9.5 -74.5l-142 -1039q-4 -27 -25.5 -44t-49.5 -17h-222q-28 0 -48.5 16.5t-26.5 42.5l-193 1354h217l129 -1077
q9 -51 21 -180h35q8 90 24 180l137 1010q6 30 26 48.5t50 18.5h211q29 0 49.5 -18.5t26.5 -48.5l137 -1012q18 -106 23 -178h36q17 164 19 176l133 1081h213z" />
    <glyph glyph-name="X" unicode="X" horiz-adv-x="1028" 
d="M530 655h-34l-248 -655h-219l299 731l-277 682h215l228 -602h38l228 602h219l-281 -682l301 -731h-221z" />
    <glyph glyph-name="Y" unicode="Y" horiz-adv-x="966" 
d="M584 487v-487h-201v487l-375 926h215l207 -579q23 -57 47 -162h15q26 116 45 162l208 579h211z" />
    <glyph glyph-name="Z" unicode="Z" horiz-adv-x="944" 
d="M868 174v-174h-790v174l565 1065h-555v174h770v-174l-565 -1065h575z" />
    <glyph glyph-name="bracketleft" unicode="[" horiz-adv-x="561" 
d="M500 1444h-152q-11 0 -18.5 -10t-7.5 -23v-1587q0 -13 7.5 -23t18.5 -10h152v-129h-254q-49 0 -79 29t-30 90v1673q0 52 31.5 85.5t77.5 33.5h254v-129z" />
    <glyph glyph-name="backslash" unicode="\" horiz-adv-x="878" 
d="M844 -137h-160l-649 1550h160z" />
    <glyph glyph-name="bracketright" unicode="]" horiz-adv-x="561" 
d="M59 1573h250q50 0 81.5 -33.5t31.5 -85.5v-1673q0 -52 -31.5 -85.5t-81.5 -33.5h-250v129h150q12 0 20.5 9.5t8.5 23.5v1587q0 14 -8.5 23.5t-20.5 9.5h-150v129z" />
    <glyph glyph-name="asciicircum" unicode="^" horiz-adv-x="737" 
d="M688 803l-78 -47l-233 352h-15l-235 -352l-78 47l250 436h141z" />
    <glyph glyph-name="underscore" unicode="_" horiz-adv-x="729" 
d="M729 -150h-729v150h729v-150z" />
    <glyph glyph-name="grave" unicode="`" horiz-adv-x="555" 
d="M442 1188l-61 -92l-352 239l106 152z" />
    <glyph glyph-name="a" unicode="a" horiz-adv-x="919" 
d="M506 1026q159 0 233 -73.5t74 -256.5v-696h-156l-20 145q-51 -68 -129 -115.5t-176 -47.5q-117 0 -188.5 74.5t-71.5 207.5v105q0 120 62.5 184.5t178.5 64.5h301v78q-2 94 -33 128t-120 34q-80 0 -334 -24l-16 145q86 19 204.5 33t190.5 14zM375 150q48 0 113 31.5
t126 94.5v193h-262q-48 -3 -64 -33.5t-16 -93.5v-53q0 -73 24.5 -106t78.5 -33z" />
    <glyph glyph-name="b" unicode="b" horiz-adv-x="956" 
d="M586 1026q151 0 223 -123t72 -399q0 -133 -17 -225.5t-58.5 -163.5t-116 -105.5t-185.5 -34.5q-94 0 -207 19.5t-184 52.5v1387h196v-359q0 -119 -20 -219q63 83 140.5 126.5t156.5 43.5zM500 141q96 2 136 82t40 281q0 204 -31.5 277t-134.5 73q-50 0 -94 -31.5
t-109 -99.5l2 -555q93 -31 191 -27z" />
    <glyph glyph-name="c" unicode="c" horiz-adv-x="819" 
d="M471 1026q169 0 281 -51l-25 -127q-130 10 -223 10q-125 0 -173 -75.5t-48 -282.5t48 -283t173 -76q129 0 241 23l19 -133q-127 -56 -295 -56q-215 0 -304 118.5t-89 406.5q0 289 89.5 407.5t305.5 118.5z" />
    <glyph glyph-name="d" unicode="d" horiz-adv-x="958" 
d="M846 1434v-1434h-156l-14 131q-59 -68 -141 -112t-173 -44q-150 0 -217 132t-67 397q0 193 37 309.5t104.5 164.5t173.5 48q146 0 264 -86q-8 88 -8 193v301h197zM283 506q0 -142 15.5 -220.5t47 -108.5t86.5 -30q57 0 96 24t121 97v539q-46 17 -71.5 25t-61.5 15t-70 7
q-63 0 -96.5 -27.5t-50 -102.5t-16.5 -218z" />
    <glyph glyph-name="e" unicode="e" horiz-adv-x="899" 
d="M504 141q91 0 287 25l18 -131q-61 -30 -154.5 -45t-177.5 -15q-219 0 -310 119.5t-91 407.5q0 197 42 312t124.5 163.5t220.5 48.5q192 0 279 -84t85 -252q2 -137 -50 -212t-152 -75h-340q7 -107 32.5 -164.5t68 -77.5t118.5 -20zM473 858q-108 0 -147.5 -62t-42.5 -239
h286q27 0 41.5 22.5t17.5 47.5t3 63q2 93 -32 130.5t-126 37.5z" />
    <glyph glyph-name="f" unicode="f" horiz-adv-x="653" 
d="M664 1307h-158q-68 0 -95.5 -35.5t-27.5 -120.5v-152h238v-153h-238v-846h-195v846h-147v143l147 10v175q0 146 58 220t192 74q165 0 242 -14z" />
    <glyph glyph-name="g" unicode="g" horiz-adv-x="935" 
d="M895 893l-113 -12q29 -68 29 -174q0 -116 -32 -184.5t-111.5 -103t-218.5 -34.5q-83 0 -144 12q-17 -42 -6.5 -92.5t49.5 -58.5l293 -58q121 -23 171 -90.5t50 -201.5q0 -172 -87.5 -239t-313.5 -67q-227 0 -317.5 65t-90.5 228q0 91 30 141t107 99q-39 36 -50 98
t5.5 121t53.5 94q-60 36 -85.5 102t-25.5 169q0 173 80 246t281 73q123 0 200 -27h258zM449 535q103 0 141.5 38.5t38.5 133.5t-38.5 131t-141.5 36t-143 -36.5t-40 -130.5q0 -95 40 -133.5t143 -38.5zM672 -92q0 75 -24.5 97t-112.5 38l-218 37q-44 -49 -57.5 -84.5
t-13.5 -89.5q0 -93 39.5 -120.5t165.5 -27.5q96 0 141.5 12.5t62.5 43t17 94.5z" />
    <glyph glyph-name="h" unicode="h" horiz-adv-x="970" 
d="M641 1026q107 0 164 -70.5t57 -205.5v-750h-196v692q0 95 -17 130.5t-63 35.5q-57 0 -117.5 -33t-157.5 -110v-715h-196v1434h196v-387q0 -111 -12 -193q183 172 342 172z" />
    <glyph glyph-name="i" unicode="i" horiz-adv-x="440" 
d="M172 1425h94q56 0 56 -57v-115q0 -59 -56 -59h-94q-55 0 -55 59v115q0 57 55 57zM317 0h-194v999h194v-999z" />
    <glyph glyph-name="j" unicode="j" horiz-adv-x="442" 
d="M176 1425h94q54 0 54 -57v-115q0 -59 -54 -59h-94q-55 0 -55 59v115q0 57 55 57zM319 999v-1009q0 -124 -47.5 -231t-132.5 -173l-108 86q49 73 70.5 147.5t21.5 170.5v1009h196z" />
    <glyph glyph-name="k" unicode="k" horiz-adv-x="876" 
d="M381 492h-80q10 -88 10 -156v-336h-196v1434h196v-629q0 -78 -10 -170h80l231 364h224l-228 -362q-18 -33 -65 -74v-4q40 -35 65 -86l254 -473h-223z" />
    <glyph glyph-name="l" unicode="l" horiz-adv-x="516" 
d="M313 1434l-2 -1145q0 -127 97 -127h67l25 -154q-25 -12 -77 -19t-93 -7q-100 0 -156.5 68t-56.5 194v1190h196z" />
    <glyph glyph-name="m" unicode="m" horiz-adv-x="1445" 
d="M1116 1026q107 0 164 -70.5t57 -205.5v-750h-194v692q-2 91 -22 128.5t-77 37.5q-45 0 -82 -24.5t-118 -97.5q-15 -14 -23 -21v-715h-188v692q1 90 -23 128t-78 38q-46 0 -87.5 -28t-135.5 -115v-715h-194v999h161l11 -149q156 176 315 176q166 0 207 -168
q152 168 307 168z" />
    <glyph glyph-name="n" unicode="n" horiz-adv-x="970" 
d="M641 1026q107 0 164 -70.5t57 -205.5v-750h-196v692q0 95 -17 130.5t-63 35.5q-57 0 -116.5 -33.5t-160.5 -111.5l2 -713h-196v999h168l10 -149q182 176 348 176z" />
    <glyph glyph-name="o" unicode="o" horiz-adv-x="948" 
d="M475 1026q216 0 305.5 -120t89.5 -408q0 -286 -89.5 -405.5t-305.5 -119.5q-217 0 -308 119.5t-91 405.5q0 287 91 407.5t308 120.5zM475 858q-77 0 -117.5 -32.5t-57.5 -108t-17 -219.5q0 -208 40 -283.5t152 -75.5t152.5 75.5t40.5 283.5q0 211 -40 285.5t-153 74.5z
" />
    <glyph glyph-name="p" unicode="p" horiz-adv-x="978" 
d="M629 1026q141 0 206.5 -134.5t65.5 -397.5q0 -190 -37 -306t-105 -164.5t-175 -48.5q-160 0 -281 97q9 -100 6 -199v-281h-194v1407h161l15 -149q56 77 152 126.5t186 49.5zM530 147q64 0 98.5 28t51 103t16.5 218q0 199 -31.5 278.5t-107.5 79.5q-56 0 -113.5 -34.5
t-134.5 -110.5v-508q7 -3 29 -10.5t29.5 -10t26.5 -9t28 -8.5t25 -6t27.5 -5.5t26.5 -3t29 -1.5z" />
    <glyph glyph-name="q" unicode="q" 
d="M461 1026q86 0 199 -20t184 -54v-1360h-197l-2 328q0 113 17 199q-143 -146 -304 -146q-142 0 -212 127t-70 398q0 134 17 226.5t59.5 163t118.5 104.5t190 34zM281 483q0 -92 5 -149.5t20.5 -102.5t44.5 -64.5t75 -19.5q59 0 107 28.5t114 90.5v565q-96 30 -192 27
q-68 -2 -104 -35t-53 -112.5t-17 -227.5z" />
    <glyph glyph-name="r" unicode="r" horiz-adv-x="679" 
d="M655 1026l-20 -186h-57q-54 0 -109.5 -25t-157.5 -86v-729h-196v999h153l19 -149q173 176 329 176h39z" />
    <glyph glyph-name="s" unicode="s" horiz-adv-x="851" 
d="M399 1026q200 -4 357 -35l-15 -143q-260 10 -309 10h-46.5t-36.5 -1.5t-30 -4.5t-21.5 -8.5t-16.5 -13t-9 -19.5t-6.5 -27t-1.5 -36q0 -73 36 -99q15 -12 73 -33l217 -69q104 -34 148 -94.5t44 -186.5q0 -92 -20 -149t-68 -88t-111 -41.5t-165 -10.5q-174 0 -330 29
l12 148q87 -11 273 -11q131 0 175 24t44 99q0 32 -5.5 52.5t-24.5 34.5t-31 19t-47 17q-3 1 -5.5 2t-5.5 2l-211 70q-105 32 -146.5 96.5t-41.5 188.5q0 166 71 223t254 55z" />
    <glyph glyph-name="t" unicode="t" horiz-adv-x="663" 
d="M381 846v-557q0 -72 20 -99.5t76 -27.5h111l22 -154q-79 -26 -207 -26q-105 0 -161 72.5t-56 207.5v584h-149v143l149 10v293h195v-293h235v-153h-235z" />
    <glyph glyph-name="u" unicode="u" 
d="M840 999v-999h-158l-14 133q-171 -160 -334 -160q-110 0 -166.5 70t-56.5 207v749h196v-692q-2 -93 18.5 -128.5t77.5 -35.5q50 0 105.5 31t136.5 100v725h195z" />
    <glyph glyph-name="v" unicode="v" horiz-adv-x="899" 
d="M881 999l-279 -950q-19 -49 -65 -49h-175q-50 0 -63 49l-279 950h209l168 -688q28 -109 41 -172h23q6 30 20.5 88t20.5 84l170 688h209z" />
    <glyph glyph-name="w" unicode="w" horiz-adv-x="1374" 
d="M1341 999l-213 -944q-4 -26 -23 -40.5t-46 -14.5h-180q-28 0 -50.5 17.5t-25.5 45.5l-84 658q-13 117 -23 160h-18q-20 -129 -23 -160l-84 -658q-3 -29 -25 -46t-52 -17h-175q-60 0 -73 55l-213 944h200l136 -720q16 -99 22 -154h21q4 25 13 77t13 77l86 659
q3 28 22.5 44.5t47.5 16.5h188q28 0 47.5 -17t22.5 -46l84 -657q3 -18 13.5 -71t13.5 -83h22q5 71 21 154l135 720h200z" />
    <glyph glyph-name="x" unicode="x" horiz-adv-x="892" 
d="M461 442h-25l-200 -442h-211l251 516l-233 483h211l180 -403h29l178 403h209l-234 -483l252 -516h-209z" />
    <glyph glyph-name="y" unicode="y" horiz-adv-x="894" 
d="M874 999l-296 -1046q-21 -72 -53.5 -133.5t-81 -117t-118 -88.5t-153.5 -34l-18 131q95 36 151 97t86 155l12 37h-43q-52 0 -67 51l-273 948h211l177 -727q20 -77 26 -122h23q7 24 18 67.5t14 54.5l175 727h210z" />
    <glyph glyph-name="z" unicode="z" horiz-adv-x="856" 
d="M778 162v-162h-700v162l479 676h-473v161h688v-161l-477 -676h483z" />
    <glyph glyph-name="braceleft" unicode="{" horiz-adv-x="548" 
d="M483 1573v-125q-80 0 -108.5 -36.5t-28.5 -129.5v-354q2 -128 -31.5 -181t-128.5 -75q96 -35 130 -87.5t36 -160.5v-473q0 -92 29 -128t108 -36v-125q-168 -17 -245.5 54t-77.5 221v518q0 47 -11 74t-24 37t-50 29q-9 5 -13 7v139q54 23 66 35q22 22 24 99v22v401
q0 150 77.5 221t247.5 54z" />
    <glyph glyph-name="bar" unicode="|" horiz-adv-x="419" 
d="M279 -346h-140v1945h140v-1945z" />
    <glyph glyph-name="braceright" unicode="}" horiz-adv-x="550" 
d="M68 1448v125q325 32 325 -275v-401q0 -91 18 -115q12 -17 60 -36q9 -4 12 -5v-139q-57 -29 -71 -43q-27 -28 -27 -104v-518q0 -307 -324 -275v125q79 0 108.5 36t29.5 128v473q2 109 35.5 161t130.5 87q-95 22 -128.5 75t-31.5 181v354q0 92 -29.5 129t-107.5 37z" />
    <glyph glyph-name="asciitilde" unicode="~" horiz-adv-x="862" 
d="M248 719q56 -3 179.5 -57.5t158.5 -59.5q38 -6 50.5 18t12.5 89h96q17 -124 -21 -190.5t-110 -61.5q-61 3 -182 56t-153 58q-39 6 -51.5 -18.5t-12.5 -91.5h-96q-16 128 22.5 194.5t106.5 63.5z" />
    <glyph glyph-name="uni00A0" unicode="&#xa0;" horiz-adv-x="364" 
 />
    <glyph glyph-name="exclamdown" unicode="&#xa1;" horiz-adv-x="446" 
d="M201 1016h47q38 0 53.5 -17t15.5 -57v-111q0 -40 -15.5 -55.5t-53.5 -15.5h-47q-40 0 -56 15.5t-16 55.5v111q0 40 16.5 57t55.5 17zM322 205v-602h-197v602l20 375h156z" />
    <glyph glyph-name="cent" unicode="&#xa2;" horiz-adv-x="843" 
d="M743 377l19 -133q-114 -48 -258 -54l-17 -190h-96l17 193q-181 13 -256.5 133t-75.5 389q0 288 88.5 406t304.5 118h18l17 174h98l-16 -182q99 -10 164 -41l-25 -133q-74 9 -154 12l-51 -713q106 0 223 21zM270 715q0 -174 34 -252.5t120 -97.5l47 706q-113 -8 -157 -85
t-44 -271z" />
    <glyph glyph-name="sterling" unicode="&#xa3;" horiz-adv-x="952" 
d="M874 176v-176h-780v176q79 46 105.5 139t19.5 232l-6 139h-127l-2 115h123l-14 264q-4 94 8.5 161t37 108t67.5 64.5t92 31.5t120 8q134 0 318 -21l-9 -164q-140 7 -292 7q-85 0 -116.5 -41.5t-25.5 -157.5l15 -260h315l-4 -115h-307l8 -139q6 -139 -22 -223.5
t-95 -157.5q39 10 117 10h454z" />
    <glyph glyph-name="currency" unicode="&#xa4;" horiz-adv-x="976" 
d="M817 719q0 -135 -63 -236l125 -151l-86 -86l-117 143q-83 -74 -191 -74q-103 0 -188 72l-115 -139l-88 92l121 147q-59 105 -59 232q0 132 63 239l-119 148l82 86l113 -141q82 73 190 73q111 0 193 -73l117 141l84 -86l-123 -150q61 -103 61 -237zM485 434q87 0 151 84.5
t64 202.5t-63.5 202.5t-151.5 84.5t-151.5 -84.5t-63.5 -202.5t63.5 -202.5t151.5 -84.5z" />
    <glyph glyph-name="yen" unicode="&#xa5;" horiz-adv-x="1038" 
d="M680 668h219v-117h-268l-10 -25v-90h278v-117h-278v-319h-203v319h-268v117h268v90l-10 25h-258l-5 117h213l-313 745h209l211 -553q10 -29 27 -87.5t22 -74.5h14q20 86 47 162l209 553h209z" />
    <glyph glyph-name="brokenbar" unicode="&#xa6;" horiz-adv-x="423" 
d="M281 780h-140v819h140v-819zM281 -346h-140v819h140v-819z" />
    <glyph glyph-name="section" unicode="&#xa7;" horiz-adv-x="905" 
d="M438 1440q165 0 363 -25l-13 -155q-141 12 -294 12q-36 0 -56 -0.5t-45.5 -4t-38.5 -10t-26.5 -18.5t-19 -30t-5.5 -44q-3 -65 22 -103.5t76 -74.5l242 -180q83 -53 123 -124.5t41 -160.5t-23 -203h-139q6 134 -19 208t-102 126l-266 199q-40 32 -64.5 56.5t-50 62.5
t-37.5 86.5t-12 111.5q0 83 21.5 137t68 83t106 40t148.5 11zM123 784h139q-6 -135 18 -206t101 -125l268 -197q39 -31 63 -56t50 -63.5t38.5 -89t12.5 -113.5q0 -71 -16.5 -121t-43 -79.5t-73 -45.5t-94 -21t-117.5 -5q-176 0 -365 25l17 155q175 -14 293 -14q43 0 66 1.5
t50 7t40.5 17.5t23 33.5t10.5 53.5q3 64 -21.5 103.5t-72.5 76.5l-242 178q-84 52 -124.5 122t-42 159t21.5 204z" />
    <glyph glyph-name="dieresis" unicode="&#xa8;" horiz-adv-x="692" 
d="M168 1427h65q52 0 52 -55v-110q0 -56 -52 -56h-65q-49 0 -49 56v110q0 55 49 55zM463 1427h63q25 0 39.5 -15t14.5 -40v-110q0 -56 -54 -56h-63q-53 0 -53 56v110q0 25 13.5 40t39.5 15z" />
    <glyph glyph-name="copyright" unicode="&#xa9;" horiz-adv-x="1366" 
d="M682 1440q166 0 303 -93.5t216 -262t79 -377.5t-79 -377.5t-216 -262.5t-303 -94q-122 0 -232 55.5t-190 151.5t-127 233t-47 294t47 294t127 233t190 151t232 55zM682 1335q-100 0 -191 -47.5t-157.5 -130t-106 -200t-39.5 -250.5q0 -177 67 -322t180 -226t247 -81
q135 0 248.5 81t180.5 226t67 322q0 268 -145 448t-351 180zM690 1157q129 0 225 -29l-14 -112q-96 8 -213 8q-98 0 -133 -66.5t-35 -246.5t35 -247t133 -67q144 0 232 13l12 -113q-98 -33 -242 -33q-177 0 -249 100.5t-72 346.5t72 346t249 100z" />
    <glyph glyph-name="ordfeminine" unicode="&#xaa;" horiz-adv-x="727" 
d="M416 1247q103 0 154 -52t51 -175v-461h-117l-15 115q-95 -129 -227 -129q-77 0 -123.5 47t-46.5 133v78q0 77 44 121.5t120 44.5h221v51q0 50 -21.5 76t-72.5 26q-74 0 -250 -16l-16 111q176 30 299 30zM311 672q76 0 166 86v125l-174 -17q-41 -3 -55.5 -21.5
t-14.5 -56.5v-30q0 -48 19 -67t59 -19z" />
    <glyph glyph-name="guillemotleft" unicode="&#xab;" horiz-adv-x="833" 
d="M434 874l-188 -360l190 -367l-104 -69l-264 414v45l262 405zM756 874l-189 -360l191 -367l-105 -69l-264 414v45l262 405z" />
    <glyph glyph-name="logicalnot" unicode="&#xac;" horiz-adv-x="974" 
d="M856 684v-414h-147v265h-598v149h745z" />
    <glyph glyph-name="softhyphen" unicode="&#xad;" horiz-adv-x="708" 
d="M606 442h-500v152h500v-152z" />
    <glyph glyph-name="registered" unicode="&#xae;" horiz-adv-x="888" 
d="M446 1438q152 0 259.5 -133t107.5 -322q0 -190 -107.5 -323.5t-259.5 -133.5q-155 0 -262.5 133t-107.5 324q0 189 107.5 322t262.5 133zM446 592q125 0 214.5 114.5t89.5 276.5q0 161 -89.5 275t-214.5 114q-127 0 -217 -114t-90 -275q0 -163 89.5 -277t217.5 -114z
M645 725h-92l-37 160q-9 29 -22 41t-35 12h-92v-213h-86v520q55 6 176 6q93 0 132.5 -32.5t39.5 -116.5q0 -61 -20.5 -92.5t-71.5 -38.5v-4q49 -7 63 -78zM367 1004h90q50 2 68 20t18 68q0 54 -17.5 71t-68.5 17h-90v-176z" />
    <glyph glyph-name="macron" unicode="&#xaf;" horiz-adv-x="661" 
d="M571 1241h-479v145h479v-145z" />
    <glyph glyph-name="degree" unicode="&#xb0;" horiz-adv-x="583" 
d="M293 1440q88 0 153.5 -76.5t65.5 -183.5q0 -109 -65 -188t-154 -79q-91 0 -156 79t-65 188q0 107 64 183.5t157 76.5zM293 1321q-42 0 -71 -39.5t-29 -101.5q0 -64 29 -105t71 -41q39 0 68.5 41.5t29.5 104.5q0 62 -28.5 101.5t-69.5 39.5z" />
    <glyph glyph-name="plusminus" unicode="&#xb1;" horiz-adv-x="964" 
d="M854 813v-147h-299v-269h-147v269h-297v147h297v268h149v-268h297zM111 281h743v-148h-743v148z" />
    <glyph glyph-name="twosuperior" unicode="&#xb2;" horiz-adv-x="714" 
d="M336 1599q70 0 115.5 -7.5t81 -28.5t51.5 -60.5t16 -101.5q0 -122 -127 -287l-188 -244q45 7 104 7l234 -3l-2 -137h-531v86q0 35 25 66l186 244q66 81 98 140.5t33 110.5q4 52 -21.5 68t-86.5 16q-108 0 -222 -14l-6 117q119 28 240 28z" />
    <glyph glyph-name="threesuperior" unicode="&#xb3;" horiz-adv-x="684" 
d="M332 1602q140 0 194 -42.5t54 -154.5q0 -94 -26.5 -148t-96.5 -67v-4q78 -13 108.5 -64.5t32.5 -148.5q2 -133 -56.5 -192.5t-201.5 -59.5q-104 0 -254 22l6 115q115 -8 211 -8q81 0 111 30.5t30 112.5q0 61 -25 94t-95 33h-142v115l142 2q36 0 59 11t33.5 31.5t14 40
t3.5 46.5q0 63 -26.5 85t-100.5 22q-108 0 -201 -7l-6 113q128 23 232 23z" />
    <glyph glyph-name="acute" unicode="&#xb4;" horiz-adv-x="552" 
d="M500 1335l-353 -239l-61 92l307 299z" />
    <glyph glyph-name="paragraph" unicode="&#xb6;" horiz-adv-x="980" 
d="M567 1438q160 0 264 -35v-1403h-145v1305q-61 6 -113 6v-1741h-143v842q-201 23 -289 141.5t-88 368.5q0 283 118 399.5t396 116.5z" />
    <glyph glyph-name="periodcentered" unicode="&#xb7;" horiz-adv-x="417" 
d="M178 655h64q38 0 53.5 -15.5t15.5 -55.5v-111q0 -40 -15.5 -56t-53.5 -16h-64q-40 0 -56 16t-16 56v111q0 40 16 55.5t56 15.5z" />
    <glyph glyph-name="cedilla" unicode="&#xb8;" horiz-adv-x="401" 
d="M117 -178l20 92q121 13 169.5 -13.5t45.5 -119.5q-3 -133 -90 -204t-213 -50l33 104q54 -3 92 35t41 98q2 33 -17.5 45t-80.5 13z" />
    <glyph glyph-name="onesuperior" unicode="&#xb9;" horiz-adv-x="493" 
d="M381 737h-150v627q0 48 5 84l-175 -57l-18 108l188 86h150v-848z" />
    <glyph glyph-name="ordmasculine" unicode="&#xba;" horiz-adv-x="731" 
d="M365 1247q157 0 220.5 -79.5t63.5 -274.5q0 -193 -63.5 -271.5t-220.5 -78.5q-155 0 -218 78.5t-63 271.5q0 195 63 274.5t218 79.5zM365 1124q-74 0 -103 -49t-29 -182q0 -132 28.5 -179.5t103.5 -47.5q76 0 103.5 47t27.5 180q0 134 -28 182.5t-103 48.5z" />
    <glyph glyph-name="guillemotright" unicode="&#xbb;" horiz-adv-x="833" 
d="M444 537v-45l-264 -414l-104 69l190 367l-188 360l104 68zM766 537v-45l-264 -414l-105 69l191 367l-189 360l105 68z" />
    <glyph glyph-name="onequarter" unicode="&#xbc;" horiz-adv-x="1449" 
d="M236 565v627q0 40 6 84l-176 -57l-17 108l187 86h149v-848h-149zM1083 1413l-710 -1413h-135l710 1413h135zM1389 207l-80 -12v-195h-144v193h-293q-49 0 -72.5 36.5t1.5 102.5l190 516h146l-176 -492q-8 -17 -0.5 -30t24.5 -13h180v236l27 135h117v-371h80v-106z" />
    <glyph glyph-name="onehalf" unicode="&#xbd;" horiz-adv-x="1482" 
d="M385 565h-149v627q0 40 6 84l-176 -57l-17 108l187 86h149v-848zM356 0h-137l711 1413h137zM1122 862q70 0 115 -7.5t80.5 -28.5t51 -60.5t15.5 -101.5q0 -130 -127 -287l-186 -244q39 6 105 6l235 -2l-2 -137h-532v86q0 41 22 66l188 243q66 82 98.5 141.5t33.5 110.5
q4 51 -22 67.5t-85 16.5q-109 0 -223 -14l-6 117q119 28 239 28z" />
    <glyph glyph-name="threequarters" unicode="&#xbe;" horiz-adv-x="1601" 
d="M596 797q2 -133 -57 -192.5t-203 -59.5q-107 0 -254 22l6 115q115 -8 209 -8q81 0 112 30.5t31 110.5q0 62 -25 95.5t-96 33.5l-141 4v107l141 6q36 1 59.5 12t34 31t14 39t3.5 45q0 64 -26.5 86t-100.5 22q-121 0 -201 -6l-6 113q114 20 232 20q140 0 193.5 -42
t53.5 -152q0 -96 -26.5 -149t-97.5 -66v-4q81 -13 112 -64.5t33 -148.5zM1247 1413l-710 -1413h-138l711 1413h137zM1542 207l-80 -12v-195h-143v193h-295q-49 0 -72 36.5t2 102.5l189 516h145l-178 -492q-5 -18 2.5 -30.5t24.5 -12.5h182v236l27 135h116v-371h80v-106z" />
    <glyph glyph-name="questiondown" unicode="&#xbf;" horiz-adv-x="825" 
d="M410 1026h47q39 0 54 -16t15 -56v-110q0 -42 -15 -58t-54 -16h-47q-38 0 -54 16.5t-16 57.5v110q0 40 16 56t54 16zM350 592h164q3 -105 -21 -192.5t-60.5 -146.5t-74 -110.5t-65.5 -108t-31 -114.5q-3 -95 39.5 -139.5t138.5 -44.5q47 0 83.5 0.5t72 3t52.5 3.5
t59.5 5.5t58.5 5.5l8 -141q-10 -2 -41.5 -9.5t-40 -9t-35.5 -7t-41 -7t-41.5 -5t-51.5 -4.5t-57 -2t-71 -1q-173 0 -257.5 77.5t-84.5 239.5q0 84 29 155.5t71 126t85 111t75.5 137t36.5 177.5z" />
    <glyph glyph-name="Agrave" unicode="&#xc0;" horiz-adv-x="1048" 
d="M557 1487l-352 239l106 152l307 -299zM733 426h-420l-96 -426h-209l344 1358q6 25 26 40t46 15h201q25 0 44 -14.5t25 -40.5l344 -1358h-209zM692 604l-121 537q-2 11 -8 35.5t-10 43t-6 35.5h-45q-4 -22 -14 -66t-11 -48l-123 -537h338z" />
    <glyph glyph-name="Aacute" unicode="&#xc1;" horiz-adv-x="1048" 
d="M463 1487l-62 92l308 299l106 -152zM733 426h-420l-96 -426h-209l344 1358q6 25 26 40t46 15h201q25 0 44 -14.5t25 -40.5l344 -1358h-209zM692 604l-121 537q-2 11 -8 35.5t-10 43t-6 35.5h-45q-4 -22 -14 -66t-11 -48l-123 -537h338z" />
    <glyph glyph-name="Acircumflex" unicode="&#xc2;" horiz-adv-x="1048" 
d="M303 1493l-63 84l215 264h143l215 -264l-68 -84l-213 197h-14zM733 426h-420l-96 -426h-209l344 1358q6 25 26 40t46 15h201q25 0 44 -14.5t25 -40.5l344 -1358h-209zM692 604l-121 537q-2 11 -8 35.5t-10 43t-6 35.5h-45q-4 -22 -14 -66t-11 -48l-123 -537h338z" />
    <glyph glyph-name="Atilde" unicode="&#xc3;" horiz-adv-x="1048" 
d="M340 1563h-88q-13 123 26.5 187t106.5 58q54 -5 133 -53.5t123 -54.5q42 -7 57 15.5t15 82.5h86q15 -118 -24 -181.5t-109 -57.5q-47 4 -94.5 29.5t-89.5 51.5t-74 31q-41 6 -54.5 -19t-13.5 -89zM733 426h-420l-96 -426h-209l344 1358q6 25 26 40t46 15h201
q25 0 44 -14.5t25 -40.5l344 -1358h-209zM692 604l-121 537q-2 11 -8 35.5t-10 43t-6 35.5h-45q-4 -22 -14 -66t-11 -48l-123 -537h338z" />
    <glyph glyph-name="Adieresis" unicode="&#xc4;" horiz-adv-x="1048" 
d="M412 1567h-66q-49 0 -49 55v111q0 55 49 55h66q51 0 51 -55v-111q0 -55 -51 -55zM705 1567h-64q-53 0 -53 55v111q0 25 13.5 40t39.5 15h64q25 0 39 -15t14 -40v-111q0 -55 -53 -55zM733 426h-420l-96 -426h-209l344 1358q6 25 26 40t46 15h201q25 0 44 -14.5t25 -40.5
l344 -1358h-209zM692 604l-121 537q-2 11 -8 35.5t-10 43t-6 35.5h-45q-4 -22 -14 -66t-11 -48l-123 -537h338z" />
    <glyph glyph-name="Aring" unicode="&#xc5;" horiz-adv-x="1048" 
d="M526 1462q-79 0 -132.5 62t-53.5 155t54.5 156t131.5 63q78 0 133.5 -63t55.5 -156t-55 -155t-134 -62zM526 1800q-36 0 -60 -33.5t-24 -87.5q0 -53 24.5 -84.5t59.5 -31.5q38 0 62 31t24 85q0 55 -24.5 88t-61.5 33zM733 426h-420l-96 -426h-209l344 1358q6 25 26 40
t46 15h201q25 0 44 -14.5t25 -40.5l344 -1358h-209zM692 604l-121 537q-2 11 -8 35.5t-10 43t-6 35.5h-45q-4 -22 -14 -66t-11 -48l-123 -537h338z" />
    <glyph glyph-name="AE" unicode="&#xc6;" horiz-adv-x="1519" 
d="M1432 172l10 -160q-160 -16 -504 -16q-91 0 -148 71.5t-57 182.5v192h-350l-186 -442h-211l518 1182q41 93 92 142t128.5 70t207.5 21q323 0 510 -14l-10 -162h-410q-44 0 -71 -37t-27 -100v-273l446 -2v-165l-446 -3v-356q0 -71 21.5 -101t76.5 -30h410zM733 612v518
q0 42 13 83.5t32 62.5h-16q-41 -33 -80 -125l-227 -539h278z" />
    <glyph glyph-name="Ccedilla" unicode="&#xc7;" horiz-adv-x="956" 
d="M549 1438q112 0 181.5 -9t146.5 -32l-21 -158q-136 16 -307 16q-95 0 -147.5 -51t-75.5 -168.5t-23 -328.5q0 -212 23 -329t75.5 -168.5t147.5 -51.5q215 0 330 22l20 -155q-143 -50 -350 -50q-171 0 -270.5 71.5t-145 229.5t-45.5 431t45.5 431t145 229t270.5 71z
M428 -203l21 92q121 13 169.5 -13.5t45.5 -119.5q-3 -133 -90.5 -204t-213.5 -50l33 105q54 -3 92 35t41 98q2 33 -17.5 44.5t-80.5 12.5z" />
    <glyph glyph-name="Egrave" unicode="&#xc8;" horiz-adv-x="940" 
d="M547 1528l-352 239l106 152l307 -299zM852 170l8 -158q-147 -16 -491 -16q-116 0 -182 68t-66 186v913q0 117 66.5 185.5t181.5 68.5q344 0 491 -16l-8 -160h-451q-45 0 -60 -28.5t-15 -102.5v-283h465v-165h-465v-361q0 -74 15 -102.5t60 -28.5h451z" />
    <glyph glyph-name="Eacute" unicode="&#xc9;" horiz-adv-x="940" 
d="M453 1528l-62 92l307 299l107 -152zM852 170l8 -158q-147 -16 -491 -16q-116 0 -182 68t-66 186v913q0 117 66.5 185.5t181.5 68.5q344 0 491 -16l-8 -160h-451q-45 0 -60 -28.5t-15 -102.5v-283h465v-165h-465v-361q0 -74 15 -102.5t60 -28.5h451z" />
    <glyph glyph-name="Ecircumflex" unicode="&#xca;" horiz-adv-x="940" 
d="M293 1532l-64 84l215 264h144l215 -264l-68 -84l-213 197h-14zM852 170l8 -158q-147 -16 -491 -16q-116 0 -182 68t-66 186v913q0 117 66.5 185.5t181.5 68.5q344 0 491 -16l-8 -160h-451q-45 0 -60 -28.5t-15 -102.5v-283h465v-165h-465v-361q0 -74 15 -102.5t60 -28.5
h451z" />
    <glyph glyph-name="Edieresis" unicode="&#xcb;" horiz-adv-x="940" 
d="M401 1608h-65q-49 0 -49 55v111q0 55 49 55h65q52 0 52 -55v-111q0 -55 -52 -55zM694 1608h-63q-53 0 -53 55v111q0 25 13.5 40t39.5 15h63q25 0 39.5 -15t14.5 -40v-111q0 -55 -54 -55zM852 170l8 -158q-147 -16 -491 -16q-116 0 -182 68t-66 186v913q0 117 66.5 185.5
t181.5 68.5q344 0 491 -16l-8 -160h-451q-45 0 -60 -28.5t-15 -102.5v-283h465v-165h-465v-361q0 -74 15 -102.5t60 -28.5h451z" />
    <glyph glyph-name="Igrave" unicode="&#xcc;" horiz-adv-x="462" 
d="M324 1579l-62 -92l-352 239l106 152zM334 0h-203v1413h203v-1413z" />
    <glyph glyph-name="Iacute" unicode="&#xcd;" horiz-adv-x="462" 
d="M520 1726l-352 -239l-62 92l308 299zM334 0h-203v1413h203v-1413z" />
    <glyph glyph-name="Icircumflex" unicode="&#xce;" horiz-adv-x="462" 
d="M520 1577l-67 -84l-213 197h-15l-215 -197l-63 84l215 264h143zM334 0h-203v1413h203v-1413z" />
    <glyph glyph-name="Idieresis" unicode="&#xcf;" horiz-adv-x="462" 
d="M51 1788h66q51 0 51 -55v-111q0 -55 -51 -55h-66q-49 0 -49 55v111q0 55 49 55zM346 1788h64q25 0 39 -15t14 -40v-111q0 -55 -53 -55h-64q-53 0 -53 55v111q0 25 13.5 40t39.5 15zM334 0h-203v1413h203v-1413z" />
    <glyph glyph-name="Eth" unicode="&#xd0;" horiz-adv-x="1114" 
d="M561 1432q175 0 274 -67.5t145 -224t46 -433.5t-46 -433.5t-145 -224t-274 -67.5q-197 0 -422 18v692h-104v113h104v608q237 19 422 19zM561 160q73 0 119.5 27t76.5 92.5t42 167.5t12 260q0 210 -23.5 326.5t-76.5 168t-150 51.5q-43 0 -114.5 -1t-102.5 -1v-446h221
v-113h-221v-528q126 -4 217 -4z" />
    <glyph glyph-name="Ntilde" unicode="&#xd1;" horiz-adv-x="1183" 
d="M451 1808q54 -5 133 -53.5t123 -54.5q42 -7 56.5 15.5t14.5 82.5h86q15 -118 -24 -181.5t-109 -57.5q-47 4 -94.5 29.5t-89.5 51.5t-74 31q-41 6 -54 -19t-13 -89h-89q-13 123 27 187t107 58zM1055 1413v-1333q0 -80 -74 -80h-207q-67 0 -84 63l-282 963q-14 51 -58 197
h-18v-197l2 -1026h-203v1333q0 80 74 80h203q69 0 86 -63l272 -938q7 -26 29.5 -99t33.5 -112h23q-2 1 -1 109.5t1 109.5v993h203z" />
    <glyph glyph-name="Ograve" unicode="&#xd2;" horiz-adv-x="1112" 
d="M645 1579l-61 -92l-353 239l107 152zM557 1440q132 0 218.5 -36t143.5 -123t81 -225t24 -349q0 -280 -46 -438.5t-145.5 -227t-275.5 -68.5q-177 0 -277 68.5t-146 227t-46 438.5t46 438t146 226.5t277 68.5zM557 1257q-99 0 -153 -51.5t-77.5 -168.5t-23.5 -330
q0 -128 8 -218t25 -156t47.5 -104t72 -55.5t101.5 -17.5q98 0 152 51.5t77 169t23 330.5t-23 330t-77 168.5t-152 51.5z" />
    <glyph glyph-name="Oacute" unicode="&#xd3;" horiz-adv-x="1112" 
d="M844 1726l-352 -239l-62 92l307 299zM557 1440q132 0 218.5 -36t143.5 -123t81 -225t24 -349q0 -280 -46 -438.5t-145.5 -227t-275.5 -68.5q-177 0 -277 68.5t-146 227t-46 438.5t46 438t146 226.5t277 68.5zM557 1257q-99 0 -153 -51.5t-77.5 -168.5t-23.5 -330
q0 -128 8 -218t25 -156t47.5 -104t72 -55.5t101.5 -17.5q98 0 152 51.5t77 169t23 330.5t-23 330t-77 168.5t-152 51.5z" />
    <glyph glyph-name="Ocircumflex" unicode="&#xd4;" horiz-adv-x="1112" 
d="M842 1577l-68 -84l-213 197h-14l-215 -197l-64 84l215 264h144zM557 1440q132 0 218.5 -36t143.5 -123t81 -225t24 -349q0 -280 -46 -438.5t-145.5 -227t-275.5 -68.5q-177 0 -277 68.5t-146 227t-46 438.5t46 438t146 226.5t277 68.5zM557 1257q-99 0 -153 -51.5
t-77.5 -168.5t-23.5 -330q0 -128 8 -218t25 -156t47.5 -104t72 -55.5t101.5 -17.5q98 0 152 51.5t77 169t23 330.5t-23 330t-77 168.5t-152 51.5z" />
    <glyph glyph-name="Otilde" unicode="&#xd5;" horiz-adv-x="1112" 
d="M412 1808q54 -5 133 -53.5t123 -54.5q42 -7 56.5 15.5t14.5 82.5h86q15 -118 -24 -181.5t-109 -57.5q-47 4 -94.5 29.5t-89.5 51.5t-74 31q-41 6 -54 -19t-13 -89h-88q-13 123 26.5 187t106.5 58zM557 1440q132 0 218.5 -36t143.5 -123t81 -225t24 -349
q0 -280 -46 -438.5t-145.5 -227t-275.5 -68.5q-177 0 -277 68.5t-146 227t-46 438.5t46 438t146 226.5t277 68.5zM557 1257q-99 0 -153 -51.5t-77.5 -168.5t-23.5 -330q0 -128 8 -218t25 -156t47.5 -104t72 -55.5t101.5 -17.5q98 0 152 51.5t77 169t23 330.5t-23 330
t-77 168.5t-152 51.5z" />
    <glyph glyph-name="Odieresis" unicode="&#xd6;" horiz-adv-x="1112" 
d="M375 1788h65q52 0 52 -55v-111q0 -55 -52 -55h-65q-49 0 -49 55v111q0 55 49 55zM670 1788h63q25 0 39 -15t14 -40v-111q0 -55 -53 -55h-63q-54 0 -54 55v111q0 25 14 40t40 15zM557 1440q132 0 218.5 -36t143.5 -123t81 -225t24 -349q0 -280 -46 -438.5t-145.5 -227
t-275.5 -68.5q-177 0 -277 68.5t-146 227t-46 438.5t46 438t146 226.5t277 68.5zM557 1257q-99 0 -153 -51.5t-77.5 -168.5t-23.5 -330q0 -128 8 -218t25 -156t47.5 -104t72 -55.5t101.5 -17.5q98 0 152 51.5t77 169t23 330.5t-23 330t-77 168.5t-152 51.5z" />
    <glyph glyph-name="multiply" unicode="&#xd7;" horiz-adv-x="800" 
d="M506 594l244 -270l-95 -117l-249 276l-250 -276l-97 117l246 270l-246 270l97 117l250 -276l249 276l95 -117z" />
    <glyph glyph-name="Oslash" unicode="&#xd8;" horiz-adv-x="1110" 
d="M911 1497l-55 -143q90 -76 129 -230t39 -417q0 -280 -46 -438.5t-145.5 -227t-275.5 -68.5q-126 0 -211 33l-47 -127l-98 43l53 139q-88 76 -127 230.5t-39 415.5q0 280 46 438t146 226.5t277 68.5q124 0 209 -33l49 131zM303 707q0 -285 43 -404l348 916q-49 38 -137 38
q-99 0 -153 -51.5t-77.5 -168.5t-23.5 -330zM557 156q98 0 152 51.5t77 169t23 330.5q0 286 -43 405l-348 -917q51 -39 139 -39z" />
    <glyph glyph-name="Ugrave" unicode="&#xd9;" horiz-adv-x="1103" 
d="M645 1579l-61 -92l-353 239l107 152zM983 1413v-868q0 -311 -96 -441.5t-326 -130.5q-241 0 -339.5 130t-98.5 442v868h203v-868q0 -219 49 -304t178 -85q125 0 175 86t50 303v868h205z" />
    <glyph glyph-name="Uacute" unicode="&#xda;" horiz-adv-x="1103" 
d="M844 1726l-352 -239l-62 92l307 299zM983 1413v-868q0 -311 -96 -441.5t-326 -130.5q-241 0 -339.5 130t-98.5 442v868h203v-868q0 -219 49 -304t178 -85q125 0 175 86t50 303v868h205z" />
    <glyph glyph-name="Ucircumflex" unicode="&#xdb;" horiz-adv-x="1103" 
d="M842 1577l-68 -84l-213 197h-14l-215 -197l-64 84l215 264h144zM983 1413v-868q0 -311 -96 -441.5t-326 -130.5q-241 0 -339.5 130t-98.5 442v868h203v-868q0 -219 49 -304t178 -85q125 0 175 86t50 303v868h205z" />
    <glyph glyph-name="Udieresis" unicode="&#xdc;" horiz-adv-x="1103" 
d="M375 1788h65q52 0 52 -55v-111q0 -55 -52 -55h-65q-49 0 -49 55v111q0 55 49 55zM670 1788h63q25 0 39 -15t14 -40v-111q0 -55 -53 -55h-63q-54 0 -54 55v111q0 25 14 40t40 15zM983 1413v-868q0 -311 -96 -441.5t-326 -130.5q-241 0 -339.5 130t-98.5 442v868h203v-868
q0 -219 49 -304t178 -85q125 0 175 86t50 303v868h205z" />
    <glyph glyph-name="Yacute" unicode="&#xdd;" horiz-adv-x="966" 
d="M420 1487l-62 92l308 299l106 -152zM584 487v-487h-201v487l-375 926h215l207 -579q23 -57 47 -162h15q26 116 45 162l208 579h211z" />
    <glyph glyph-name="Thorn" unicode="&#xde;" horiz-adv-x="991" 
d="M539 1167q112 0 183 -20.5t118 -73t65.5 -138t18.5 -220.5q0 -136 -18.5 -222t-63 -138.5t-110.5 -72.5t-169 -20q-93 0 -229 12v-274h-203v1413h203v-248q55 2 205 2zM334 438h201q108 0 147 56t39 221q0 113 -18 171.5t-56.5 81.5t-111.5 23l-201 -2v-551z" />
    <glyph glyph-name="germandbls" unicode="&#xdf;" horiz-adv-x="1140" 
d="M809 625l145 -97q78 -45 108 -102t30 -166q0 -86 -17.5 -141.5t-58 -86.5t-94.5 -43t-138 -12q-117 0 -264 23l15 150q102 -11 206 -11q50 1 76 4.5t47.5 17t29 39t7.5 70.5q0 40 -11.5 65.5t-29.5 40t-61 40.5l-154 98q-129 81 -129 234q0 37 8 68.5t18 52.5t31 45
t34.5 36.5t42.5 36t42 35.5q51 46 70.5 81.5t19.5 92.5q0 34 -5 52.5t-23 37t-58.5 26t-107.5 7.5q-122 0 -163.5 -44.5t-41.5 -180.5v-1094h-197v844h-147v153l147 2v117q0 78 10.5 136t34 98t54 66t77.5 40t97 19.5t119 5.5q222 0 305.5 -60t83.5 -221q0 -83 -24.5 -142
t-104.5 -128q-17 -14 -46 -36.5t-40 -32.5t-25.5 -27.5t-19.5 -36t-5 -43.5q0 -45 22.5 -69t84.5 -60z" />
    <glyph glyph-name="agrave" unicode="&#xe0;" horiz-adv-x="919" 
d="M479 1120l-352 240l106 151l308 -299zM506 1026q159 0 233 -73.5t74 -256.5v-696h-156l-20 145q-51 -68 -129 -115.5t-176 -47.5q-117 0 -188.5 74.5t-71.5 207.5v105q0 120 62.5 184.5t178.5 64.5h301v78q-2 94 -33 128t-120 34q-80 0 -334 -24l-16 145q86 19 204.5 33
t190.5 14zM375 150q48 0 113 31.5t126 94.5v193h-262q-48 -3 -64 -33.5t-16 -93.5v-53q0 -73 24.5 -106t78.5 -33z" />
    <glyph glyph-name="aacute" unicode="&#xe1;" horiz-adv-x="919" 
d="M387 1120l-61 92l307 299l106 -151zM506 1026q159 0 233 -73.5t74 -256.5v-696h-156l-20 145q-51 -68 -129 -115.5t-176 -47.5q-117 0 -188.5 74.5t-71.5 207.5v105q0 120 62.5 184.5t178.5 64.5h301v78q-2 94 -33 128t-120 34q-80 0 -334 -24l-16 145q86 19 204.5 33
t190.5 14zM375 150q48 0 113 31.5t126 94.5v193h-262q-48 -3 -64 -33.5t-16 -93.5v-53q0 -73 24.5 -106t78.5 -33z" />
    <glyph glyph-name="acircumflex" unicode="&#xe2;" horiz-adv-x="919" 
d="M227 1124l-63 84l215 265h143l215 -265l-67 -84l-213 197h-15zM506 1026q159 0 233 -73.5t74 -256.5v-696h-156l-20 145q-51 -68 -129 -115.5t-176 -47.5q-117 0 -188.5 74.5t-71.5 207.5v105q0 120 62.5 184.5t178.5 64.5h301v78q-2 94 -33 128t-120 34q-80 0 -334 -24
l-16 145q86 19 204.5 33t190.5 14zM375 150q48 0 113 31.5t126 94.5v193h-262q-48 -3 -64 -33.5t-16 -93.5v-53q0 -73 24.5 -106t78.5 -33z" />
    <glyph glyph-name="atilde" unicode="&#xe3;" horiz-adv-x="919" 
d="M262 1194h-88q-13 123 26.5 187.5t106.5 58.5q54 -5 133 -54t123 -55q42 -7 57 16t15 83h86q15 -118 -24 -182t-109 -58q-37 3 -75.5 20t-65 35.5t-59 36t-58.5 21.5q-41 6 -54.5 -19.5t-13.5 -89.5zM506 1026q159 0 233 -73.5t74 -256.5v-696h-156l-20 145
q-51 -68 -129 -115.5t-176 -47.5q-117 0 -188.5 74.5t-71.5 207.5v105q0 120 62.5 184.5t178.5 64.5h301v78q-2 94 -33 128t-120 34q-80 0 -334 -24l-16 145q86 19 204.5 33t190.5 14zM375 150q48 0 113 31.5t126 94.5v193h-262q-48 -3 -64 -33.5t-16 -93.5v-53
q0 -73 24.5 -106t78.5 -33z" />
    <glyph glyph-name="adieresis" unicode="&#xe4;" horiz-adv-x="919" 
d="M336 1200h-66q-49 0 -49 55v111q0 55 49 55h66q51 0 51 -55v-111q0 -55 -51 -55zM629 1200h-64q-53 0 -53 55v111q0 25 13.5 40t39.5 15h64q25 0 39 -15t14 -40v-111q0 -55 -53 -55zM506 1026q159 0 233 -73.5t74 -256.5v-696h-156l-20 145q-51 -68 -129 -115.5
t-176 -47.5q-117 0 -188.5 74.5t-71.5 207.5v105q0 120 62.5 184.5t178.5 64.5h301v78q-2 94 -33 128t-120 34q-80 0 -334 -24l-16 145q86 19 204.5 33t190.5 14zM375 150q48 0 113 31.5t126 94.5v193h-262q-48 -3 -64 -33.5t-16 -93.5v-53q0 -73 24.5 -106t78.5 -33z" />
    <glyph glyph-name="aring" unicode="&#xe5;" horiz-adv-x="919" 
d="M449 1094q-79 0 -133 62t-54 155t55 156t132 63t132.5 -63t55.5 -156t-54.5 -155t-133.5 -62zM449 1432q-36 0 -60 -33.5t-24 -87.5t24.5 -85.5t59.5 -31.5q38 0 62 31.5t24 85.5q0 55 -24.5 88t-61.5 33zM506 1026q159 0 233 -73.5t74 -256.5v-696h-156l-20 145
q-51 -68 -129 -115.5t-176 -47.5q-117 0 -188.5 74.5t-71.5 207.5v105q0 120 62.5 184.5t178.5 64.5h301v78q-2 94 -33 128t-120 34q-80 0 -334 -24l-16 145q86 19 204.5 33t190.5 14zM375 150q48 0 113 31.5t126 94.5v193h-262q-48 -3 -64 -33.5t-16 -93.5v-53
q0 -73 24.5 -106t78.5 -33z" />
    <glyph glyph-name="ae" unicode="&#xe6;" horiz-adv-x="1435" 
d="M1364 690q0 -138 -49.5 -212.5t-145.5 -74.5h-348q6 -107 31.5 -164.5t68.5 -77.5t119 -20q87 0 287 25l16 -131q-58 -30 -151.5 -45t-177.5 -15q-143 0 -229.5 49t-127.5 158q-22 -35 -50.5 -66.5t-69 -63.5t-94 -51t-111.5 -19q-117 0 -188.5 74.5t-71.5 207.5v105
q0 120 62.5 184.5t178.5 64.5h301v78q0 93 -31.5 127.5t-121.5 34.5q-80 0 -334 -24l-16 145q86 19 204.5 33t190.5 14q165 0 235 -76q87 76 258 76q192 0 279.5 -84t85.5 -252zM817 557h295q19 0 31 11t17.5 32.5t7 41t1.5 48.5q0 92 -34 130t-127 38q-107 0 -147.5 -62
t-43.5 -239zM375 150q50 0 118.5 36.5t133.5 108.5q-12 77 -15 174h-260q-48 -3 -64 -33.5t-16 -93.5v-53q0 -73 24.5 -106t78.5 -33z" />
    <glyph glyph-name="ccedilla" unicode="&#xe7;" horiz-adv-x="819" 
d="M471 1026q169 0 281 -51l-25 -127q-130 10 -223 10q-125 0 -173 -75.5t-48 -282.5t48 -283t173 -76q129 0 241 23l19 -133q-127 -56 -295 -56q-215 0 -304 118.5t-89 406.5q0 289 89.5 407.5t305.5 118.5zM348 -203l21 92q121 13 169.5 -13.5t45.5 -119.5
q-3 -133 -90 -204t-213 -50l32 105q54 -3 92 35t41 98q2 33 -17.5 44.5t-80.5 12.5z" />
    <glyph glyph-name="egrave" unicode="&#xe8;" horiz-adv-x="899" 
d="M485 1120l-352 240l107 151l307 -299zM504 141q91 0 287 25l18 -131q-61 -30 -154.5 -45t-177.5 -15q-219 0 -310 119.5t-91 407.5q0 197 42 312t124.5 163.5t220.5 48.5q192 0 279 -84t85 -252q2 -137 -50 -212t-152 -75h-340q7 -107 32.5 -164.5t68 -77.5t118.5 -20z
M473 858q-108 0 -147.5 -62t-42.5 -239h286q27 0 41.5 22.5t17.5 47.5t3 63q2 93 -32 130.5t-126 37.5z" />
    <glyph glyph-name="eacute" unicode="&#xe9;" horiz-adv-x="899" 
d="M391 1120l-61 92l307 299l106 -151zM504 141q91 0 287 25l18 -131q-61 -30 -154.5 -45t-177.5 -15q-219 0 -310 119.5t-91 407.5q0 197 42 312t124.5 163.5t220.5 48.5q192 0 279 -84t85 -252q2 -137 -50 -212t-152 -75h-340q7 -107 32.5 -164.5t68 -77.5t118.5 -20z
M473 858q-108 0 -147.5 -62t-42.5 -239h286q27 0 41.5 22.5t17.5 47.5t3 63q2 93 -32 130.5t-126 37.5z" />
    <glyph glyph-name="ecircumflex" unicode="&#xea;" horiz-adv-x="899" 
d="M231 1124l-63 84l215 265h143l215 -265l-67 -84l-213 197h-15zM504 141q91 0 287 25l18 -131q-61 -30 -154.5 -45t-177.5 -15q-219 0 -310 119.5t-91 407.5q0 197 42 312t124.5 163.5t220.5 48.5q192 0 279 -84t85 -252q2 -137 -50 -212t-152 -75h-340
q7 -107 32.5 -164.5t68 -77.5t118.5 -20zM473 858q-108 0 -147.5 -62t-42.5 -239h286q27 0 41.5 22.5t17.5 47.5t3 63q2 93 -32 130.5t-126 37.5z" />
    <glyph glyph-name="edieresis" unicode="&#xeb;" horiz-adv-x="899" 
d="M340 1200h-66q-49 0 -49 55v111q0 55 49 55h66q51 0 51 -55v-111q0 -55 -51 -55zM633 1200h-64q-53 0 -53 55v111q0 25 13.5 40t39.5 15h64q25 0 39 -15t14 -40v-111q0 -55 -53 -55zM504 141q91 0 287 25l18 -131q-61 -30 -154.5 -45t-177.5 -15q-219 0 -310 119.5
t-91 407.5q0 197 42 312t124.5 163.5t220.5 48.5q192 0 279 -84t85 -252q2 -137 -50 -212t-152 -75h-340q7 -107 32.5 -164.5t68 -77.5t118.5 -20zM473 858q-108 0 -147.5 -62t-42.5 -239h286q27 0 41.5 22.5t17.5 47.5t3 63q2 93 -32 130.5t-126 37.5z" />
    <glyph glyph-name="igrave" unicode="&#xec;" horiz-adv-x="442" 
d="M313 1212l-61 -92l-352 240l106 151zM319 0h-196v999h196v-999z" />
    <glyph glyph-name="iacute" unicode="&#xed;" horiz-adv-x="442" 
d="M510 1360l-352 -240l-62 92l307 299zM319 0h-196v999h196v-999z" />
    <glyph glyph-name="icircumflex" unicode="&#xee;" horiz-adv-x="442" 
d="M510 1208l-68 -84l-213 197h-14l-215 -197l-63 84l215 265h143zM319 0h-196v999h196v-999z" />
    <glyph glyph-name="idieresis" unicode="&#xef;" horiz-adv-x="442" 
d="M41 1421h65q52 0 52 -55v-111q0 -55 -52 -55h-65q-49 0 -49 55v111q0 55 49 55zM336 1421h63q25 0 39.5 -15t14.5 -40v-111q0 -55 -54 -55h-63q-53 0 -53 55v111q0 25 13.5 40t39.5 15zM319 0h-196v999h196v-999z" />
    <glyph glyph-name="eth" unicode="&#xf0;" horiz-adv-x="935" 
d="M750 1374l-101 -96q197 -210 197 -698q0 -145 -18.5 -251.5t-61 -189t-119 -124.5t-186.5 -42q-198 0 -290.5 113.5t-92.5 359.5q0 236 79.5 355t262.5 119q115 0 205 -58q-25 192 -103 297l-121 -115l-69 86l110 105q-90 58 -243 51l20 144q203 13 344 -78l119 112z
M463 139q47 0 79.5 19.5t51.5 53t29.5 93.5t14 124t3.5 161q0 49 -4 131q-74 31 -178 31q-95 0 -134.5 -74.5t-39.5 -228.5q0 -170 41 -240t137 -70z" />
    <glyph glyph-name="ntilde" unicode="&#xf1;" horiz-adv-x="970" 
d="M313 1194h-88q-13 123 26.5 187.5t106.5 58.5q54 -5 133 -54t123 -55q42 -7 57 16t15 83h86q15 -118 -24 -182t-109 -58q-37 3 -75.5 20t-65 35.5t-59 36t-58.5 21.5q-41 6 -54.5 -19.5t-13.5 -89.5zM641 1026q107 0 164 -70.5t57 -205.5v-750h-196v692q0 95 -17 130.5
t-63 35.5q-57 0 -116.5 -33.5t-160.5 -111.5l2 -713h-196v999h168l10 -149q182 176 348 176z" />
    <glyph glyph-name="ograve" unicode="&#xf2;" horiz-adv-x="948" 
d="M563 1212l-61 -92l-352 240l106 151zM475 1026q216 0 305.5 -120t89.5 -408q0 -286 -89.5 -405.5t-305.5 -119.5q-217 0 -308 119.5t-91 405.5q0 287 91 407.5t308 120.5zM475 858q-77 0 -117.5 -32.5t-57.5 -108t-17 -219.5q0 -208 40 -283.5t152 -75.5t152.5 75.5
t40.5 283.5q0 211 -40 285.5t-153 74.5z" />
    <glyph glyph-name="oacute" unicode="&#xf3;" horiz-adv-x="948" 
d="M762 1360l-352 -240l-62 92l307 299zM475 1026q216 0 305.5 -120t89.5 -408q0 -286 -89.5 -405.5t-305.5 -119.5q-217 0 -308 119.5t-91 405.5q0 287 91 407.5t308 120.5zM475 858q-77 0 -117.5 -32.5t-57.5 -108t-17 -219.5q0 -208 40 -283.5t152 -75.5t152.5 75.5
t40.5 283.5q0 211 -40 285.5t-153 74.5z" />
    <glyph glyph-name="ocircumflex" unicode="&#xf4;" horiz-adv-x="948" 
d="M760 1208l-68 -84l-213 197h-14l-215 -197l-64 84l215 265h144zM475 1026q216 0 305.5 -120t89.5 -408q0 -286 -89.5 -405.5t-305.5 -119.5q-217 0 -308 119.5t-91 405.5q0 287 91 407.5t308 120.5zM475 858q-77 0 -117.5 -32.5t-57.5 -108t-17 -219.5q0 -208 40 -283.5
t152 -75.5t152.5 75.5t40.5 283.5q0 211 -40 285.5t-153 74.5z" />
    <glyph glyph-name="otilde" unicode="&#xf5;" horiz-adv-x="948" 
d="M330 1440q54 -5 133 -54t123 -55q42 -7 56.5 16t14.5 83h86q15 -118 -24 -182t-109 -58q-37 3 -75.5 20t-65 35.5t-59 36t-58.5 21.5q-41 6 -54 -19t-13 -90h-88q-13 123 26.5 187.5t106.5 58.5zM475 1026q216 0 305.5 -120t89.5 -408q0 -286 -89.5 -405.5t-305.5 -119.5
q-217 0 -308 119.5t-91 405.5q0 287 91 407.5t308 120.5zM475 858q-77 0 -117.5 -32.5t-57.5 -108t-17 -219.5q0 -208 40 -283.5t152 -75.5t152.5 75.5t40.5 283.5q0 211 -40 285.5t-153 74.5z" />
    <glyph glyph-name="odieresis" unicode="&#xf6;" horiz-adv-x="948" 
d="M293 1421h65q52 0 52 -55v-111q0 -55 -52 -55h-65q-49 0 -49 55v111q0 55 49 55zM588 1421h63q25 0 39.5 -15t14.5 -40v-111q0 -55 -54 -55h-63q-53 0 -53 55v111q0 25 13.5 40t39.5 15zM475 1026q216 0 305.5 -120t89.5 -408q0 -286 -89.5 -405.5t-305.5 -119.5
q-217 0 -308 119.5t-91 405.5q0 287 91 407.5t308 120.5zM475 858q-77 0 -117.5 -32.5t-57.5 -108t-17 -219.5q0 -208 40 -283.5t152 -75.5t152.5 75.5t40.5 283.5q0 211 -40 285.5t-153 74.5z" />
    <glyph glyph-name="divide" unicode="&#xf7;" horiz-adv-x="929" 
d="M438 1083h49q40 0 55 -16t15 -57v-95q0 -40 -15 -54.5t-55 -14.5h-49q-39 0 -54 15t-15 54v95q0 41 15.5 57t53.5 16zM838 530h-746v148h746v-148zM438 360h49q40 0 55 -16t15 -57v-92q0 -41 -15 -56.5t-55 -15.5h-49q-39 0 -54 15.5t-15 56.5v92q0 41 15.5 57t53.5 16z
" />
    <glyph glyph-name="oslash" unicode="&#xf8;" horiz-adv-x="948" 
d="M756 1112l-51 -137q88 -52 126.5 -166.5t38.5 -310.5q0 -286 -89.5 -405.5t-305.5 -119.5q-74 0 -147 17l-58 -150l-84 43l56 144q-87 54 -126.5 167t-39.5 304q0 287 91 407.5t308 120.5q82 0 139 -14l56 143zM283 498q0 -196 34 -271l236 621q-38 10 -78 10
q-77 0 -117.5 -32.5t-57.5 -108t-17 -219.5zM475 139q112 0 152.5 75.5t40.5 283.5t-39 282l-240 -626q38 -15 86 -15z" />
    <glyph glyph-name="ugrave" unicode="&#xf9;" 
d="M510 1128l-352 240l106 152l307 -299zM840 999v-999h-158l-14 133q-171 -160 -334 -160q-110 0 -166.5 70t-56.5 207v749h196v-692q-2 -93 18.5 -128.5t77.5 -35.5q50 0 105.5 31t136.5 100v725h195z" />
    <glyph glyph-name="uacute" unicode="&#xfa;" 
d="M418 1128l-62 93l308 299l106 -152zM840 999v-999h-158l-14 133q-171 -160 -334 -160q-110 0 -166.5 70t-56.5 207v749h196v-692q-2 -93 18.5 -128.5t77.5 -35.5q50 0 105.5 31t136.5 100v725h195z" />
    <glyph glyph-name="ucircumflex" unicode="&#xfb;" 
d="M258 1135l-63 84l215 264h143l215 -264l-68 -84l-213 196h-14zM840 999v-999h-158l-14 133q-171 -160 -334 -160q-110 0 -166.5 70t-56.5 207v749h196v-692q-2 -93 18.5 -128.5t77.5 -35.5q50 0 105.5 31t136.5 100v725h195z" />
    <glyph glyph-name="udieresis" unicode="&#xfc;" 
d="M367 1208h-66q-49 0 -49 56v110q0 56 49 56h66q51 0 51 -56v-110q0 -56 -51 -56zM659 1208h-63q-53 0 -53 56v110q0 25 13.5 40.5t39.5 15.5h63q25 0 39.5 -15.5t14.5 -40.5v-110q0 -56 -54 -56zM840 999v-999h-158l-14 133q-171 -160 -334 -160q-110 0 -166.5 70
t-56.5 207v749h196v-692q-2 -93 18.5 -128.5t77.5 -35.5q50 0 105.5 31t136.5 100v725h195z" />
    <glyph glyph-name="yacute" unicode="&#xfd;" horiz-adv-x="894" 
d="M387 1120l-61 92l307 299l106 -151zM874 999l-296 -1046q-21 -72 -53.5 -133.5t-81 -117t-118 -88.5t-153.5 -34l-18 131q95 36 151 97t86 155l12 37h-43q-52 0 -67 51l-273 948h211l177 -727q20 -77 26 -122h23q7 24 18 67.5t14 54.5l175 727h210z" />
    <glyph glyph-name="thorn" unicode="&#xfe;" horiz-adv-x="956" 
d="M588 1024q158 0 225.5 -126t67.5 -406q0 -194 -33 -308.5t-97 -162.5t-169 -48q-149 0 -277 76q6 -88 6 -176v-281h-196v1842h196v-334q0 -98 -6 -197q124 121 283 121zM512 137q92 0 129 77t37 280q0 140 -17 219.5t-50 111t-89 31.5q-89 0 -211 -129v-524
q126 -66 201 -66z" />
    <glyph glyph-name="ydieresis" unicode="&#xff;" horiz-adv-x="894" 
d="M336 1200h-66q-49 0 -49 55v111q0 55 49 55h66q51 0 51 -55v-111q0 -55 -51 -55zM629 1200h-64q-53 0 -53 55v111q0 25 13.5 40t39.5 15h64q25 0 39 -15t14 -40v-111q0 -55 -53 -55zM874 999l-296 -1046q-21 -72 -53.5 -133.5t-81 -117t-118 -88.5t-153.5 -34l-18 131
q95 36 151 97t86 155l12 37h-43q-52 0 -67 51l-273 948h211l177 -727q20 -77 26 -122h23q7 24 18 67.5t14 54.5l175 727h210z" />
    <glyph glyph-name="Amacron" unicode="&#x100;" horiz-adv-x="1048" 
d="M766 1602h-479v145h479v-145zM733 426h-420l-96 -426h-209l344 1358q6 25 26 40t46 15h201q25 0 44 -14.5t25 -40.5l344 -1358h-209zM692 604l-121 537q-2 11 -8 35.5t-10 43t-6 35.5h-45q-4 -22 -14 -66t-11 -48l-123 -537h338z" />
    <glyph glyph-name="amacron" unicode="&#x101;" horiz-adv-x="919" 
d="M688 1235h-479v145h479v-145zM506 1026q159 0 233 -73.5t74 -256.5v-696h-156l-20 145q-51 -68 -129 -115.5t-176 -47.5q-117 0 -188.5 74.5t-71.5 207.5v105q0 120 62.5 184.5t178.5 64.5h301v78q-2 94 -33 128t-120 34q-80 0 -334 -24l-16 145q86 19 204.5 33t190.5 14
zM375 150q48 0 113 31.5t126 94.5v193h-262q-48 -3 -64 -33.5t-16 -93.5v-53q0 -73 24.5 -106t78.5 -33z" />
    <glyph glyph-name="Abreve" unicode="&#x102;" horiz-adv-x="1048" 
d="M524 1524q-128 0 -199.5 76.5t-62.5 199.5l96 15q0 -70 42 -108t124 -38q79 0 121.5 38.5t42.5 107.5l96 -15q9 -122 -62 -199t-198 -77zM733 426h-420l-96 -426h-209l344 1358q6 25 26 40t46 15h201q25 0 44 -14.5t25 -40.5l344 -1358h-209zM692 604l-121 537
q-2 11 -8 35.5t-10 43t-6 35.5h-45q-4 -22 -14 -66t-11 -48l-123 -537h338z" />
    <glyph glyph-name="abreve" unicode="&#x103;" horiz-adv-x="919" 
d="M449 1155q-128 0 -200 77t-63 200l97 14q0 -70 42 -108t124 -38q79 0 121 38t42 108l97 -14q9 -123 -62.5 -200t-197.5 -77zM506 1026q159 0 233 -73.5t74 -256.5v-696h-156l-20 145q-51 -68 -129 -115.5t-176 -47.5q-117 0 -188.5 74.5t-71.5 207.5v105
q0 120 62.5 184.5t178.5 64.5h301v78q-2 94 -33 128t-120 34q-80 0 -334 -24l-16 145q86 19 204.5 33t190.5 14zM375 150q48 0 113 31.5t126 94.5v193h-262q-48 -3 -64 -33.5t-16 -93.5v-53q0 -73 24.5 -106t78.5 -33z" />
    <glyph glyph-name="Aogonek" unicode="&#x104;" horiz-adv-x="1048" 
d="M1044 -313l25 -82q-115 -53 -182 -39.5t-90 68t-2 128.5q37 124 157 238h-123l-96 426h-420l-96 -426h-209l344 1358q6 25 26 40t46 15h201q25 0 44 -14.5t25 -40.5l344 -1358h2q-75 -119 -110 -227q-24 -70 10 -93.5t104 7.5zM692 604l-121 537q-2 11 -8 35.5t-10 43
t-6 35.5h-45q-4 -22 -14 -66t-11 -48l-123 -537h338z" />
    <glyph glyph-name="aogonek" unicode="&#x105;" horiz-adv-x="919" 
d="M817 -313l25 -82q-115 -53 -182 -39.5t-90.5 68t-2.5 128.5q37 122 158 238h-68l-20 145q-51 -68 -129 -115.5t-176 -47.5q-117 0 -188.5 74.5t-71.5 207.5v105q0 120 62.5 184.5t178.5 64.5h301v78q-2 94 -33 128t-120 34q-80 0 -334 -24l-16 145q86 19 204.5 33
t190.5 14q159 0 233 -73.5t74 -256.5v-696q-77 -122 -111 -227q-24 -70 10.5 -93.5t104.5 7.5zM375 150q48 0 113 31.5t126 94.5v193h-262q-48 -3 -64 -33.5t-16 -93.5v-53q0 -73 24.5 -106t78.5 -33z" />
    <glyph glyph-name="Cacute" unicode="&#x106;" horiz-adv-x="956" 
d="M829 1726l-352 -239l-61 92l307 299zM549 1438q112 0 181.5 -9t146.5 -32l-21 -158q-136 16 -307 16q-95 0 -147.5 -51t-75.5 -168.5t-23 -328.5q0 -212 23 -329t75.5 -168.5t147.5 -51.5q215 0 330 22l20 -155q-143 -50 -350 -50q-171 0 -270.5 71.5t-145 229.5
t-45.5 431t45.5 431t145 229t270.5 71z" />
    <glyph glyph-name="cacute" unicode="&#x107;" horiz-adv-x="819" 
d="M729 1360l-352 -240l-62 92l308 299zM471 1026q169 0 281 -51l-25 -127q-130 10 -223 10q-125 0 -173 -75.5t-48 -282.5t48 -283t173 -76q129 0 241 23l19 -133q-127 -56 -295 -56q-215 0 -304 118.5t-89 406.5q0 289 89.5 407.5t305.5 118.5z" />
    <glyph glyph-name="Cdotaccent" unicode="&#x10a;" horiz-adv-x="956" 
d="M508 1778h63q26 0 41 -15t15 -43v-114q0 -60 -56 -60h-63q-25 0 -40 15.5t-15 44.5v114q0 27 15 42.5t40 15.5zM549 1438q112 0 181.5 -9t146.5 -32l-21 -158q-136 16 -307 16q-95 0 -147.5 -51t-75.5 -168.5t-23 -328.5q0 -212 23 -329t75.5 -168.5t147.5 -51.5
q215 0 330 22l20 -155q-143 -50 -350 -50q-171 0 -270.5 71.5t-145 229.5t-45.5 431t45.5 431t145 229t270.5 71z" />
    <glyph glyph-name="cdotaccent" unicode="&#x10b;" horiz-adv-x="819" 
d="M408 1411h63q55 0 55 -57v-115q0 -59 -55 -59h-63q-26 0 -41 15t-15 44v115q0 27 15.5 42t40.5 15zM471 1026q169 0 281 -51l-25 -127q-130 10 -223 10q-125 0 -173 -75.5t-48 -282.5t48 -283t173 -76q129 0 241 23l19 -133q-127 -56 -295 -56q-215 0 -304 118.5
t-89 406.5q0 289 89.5 407.5t305.5 118.5z" />
    <glyph glyph-name="Ccaron" unicode="&#x10c;" horiz-adv-x="956" 
d="M827 1786l-243 -264h-86l-242 264l63 84l216 -172h12l215 172zM549 1438q112 0 181.5 -9t146.5 -32l-21 -158q-136 16 -307 16q-95 0 -147.5 -51t-75.5 -168.5t-23 -328.5q0 -212 23 -329t75.5 -168.5t147.5 -51.5q215 0 330 22l20 -155q-143 -50 -350 -50
q-171 0 -270.5 71.5t-145 229.5t-45.5 431t45.5 431t145 229t270.5 71z" />
    <glyph glyph-name="ccaron" unicode="&#x10d;" horiz-adv-x="819" 
d="M727 1417l-244 -264h-86l-241 264l63 84l215 -172h12l216 172zM471 1026q169 0 281 -51l-25 -127q-130 10 -223 10q-125 0 -173 -75.5t-48 -282.5t48 -283t173 -76q129 0 241 23l19 -133q-127 -56 -295 -56q-215 0 -304 118.5t-89 406.5q0 289 89.5 407.5t305.5 118.5z
" />
    <glyph glyph-name="Dcaron" unicode="&#x10e;" horiz-adv-x="1105" 
d="M522 1522l-241 264l63 84l215 -172h12l215 172l66 -84l-244 -264h-86zM551 1432q175 0 274 -67.5t145 -224t46 -433.5t-46 -433.5t-145 -224t-274 -67.5q-195 0 -420 18v1413q234 19 420 19zM551 160q73 0 119.5 27t76.5 92.5t42 167.5t12 260q0 210 -23.5 326.5
t-76.5 168t-150 51.5q-43 0 -114.5 -1t-102.5 -1v-1087q126 -4 217 -4z" />
    <glyph glyph-name="dcaron" unicode="&#x10f;" horiz-adv-x="958" 
d="M1087 1384l3 -102q-3 -138 -66 -252l-86 21q20 94 20 192q-49 0 -49 49v92q1 30 17.5 43t50.5 13h51q35 0 48 -12.5t11 -43.5zM649 1434h197v-1434h-156l-14 131q-59 -68 -141 -112t-173 -44q-150 0 -217 132t-67 397q0 193 37 309.5t104.5 164.5t173.5 48q146 0 264 -86
q-8 88 -8 193v301zM283 506q0 -142 15.5 -220.5t47 -108.5t86.5 -30q57 0 96 24t121 97v539q-46 17 -71.5 25t-61.5 15t-70 7q-63 0 -96.5 -27.5t-50 -102.5t-16.5 -218z" />
    <glyph glyph-name="Dcroat" unicode="&#x110;" horiz-adv-x="1114" 
d="M561 1432q175 0 274 -67.5t145 -224t46 -433.5t-46 -433.5t-145 -224t-274 -67.5q-197 0 -422 18v692h-104v113h104v608q237 19 422 19zM561 160q73 0 119.5 27t76.5 92.5t42 167.5t12 260q0 210 -23.5 326.5t-76.5 168t-150 51.5q-43 0 -114.5 -1t-102.5 -1v-446h221
v-113h-221v-528q126 -4 217 -4z" />
    <glyph glyph-name="dcroat" unicode="&#x111;" 
d="M950 1167h-104v-1167h-156l-14 131q-59 -68 -141 -112t-173 -44q-150 0 -217 132t-67 397q0 193 37 309.5t104.5 164.5t173.5 48q146 0 264 -86q-8 88 -8 193v34h-235v113h235v154h197v-154h104v-113zM283 506q0 -142 15.5 -220.5t47 -108.5t86.5 -30q57 0 96 24t121 97
v539q-46 17 -71.5 25t-61.5 15t-70 7q-63 0 -96.5 -27.5t-50 -102.5t-16.5 -218z" />
    <glyph glyph-name="Emacron" unicode="&#x112;" horiz-adv-x="940" 
d="M756 1642h-480v146h480v-146zM852 170l8 -158q-147 -16 -491 -16q-116 0 -182 68t-66 186v913q0 117 66.5 185.5t181.5 68.5q344 0 491 -16l-8 -160h-451q-45 0 -60 -28.5t-15 -102.5v-283h465v-165h-465v-361q0 -74 15 -102.5t60 -28.5h451z" />
    <glyph glyph-name="emacron" unicode="&#x113;" horiz-adv-x="899" 
d="M694 1235h-479v145h479v-145zM504 141q91 0 287 25l18 -131q-61 -30 -154.5 -45t-177.5 -15q-219 0 -310 119.5t-91 407.5q0 197 42 312t124.5 163.5t220.5 48.5q192 0 279 -84t85 -252q2 -137 -50 -212t-152 -75h-340q7 -107 32.5 -164.5t68 -77.5t118.5 -20zM473 858
q-108 0 -147.5 -62t-42.5 -239h286q27 0 41.5 22.5t17.5 47.5t3 63q2 93 -32 130.5t-126 37.5z" />
    <glyph glyph-name="Edotaccent" unicode="&#x116;" horiz-adv-x="940" 
d="M547 1587h-64q-25 0 -40 15.5t-15 44.5v114q0 27 15 42.5t40 15.5h64q55 0 55 -58v-114q0 -60 -55 -60zM852 170l8 -158q-147 -16 -491 -16q-116 0 -182 68t-66 186v913q0 117 66.5 185.5t181.5 68.5q344 0 491 -16l-8 -160h-451q-45 0 -60 -28.5t-15 -102.5v-283h465
v-165h-465v-361q0 -74 15 -102.5t60 -28.5h451z" />
    <glyph glyph-name="edotaccent" unicode="&#x117;" horiz-adv-x="899" 
d="M485 1180h-63q-25 0 -40 15t-15 44v115q0 27 15 42t40 15h63q56 0 56 -57v-115q0 -59 -56 -59zM504 141q91 0 287 25l18 -131q-61 -30 -154.5 -45t-177.5 -15q-219 0 -310 119.5t-91 407.5q0 197 42 312t124.5 163.5t220.5 48.5q192 0 279 -84t85 -252q2 -137 -50 -212
t-152 -75h-340q7 -107 32.5 -164.5t68 -77.5t118.5 -20zM473 858q-108 0 -147.5 -62t-42.5 -239h286q27 0 41.5 22.5t17.5 47.5t3 63q2 93 -32 130.5t-126 37.5z" />
    <glyph glyph-name="Eogonek" unicode="&#x118;" horiz-adv-x="940" 
d="M866 -301l25 -82q-115 -53 -182 -39t-90.5 68.5t-2.5 128.5q37 116 150 229q-127 -8 -397 -8q-116 0 -182 68t-66 186v913q0 117 66.5 185.5t181.5 68.5q344 0 491 -16l-8 -160h-451q-45 0 -60 -28.5t-15 -102.5v-283h465v-165h-465v-361q0 -74 15 -102.5t60 -28.5h451
l8 -158h2q-75 -119 -110 -227q-24 -70 10 -93.5t104 7.5z" />
    <glyph glyph-name="eogonek" unicode="&#x119;" horiz-adv-x="899" 
d="M813 -279l25 -81q-115 -53 -182 -39.5t-90.5 68t-2.5 128.5q27 96 119 199q-105 -21 -205 -21q-219 0 -310 119.5t-91 407.5q0 197 42 312t124.5 163.5t220.5 48.5q192 0 279 -84t85 -252q2 -137 -50 -212t-152 -75h-340q7 -107 32.5 -164.5t68 -77.5t118.5 -20
q91 0 287 25l18 -131q-77 -121 -111 -228q-24 -70 10.5 -93.5t104.5 7.5zM473 858q-108 0 -147.5 -62t-42.5 -239h286q27 0 41.5 22.5t17.5 47.5t3 63q2 93 -32 130.5t-126 37.5z" />
    <glyph glyph-name="Ecaron" unicode="&#x11a;" horiz-adv-x="940" 
d="M473 1561l-242 264l64 84l215 -172h12l215 172l66 -84l-244 -264h-86zM852 170l8 -158q-147 -16 -491 -16q-116 0 -182 68t-66 186v913q0 117 66.5 185.5t181.5 68.5q344 0 491 -16l-8 -160h-451q-45 0 -60 -28.5t-15 -102.5v-283h465v-165h-465v-361q0 -74 15 -102.5
t60 -28.5h451z" />
    <glyph glyph-name="ecaron" unicode="&#x11b;" horiz-adv-x="899" 
d="M412 1153l-242 264l63 84l216 -172h12l215 172l65 -84l-243 -264h-86zM504 141q91 0 287 25l18 -131q-61 -30 -154.5 -45t-177.5 -15q-219 0 -310 119.5t-91 407.5q0 197 42 312t124.5 163.5t220.5 48.5q192 0 279 -84t85 -252q2 -137 -50 -212t-152 -75h-340
q7 -107 32.5 -164.5t68 -77.5t118.5 -20zM473 858q-108 0 -147.5 -62t-42.5 -239h286q27 0 41.5 22.5t17.5 47.5t3 63q2 93 -32 130.5t-126 37.5z" />
    <glyph glyph-name="Gbreve" unicode="&#x11e;" horiz-adv-x="1044" 
d="M549 1524q-128 0 -199.5 76.5t-62.5 199.5l96 15q0 -70 42 -108t124 -38q79 0 121.5 38.5t42.5 107.5l96 -15q9 -122 -62 -199t-198 -77zM944 815v-815h-149l-19 135q-54 -68 -139.5 -115t-194.5 -47q-186 0 -269 178t-83 562q0 172 17.5 293t53 206.5t96.5 134.5
t142.5 71t196.5 22q174 0 313 -43l-16 -156q-139 16 -285 16q-60 0 -101 -7.5t-77.5 -29t-58 -59.5t-37.5 -101t-22.5 -151t-6.5 -211q0 -306 42.5 -426t154.5 -120q64 0 122 31t124 87v545h196z" />
    <glyph glyph-name="gbreve" unicode="&#x11f;" horiz-adv-x="935" 
d="M455 1155q-128 0 -199.5 77t-62.5 200l96 14q0 -70 42 -108t124 -38q79 0 121 38t42 108l97 -14q9 -123 -62.5 -200t-197.5 -77zM895 893l-113 -12q29 -68 29 -174q0 -116 -32 -184.5t-111.5 -103t-218.5 -34.5q-83 0 -144 12q-17 -42 -6.5 -92.5t49.5 -58.5l293 -58
q121 -23 171 -90.5t50 -201.5q0 -172 -87.5 -239t-313.5 -67q-227 0 -317.5 65t-90.5 228q0 91 30 141t107 99q-39 36 -50 98t5.5 121t53.5 94q-60 36 -85.5 102t-25.5 169q0 173 80 246t281 73q123 0 200 -27h258zM449 535q103 0 141.5 38.5t38.5 133.5t-38.5 131
t-141.5 36t-143 -36.5t-40 -130.5q0 -95 40 -133.5t143 -38.5zM672 -92q0 75 -24.5 97t-112.5 38l-218 37q-44 -49 -57.5 -84.5t-13.5 -89.5q0 -93 39.5 -120.5t165.5 -27.5q96 0 141.5 12.5t62.5 43t17 94.5z" />
    <glyph glyph-name="Gdotaccent" unicode="&#x120;" horiz-adv-x="1044" 
d="M580 1546h-64q-25 0 -40 15.5t-15 44.5v114q0 27 15 42.5t40 15.5h64q55 0 55 -58v-114q0 -60 -55 -60zM944 815v-815h-149l-19 135q-54 -68 -139.5 -115t-194.5 -47q-186 0 -269 178t-83 562q0 172 17.5 293t53 206.5t96.5 134.5t142.5 71t196.5 22q174 0 313 -43
l-16 -156q-139 16 -285 16q-60 0 -101 -7.5t-77.5 -29t-58 -59.5t-37.5 -101t-22.5 -151t-6.5 -211q0 -306 42.5 -426t154.5 -120q64 0 122 31t124 87v545h196z" />
    <glyph glyph-name="gdotaccent" unicode="&#x121;" horiz-adv-x="935" 
d="M487 1180h-63q-25 0 -40 15t-15 44v115q0 27 15 42t40 15h63q56 0 56 -57v-115q0 -59 -56 -59zM895 893l-113 -12q29 -68 29 -174q0 -116 -32 -184.5t-111.5 -103t-218.5 -34.5q-83 0 -144 12q-17 -42 -6.5 -92.5t49.5 -58.5l293 -58q121 -23 171 -90.5t50 -201.5
q0 -172 -87.5 -239t-313.5 -67q-227 0 -317.5 65t-90.5 228q0 91 30 141t107 99q-39 36 -50 98t5.5 121t53.5 94q-60 36 -85.5 102t-25.5 169q0 173 80 246t281 73q123 0 200 -27h258zM449 535q103 0 141.5 38.5t38.5 133.5t-38.5 131t-141.5 36t-143 -36.5t-40 -130.5
q0 -95 40 -133.5t143 -38.5zM672 -92q0 75 -24.5 97t-112.5 38l-218 37q-44 -49 -57.5 -84.5t-13.5 -89.5q0 -93 39.5 -120.5t165.5 -27.5q96 0 141.5 12.5t62.5 43t17 94.5z" />
    <glyph glyph-name="Gcommaaccent" unicode="&#x122;" horiz-adv-x="1044" 
d="M944 815v-815h-149l-19 135q-54 -68 -139.5 -115t-194.5 -47q-186 0 -269 178t-83 562q0 172 17.5 293t53 206.5t96.5 134.5t142.5 71t196.5 22q174 0 313 -43l-16 -156q-139 16 -285 16q-60 0 -101 -7.5t-77.5 -29t-58 -59.5t-37.5 -101t-22.5 -151t-6.5 -211
q0 -306 42.5 -426t154.5 -120q64 0 122 31t124 87v545h196zM520 -119h51q37 0 49.5 -12.5t12.5 -48.5v-111q-3 -153 -66 -276l-84 22q21 126 21 211q-51 0 -51 53v101q3 35 18 48t49 13z" />
    <glyph glyph-name="gcommaaccent" unicode="&#x123;" horiz-adv-x="935" 
d="M504 1139h-51q-37 0 -49.5 12.5t-12.5 48.5v111q3 153 66 276l84 -22q-21 -126 -21 -211q24 0 37.5 -14.5t13.5 -39.5v-100q-3 -35 -18 -48t-49 -13zM895 893l-113 -12q29 -68 29 -174q0 -116 -32 -184.5t-111.5 -103t-218.5 -34.5q-83 0 -144 12q-17 -42 -6.5 -92.5
t49.5 -58.5l293 -58q121 -23 171 -90.5t50 -201.5q0 -172 -87.5 -239t-313.5 -67q-227 0 -317.5 65t-90.5 228q0 91 30 141t107 99q-39 36 -50 98t5.5 121t53.5 94q-60 36 -85.5 102t-25.5 169q0 173 80 246t281 73q123 0 200 -27h258zM449 535q103 0 141.5 38.5t38.5 133.5
t-38.5 131t-141.5 36t-143 -36.5t-40 -130.5q0 -95 40 -133.5t143 -38.5zM672 -92q0 75 -24.5 97t-112.5 38l-218 37q-44 -49 -57.5 -84.5t-13.5 -89.5q0 -93 39.5 -120.5t165.5 -27.5q96 0 141.5 12.5t62.5 43t17 94.5z" />
    <glyph glyph-name="Hbar" unicode="&#x126;" horiz-adv-x="1128" 
d="M1098 1061h-103v-1061h-204v666h-451v-666h-203v1061h-110v106h110v246h203v-246h451v246h204v-246h103v-106zM791 1061h-451v-219h451v219z" />
    <glyph glyph-name="hbar" unicode="&#x127;" horiz-adv-x="976" 
d="M647 1026q107 0 164 -70.5t57 -205.5v-750h-196v692q0 95 -17 130.5t-63 35.5q-57 0 -117.5 -33t-157.5 -110v-715h-196v1167h-117v113h117v154h196v-154h222v-113h-222v-120q0 -111 -12 -193q183 172 342 172z" />
    <glyph glyph-name="Imacron" unicode="&#x12a;" horiz-adv-x="462" 
d="M471 1602h-479v145h479v-145zM334 0h-203v1413h203v-1413z" />
    <glyph glyph-name="imacron" unicode="&#x12b;" horiz-adv-x="442" 
d="M461 1235h-479v145h479v-145zM319 0h-196v999h196v-999z" />
    <glyph glyph-name="Iogonek" unicode="&#x12e;" horiz-adv-x="462" 
d="M313 -313l25 -82q-115 -53 -182 -39.5t-90.5 68t-2.5 128.5q37 122 158 238h-90v1413h203v-1413h-25q-75 -119 -110 -227q-24 -70 10 -93.5t104 7.5z" />
    <glyph glyph-name="iogonek" unicode="&#x12f;" horiz-adv-x="442" 
d="M254 1180h-64q-25 0 -40 15t-15 44v115q0 27 15 42t40 15h64q55 0 55 -57v-115q0 -59 -55 -59zM305 -313l25 -82q-115 -53 -182 -39.5t-90.5 68t-2.5 128.5q37 122 158 238h-90v999h196v-999h-18q-77 -122 -111 -227q-24 -70 10.5 -93.5t104.5 7.5z" />
    <glyph glyph-name="Idotaccent" unicode="&#x130;" horiz-adv-x="462" 
d="M201 1778h63q55 0 55 -58v-114q0 -60 -55 -60h-63q-25 0 -40.5 15.5t-15.5 44.5v114q0 27 15.5 42.5t40.5 15.5zM334 0h-203v1413h203v-1413z" />
    <glyph glyph-name="dotlessi" unicode="&#x131;" horiz-adv-x="442" 
d="M319 0h-196v999h196v-999z" />
    <glyph glyph-name="IJ" unicode="&#x132;" horiz-adv-x="1040" 
d="M334 0h-203v1413h203v-1413zM915 1413v-1104q0 -160 -60 -243.5t-171 -83.5q-110 0 -180 26l22 148h76q111 0 111 143v1114h202z" />
    <glyph glyph-name="ij" unicode="&#x133;" horiz-adv-x="882" 
d="M172 1425h94q56 0 56 -57v-115q0 -59 -56 -59h-94q-55 0 -55 59v115q0 57 55 57zM616 1425h95q53 0 53 -57v-115q0 -59 -53 -59h-95q-55 0 -55 59v115q0 57 55 57zM317 0h-194v999h194v-999zM760 999v-1009q0 -124 -47.5 -231t-132.5 -173l-109 86q49 73 70.5 147.5
t21.5 170.5v1009h197z" />
    <glyph glyph-name="Kcommaaccent" unicode="&#x136;" horiz-adv-x="1005" 
d="M987 0h-225l-342 653h-101q15 -73 15 -145v-508h-203v1413h203v-434q0 -83 -15 -160h101l328 594h219l-320 -577q-27 -48 -78 -99v-6q66 -60 90 -108zM506 -119h51q36 0 48.5 -12.5t12.5 -48.5v-111q-3 -155 -65 -276l-84 22q20 120 20 211q-51 0 -51 53v101
q3 35 18.5 48t49.5 13z" />
    <glyph glyph-name="kcommaaccent" unicode="&#x137;" horiz-adv-x="876" 
d="M862 0h-223l-258 492h-80q10 -88 10 -156v-336h-196v1434h196v-629q0 -78 -10 -170h80l231 364h224l-228 -362q-18 -33 -65 -74v-4q40 -35 65 -86zM449 -119h51q36 0 48.5 -12.5t12.5 -48.5v-111q-3 -155 -65 -276l-84 22q20 120 20 211q-51 0 -51 53v101q3 35 18.5 48
t49.5 13z" />
    <glyph glyph-name="Lacute" unicode="&#x139;" horiz-adv-x="856" 
d="M520 1726l-352 -239l-62 92l308 299zM330 1413v-1110q0 -74 19 -102.5t75 -28.5h393l10 -158q-159 -18 -434 -18q-147 0 -207.5 73t-60.5 205v1139h205z" />
    <glyph glyph-name="lacute" unicode="&#x13a;" horiz-adv-x="516" 
d="M508 1769l-352 -239l-62 92l307 299zM313 1434l-2 -1145q0 -127 97 -127h67l25 -154q-25 -12 -77 -19t-93 -7q-100 0 -156.5 68t-56.5 194v1190h196z" />
    <glyph glyph-name="Lcommaaccent" unicode="&#x13b;" horiz-adv-x="856" 
d="M330 1413v-1110q0 -74 19 -102.5t75 -28.5h393l10 -158q-159 -18 -434 -18q-147 0 -207.5 73t-60.5 205v1139h205zM461 -121h51q36 0 48.5 -12.5t12.5 -48.5v-111q-3 -155 -65 -276l-84 22q20 120 20 211q-51 0 -51 53v101q3 35 18.5 48t49.5 13z" />
    <glyph glyph-name="lcommaaccent" unicode="&#x13c;" horiz-adv-x="516" 
d="M313 1434l-2 -1145q0 -127 97 -127h67l25 -154q-25 -12 -77 -19t-93 -7q-100 0 -156.5 68t-56.5 194v1190h196zM266 -121h51q37 0 49.5 -12.5t12.5 -48.5v-111q-3 -153 -66 -276l-84 22q21 126 21 211q-51 0 -51 53v101q3 35 18 48t49 13z" />
    <glyph glyph-name="Lcaron" unicode="&#x13d;" horiz-adv-x="856" 
d="M561 1415h51q36 0 49 -12.5t13 -48.5v-111q-3 -153 -66 -276l-84 22q21 126 21 211q-51 0 -51 53v101q3 35 18 48t49 13zM330 1413v-1110q0 -74 19 -102.5t75 -28.5h393l10 -158q-159 -18 -434 -18q-147 0 -207.5 73t-60.5 205v1139h205z" />
    <glyph glyph-name="lcaron" unicode="&#x13e;" horiz-adv-x="516" 
d="M444 1440h52q35 0 48 -12.5t11 -43.5l2 -102q-3 -140 -65 -252l-86 21q20 94 20 192q-49 0 -49 49v92q1 30 17 43t50 13zM313 1434l-2 -1145q0 -127 97 -127h67l25 -154q-25 -12 -77 -19t-93 -7q-100 0 -156.5 68t-56.5 194v1190h196z" />
    <glyph glyph-name="Ldot" unicode="&#x13f;" horiz-adv-x="856" 
d="M330 1413v-1110q0 -74 19 -102.5t75 -28.5h393l10 -158q-159 -18 -434 -18q-147 0 -207.5 73t-60.5 205v1139h205zM696 696h-63q-55 0 -55 58v114q0 60 55 60h63q25 0 40.5 -15.5t15.5 -44.5v-114q0 -27 -15.5 -42.5t-40.5 -15.5z" />
    <glyph glyph-name="ldot" unicode="&#x140;" horiz-adv-x="555" 
d="M313 1434l-2 -1145q0 -127 97 -127h67l25 -154q-25 -12 -77 -19t-93 -7q-100 0 -156.5 68t-56.5 194v1190h196zM524 682h-63q-55 0 -55 59v115q0 57 55 57h63q25 0 39.5 -15t14.5 -42v-115q0 -59 -54 -59z" />
    <glyph glyph-name="Lslash" unicode="&#x141;" horiz-adv-x="868" 
d="M827 172l13 -158q-159 -18 -437 -18q-75 0 -128.5 20.5t-82.5 59t-42 87t-13 111.5v398l-110 -54v125l110 54v616h203v-518l180 88v-125l-180 -88v-467q0 -74 20 -102.5t76 -28.5h391z" />
    <glyph glyph-name="lslash" unicode="&#x142;" horiz-adv-x="565" 
d="M512 162l23 -154q-25 -12 -76.5 -19t-91.5 -7q-100 0 -157.5 68t-57.5 194v424l-125 -62v127l125 62v639h196v-543l168 82v-127l-170 -82v-475q0 -127 98 -127h68z" />
    <glyph glyph-name="Nacute" unicode="&#x143;" horiz-adv-x="1183" 
d="M883 1726l-353 -239l-61 92l307 299zM1055 1413v-1333q0 -80 -74 -80h-207q-67 0 -84 63l-282 963q-14 51 -58 197h-18v-197l2 -1026h-203v1333q0 80 74 80h203q69 0 86 -63l272 -938q7 -26 29.5 -99t33.5 -112h23q-2 1 -1 109.5t1 109.5v993h203z" />
    <glyph glyph-name="nacute" unicode="&#x144;" horiz-adv-x="970" 
d="M436 1120l-61 92l307 299l106 -151zM641 1026q107 0 164 -70.5t57 -205.5v-750h-196v692q0 95 -17 130.5t-63 35.5q-57 0 -116.5 -33.5t-160.5 -111.5l2 -713h-196v999h168l10 -149q182 176 348 176z" />
    <glyph glyph-name="Ncommaaccent" unicode="&#x145;" horiz-adv-x="1183" 
d="M1055 1413v-1333q0 -80 -74 -80h-207q-67 0 -84 63l-282 963q-14 51 -58 197h-18v-197l2 -1026h-203v1333q0 80 74 80h203q69 0 86 -63l272 -938q7 -26 29.5 -99t33.5 -112h23q-2 1 -1 109.5t1 109.5v993h203zM547 -119h51q36 0 48.5 -12.5t12.5 -48.5v-111
q-3 -155 -65 -276l-84 22q20 120 20 211q-51 0 -51 53v101q3 35 18.5 48t49.5 13z" />
    <glyph glyph-name="ncommaaccent" unicode="&#x146;" horiz-adv-x="970" 
d="M641 1026q107 0 164 -70.5t57 -205.5v-750h-196v692q0 95 -17 130.5t-63 35.5q-57 0 -116.5 -33.5t-160.5 -111.5l2 -713h-196v999h168l10 -149q182 176 348 176zM459 -119h51q36 0 48.5 -12.5t12.5 -48.5v-111q0 -149 -65 -276l-84 22q20 120 20 211q-51 0 -51 53v101
q3 35 18.5 48t49.5 13z" />
    <glyph glyph-name="Ncaron" unicode="&#x147;" horiz-adv-x="1183" 
d="M881 1786l-244 -264h-86l-242 264l64 84l215 -172h12l215 172zM1055 1413v-1333q0 -80 -74 -80h-207q-67 0 -84 63l-282 963q-14 51 -58 197h-18v-197l2 -1026h-203v1333q0 80 74 80h203q69 0 86 -63l272 -938q7 -26 29.5 -99t33.5 -112h23q-2 1 -1 109.5t1 109.5v993
h203z" />
    <glyph glyph-name="ncaron" unicode="&#x148;" horiz-adv-x="970" 
d="M459 1153l-242 264l64 84l215 -172h12l215 172l65 -84l-243 -264h-86zM641 1026q107 0 164 -70.5t57 -205.5v-750h-196v692q0 95 -17 130.5t-63 35.5q-57 0 -116.5 -33.5t-160.5 -111.5l2 -713h-196v999h168l10 -149q182 176 348 176z" />
    <glyph glyph-name="Eng" unicode="&#x14a;" horiz-adv-x="1183" 
d="M1055 1413v-1567q0 -135 -64.5 -210.5t-169.5 -75.5q-99 0 -172 28l23 129h76q116 0 116 146v137h-92q-35 0 -53 57l-311 944q-60 198 -62 205h-16q4 -31 5 -62.5t0 -82.5t-1 -62v-999h-203v1333q0 80 74 80h174q66 0 86 -63l297 -897q8 -23 33.5 -101.5t40.5 -118.5h18
q-4 74 -4 224v956h205z" />
    <glyph glyph-name="eng" unicode="&#x14b;" horiz-adv-x="970" 
d="M639 1026q223 0 223 -276v-881q0 -138 -56 -212.5t-161 -74.5q-97 0 -170 29l21 127h67q103 0 103 147v807q0 85 -17.5 118.5t-66.5 33.5q-101 0 -273 -135l2 -709h-196v999h153l17 -161q185 188 354 188z" />
    <glyph glyph-name="Omacron" unicode="&#x14c;" horiz-adv-x="1112" 
d="M795 1602h-480v145h480v-145zM557 1440q132 0 218.5 -36t143.5 -123t81 -225t24 -349q0 -280 -46 -438.5t-145.5 -227t-275.5 -68.5q-177 0 -277 68.5t-146 227t-46 438.5t46 438t146 226.5t277 68.5zM557 1257q-99 0 -153 -51.5t-77.5 -168.5t-23.5 -330q0 -128 8 -218
t25 -156t47.5 -104t72 -55.5t101.5 -17.5q98 0 152 51.5t77 169t23 330.5t-23 330t-77 168.5t-152 51.5z" />
    <glyph glyph-name="omacron" unicode="&#x14d;" horiz-adv-x="948" 
d="M713 1235h-480v145h480v-145zM475 1026q216 0 305.5 -120t89.5 -408q0 -286 -89.5 -405.5t-305.5 -119.5q-217 0 -308 119.5t-91 405.5q0 287 91 407.5t308 120.5zM475 858q-77 0 -117.5 -32.5t-57.5 -108t-17 -219.5q0 -208 40 -283.5t152 -75.5t152.5 75.5t40.5 283.5
q0 211 -40 285.5t-153 74.5z" />
    <glyph glyph-name="Ohungarumlaut" unicode="&#x150;" horiz-adv-x="1112" 
d="M625 1804l-238 -329l-84 65l182 363zM920 1804l-240 -329l-80 65l180 363zM557 1440q132 0 218.5 -36t143.5 -123t81 -225t24 -349q0 -280 -46 -438.5t-145.5 -227t-275.5 -68.5q-177 0 -277 68.5t-146 227t-46 438.5t46 438t146 226.5t277 68.5zM557 1257
q-99 0 -153 -51.5t-77.5 -168.5t-23.5 -330q0 -128 8 -218t25 -156t47.5 -104t72 -55.5t101.5 -17.5q98 0 152 51.5t77 169t23 330.5t-23 330t-77 168.5t-152 51.5z" />
    <glyph glyph-name="ohungarumlaut" unicode="&#x151;" horiz-adv-x="948" 
d="M543 1438l-238 -330l-84 66l182 362zM838 1438l-240 -330l-80 66l180 362zM475 1026q216 0 305.5 -120t89.5 -408q0 -286 -89.5 -405.5t-305.5 -119.5q-217 0 -308 119.5t-91 405.5q0 287 91 407.5t308 120.5zM475 858q-77 0 -117.5 -32.5t-57.5 -108t-17 -219.5
q0 -208 40 -283.5t152 -75.5t152.5 75.5t40.5 283.5q0 211 -40 285.5t-153 74.5z" />
    <glyph glyph-name="OE" unicode="&#x152;" horiz-adv-x="1536" 
d="M1448 170l10 -158q-156 -16 -512 -16q-65 0 -121 43q-63 -36 -122 -51t-146 -15q-177 0 -277 68.5t-146 227t-46 438.5t46 438t146 226.5t277 68.5q88 0 149.5 -14.5t131.5 -49.5q53 41 127 41q343 0 493 -16l-10 -160h-414q-56 0 -76 -28.5t-20 -102.5v-281l448 -2v-165
l-448 -3v-358q0 -74 20 -102.5t76 -28.5h414zM303 707q0 -128 8 -218t25 -156t47.5 -104t72 -55.5t101.5 -17.5q107 0 186 28q-10 48 -10 90v865q0 42 10 90q-89 28 -186 28q-99 0 -153 -50.5t-77.5 -167.5t-23.5 -332z" />
    <glyph glyph-name="oe" unicode="&#x153;" horiz-adv-x="1488" 
d="M1096 141q86 0 282 25l19 -131q-59 -30 -153 -45t-177 -15q-207 0 -297 103q-89 -105 -295 -105q-217 0 -308 119.5t-91 405.5q0 287 91 407.5t308 120.5q202 0 289 -100q87 100 274 100q381 0 381 -313q-1 -170 -60 -234.5t-200 -64.5h-289q5 -85 18.5 -138.5
t42.5 -83.5t67 -40.5t98 -10.5zM475 139q103 0 145 64t48 235l-2 70v59q-4 167 -46 229t-145 62q-77 0 -117.5 -32.5t-57.5 -108t-17 -219.5q0 -208 40 -283.5t152 -75.5zM1044 858q-95 0 -133.5 -62.5t-42.5 -226.5v-10h279q44 0 62 36t14 120q-5 74 -46 108.5t-133 34.5z
" />
    <glyph glyph-name="Racute" unicode="&#x154;" horiz-adv-x="1034" 
d="M477 1487l-61 92l307 299l106 -152zM973 0h-217l-90 440q-17 76 -47.5 109t-81.5 33h-205v-582h-201v1413q153 19 408 19q144 0 227 -36.5t123.5 -126t40.5 -247.5q0 -171 -47.5 -256.5t-161.5 -103.5v-11q48 -17 90 -68.5t61 -136.5zM332 758h205q108 2 149 54.5
t41 197.5q0 144 -40.5 194.5t-149.5 50.5l-205 -2v-495z" />
    <glyph glyph-name="racute" unicode="&#x155;" horiz-adv-x="679" 
d="M322 1120l-62 92l307 299l107 -151zM268 999l19 -149q173 176 329 176h39l-20 -186h-57q-54 0 -109.5 -25t-157.5 -86v-729h-196v999h153z" />
    <glyph glyph-name="Rcommaaccent" unicode="&#x156;" horiz-adv-x="1034" 
d="M973 0h-217l-90 440q-17 76 -47.5 109t-81.5 33h-205v-582h-201v1413q153 19 408 19q144 0 227 -36.5t123.5 -126t40.5 -247.5q0 -171 -47.5 -256.5t-161.5 -103.5v-11q48 -17 90 -68.5t61 -136.5zM332 758h205q108 2 149 54.5t41 197.5q0 144 -40.5 194.5t-149.5 50.5
l-205 -2v-495zM518 -119h51q37 0 49.5 -12.5t12.5 -48.5v-111q-3 -153 -66 -276l-84 22q21 126 21 211q-51 0 -51 53v101q3 35 18 48t49 13z" />
    <glyph glyph-name="rcommaaccent" unicode="&#x157;" horiz-adv-x="679" 
d="M655 1026l-20 -186h-57q-54 0 -109.5 -25t-157.5 -86v-729h-196v999h153l19 -149q173 176 329 176h39zM172 -119h51q37 0 49.5 -12.5t12.5 -48.5v-111q-3 -153 -66 -276l-84 22q21 126 21 211q-25 0 -38.5 14t-13.5 39v101q3 35 18.5 48t49.5 13z" />
    <glyph glyph-name="Rcaron" unicode="&#x158;" horiz-adv-x="1034" 
d="M498 1522l-242 264l63 84l216 -172h12l215 172l65 -84l-243 -264h-86zM973 0h-217l-90 440q-17 76 -47.5 109t-81.5 33h-205v-582h-201v1413q153 19 408 19q144 0 227 -36.5t123.5 -126t40.5 -247.5q0 -171 -47.5 -256.5t-161.5 -103.5v-11q48 -17 90 -68.5t61 -136.5z
M332 758h205q108 2 149 54.5t41 197.5q0 144 -40.5 194.5t-149.5 50.5l-205 -2v-495z" />
    <glyph glyph-name="rcaron" unicode="&#x159;" horiz-adv-x="679" 
d="M342 1153l-242 264l64 84l215 -172h12l215 172l66 -84l-244 -264h-86zM268 999l19 -149q173 176 329 176h39l-20 -186h-57q-54 0 -109.5 -25t-157.5 -86v-729h-196v999h153z" />
    <glyph glyph-name="Sacute" unicode="&#x15a;" horiz-adv-x="937" 
d="M768 1726l-352 -239l-62 92l308 299zM467 1438q205 0 356 -43l-14 -150q-230 10 -332 10q-41 0 -63 -1.5t-47.5 -7.5t-37.5 -18.5t-23 -34.5t-15 -54.5t-4 -79.5q0 -103 28.5 -146.5t96.5 -68.5l219 -78q129 -42 180 -138t51 -263q0 -123 -20.5 -198.5t-72 -118.5
t-123 -58t-187.5 -15q-181 0 -363 41l13 152q289 -10 356 -10q60 1 94 8.5t57.5 31t31 62.5t7.5 107q0 75 -14 118.5t-36.5 62.5t-67.5 36l-228 80q-123 42 -175 138.5t-52 262.5q0 82 9.5 141.5t31.5 101t50.5 67t75 39.5t96.5 19t122 5z" />
    <glyph glyph-name="sacute" unicode="&#x15b;" horiz-adv-x="851" 
d="M735 1360l-352 -240l-61 92l307 299zM399 1026q200 -4 357 -35l-15 -143q-260 10 -309 10h-46.5t-36.5 -1.5t-30 -4.5t-21.5 -8.5t-16.5 -13t-9 -19.5t-6.5 -27t-1.5 -36q0 -73 36 -99q15 -12 73 -33l217 -69q104 -34 148 -94.5t44 -186.5q0 -92 -20 -149t-68 -88
t-111 -41.5t-165 -10.5q-174 0 -330 29l12 148q87 -11 273 -11q131 0 175 24t44 99q0 32 -5.5 52.5t-24.5 34.5t-31 19t-47 17q-3 1 -5.5 2t-5.5 2l-211 70q-105 32 -146.5 96.5t-41.5 188.5q0 166 71 223t254 55z" />
    <glyph glyph-name="Scedilla" unicode="&#x15e;" horiz-adv-x="937" 
d="M467 1438q205 0 356 -43l-14 -150q-230 10 -332 10q-41 0 -63 -1.5t-47.5 -7.5t-37.5 -18.5t-23 -34.5t-15 -54.5t-4 -79.5q0 -103 28.5 -146.5t96.5 -68.5l219 -78q129 -42 180 -138t51 -263q0 -123 -20.5 -198.5t-72 -118.5t-123 -58t-187.5 -15q-181 0 -363 41l13 152
q289 -10 356 -10q60 1 94 8.5t57.5 31t31 62.5t7.5 107q0 75 -14 118.5t-36.5 62.5t-67.5 36l-228 80q-123 42 -175 138.5t-52 262.5q0 82 9.5 141.5t31.5 101t50.5 67t75 39.5t96.5 19t122 5zM369 -203l20 92q121 13 169.5 -13.5t45.5 -119.5q-3 -133 -90 -204t-213 -50
l33 105q54 -3 92 35t41 98q2 33 -17.5 44.5t-80.5 12.5z" />
    <glyph glyph-name="scedilla" unicode="&#x15f;" horiz-adv-x="851" 
d="M399 1026q200 -4 357 -35l-15 -143q-260 10 -309 10h-46.5t-36.5 -1.5t-30 -4.5t-21.5 -8.5t-16.5 -13t-9 -19.5t-6.5 -27t-1.5 -36q0 -73 36 -99q15 -12 73 -33l217 -69q104 -34 148 -94.5t44 -186.5q0 -92 -20 -149t-68 -88t-111 -41.5t-165 -10.5q-174 0 -330 29
l12 148q87 -11 273 -11q131 0 175 24t44 99q0 32 -5.5 52.5t-24.5 34.5t-31 19t-47 17q-3 1 -5.5 2t-5.5 2l-211 70q-105 32 -146.5 96.5t-41.5 188.5q0 166 71 223t254 55zM309 -201l21 92q121 13 169.5 -13.5t45.5 -119.5q-3 -133 -90 -204t-213 -50l32 105q54 -3 92.5 35
t41.5 98q2 32 -18 44t-81 13z" />
    <glyph glyph-name="Scaron" unicode="&#x160;" horiz-adv-x="937" 
d="M768 1786l-244 -264h-86l-241 264l63 84l215 -172h12l215 172zM467 1438q205 0 356 -43l-14 -150q-230 10 -332 10q-41 0 -63 -1.5t-47.5 -7.5t-37.5 -18.5t-23 -34.5t-15 -54.5t-4 -79.5q0 -103 28.5 -146.5t96.5 -68.5l219 -78q129 -42 180 -138t51 -263
q0 -123 -20.5 -198.5t-72 -118.5t-123 -58t-187.5 -15q-181 0 -363 41l13 152q289 -10 356 -10q60 1 94 8.5t57.5 31t31 62.5t7.5 107q0 75 -14 118.5t-36.5 62.5t-67.5 36l-228 80q-123 42 -175 138.5t-52 262.5q0 82 9.5 141.5t31.5 101t50.5 67t75 39.5t96.5 19t122 5z
" />
    <glyph glyph-name="scaron" unicode="&#x161;" horiz-adv-x="851" 
d="M733 1417l-244 -264h-86l-241 264l63 84l215 -172h13l215 172zM399 1026q200 -4 357 -35l-15 -143q-260 10 -309 10h-46.5t-36.5 -1.5t-30 -4.5t-21.5 -8.5t-16.5 -13t-9 -19.5t-6.5 -27t-1.5 -36q0 -73 36 -99q15 -12 73 -33l217 -69q104 -34 148 -94.5t44 -186.5
q0 -92 -20 -149t-68 -88t-111 -41.5t-165 -10.5q-174 0 -330 29l12 148q87 -11 273 -11q131 0 175 24t44 99q0 32 -5.5 52.5t-24.5 34.5t-31 19t-47 17q-3 1 -5.5 2t-5.5 2l-211 70q-105 32 -146.5 96.5t-41.5 188.5q0 166 71 223t254 55z" />
    <glyph glyph-name="Tcedilla" unicode="&#x162;" horiz-adv-x="976" 
d="M940 1413v-182h-348v-1231h-207v1231h-348v182h903zM395 -178l21 92q121 13 169.5 -13.5t45.5 -119.5q-3 -133 -90 -204t-213 -50l32 104q54 -3 92.5 35t41.5 98q2 33 -18 45t-81 13z" />
    <glyph glyph-name="tcedilla" unicode="&#x163;" horiz-adv-x="663" 
d="M381 846v-557q0 -72 20 -99.5t76 -27.5h111l22 -154q-79 -26 -207 -26q-105 0 -161 72.5t-56 207.5v584h-149v143l149 10v293h195v-293h235v-153h-235zM332 -197l20 93q121 13 169.5 -14t45.5 -120q-3 -133 -90 -204t-213 -50l33 105q54 -3 92 35t41 98q2 33 -17.5 44.5
t-80.5 12.5z" />
    <glyph glyph-name="Tcaron" unicode="&#x164;" horiz-adv-x="976" 
d="M449 1522l-242 264l63 84l215 -172h13l215 172l65 -84l-243 -264h-86zM940 1231h-348v-1231h-207v1231h-348v182h903v-182z" />
    <glyph glyph-name="tcaron" unicode="&#x165;" horiz-adv-x="663" 
d="M524 1587h51q37 0 49.5 -12.5t12.5 -48.5v-111q-3 -153 -66 -276l-84 22q21 126 21 211q-51 0 -51 53v101q3 35 18 48t49 13zM381 999h235v-153h-235v-557q0 -72 20 -99.5t76 -27.5h111l22 -154q-79 -26 -207 -26q-105 0 -161 72.5t-56 207.5v584h-149v143l149 10v293
h195v-293z" />
    <glyph glyph-name="Tbar" unicode="&#x166;" horiz-adv-x="976" 
d="M592 1231v-371h219v-112h-219v-748h-207v748h-221v112h221v371h-348v182h903v-182h-348z" />
    <glyph glyph-name="tbar" unicode="&#x167;" horiz-adv-x="663" 
d="M381 846v-187h192v-108h-192v-262q0 -72 20 -99.5t76 -27.5h111l22 -154q-79 -26 -207 -26q-105 0 -161 72.5t-56 207.5v289h-102v108h102v187h-149v143l149 10v293h195v-293h235v-153h-235z" />
    <glyph glyph-name="Umacron" unicode="&#x16a;" horiz-adv-x="1103" 
d="M795 1602h-480v145h480v-145zM983 1413v-868q0 -311 -96 -441.5t-326 -130.5q-241 0 -339.5 130t-98.5 442v868h203v-868q0 -219 49 -304t178 -85q125 0 175 86t50 303v868h205z" />
    <glyph glyph-name="umacron" unicode="&#x16b;" 
d="M721 1243h-479v146h479v-146zM840 999v-999h-158l-14 133q-171 -160 -334 -160q-110 0 -166.5 70t-56.5 207v749h196v-692q-2 -93 18.5 -128.5t77.5 -35.5q50 0 105.5 31t136.5 100v725h195z" />
    <glyph glyph-name="Uring" unicode="&#x16e;" horiz-adv-x="1103" 
d="M555 1898q77 0 132.5 -63t55.5 -156t-54.5 -155t-133.5 -62t-132.5 62t-53.5 155t54.5 156t131.5 63zM555 1800q-36 0 -60 -33.5t-24 -87.5q0 -53 24.5 -84.5t59.5 -31.5q38 0 62 31t24 85q0 55 -24.5 88t-61.5 33zM983 1413v-868q0 -311 -96 -441.5t-326 -130.5
q-241 0 -339.5 130t-98.5 442v868h203v-868q0 -219 49 -304t178 -85q125 0 175 86t50 303v868h205z" />
    <glyph glyph-name="uring" unicode="&#x16f;" 
d="M479 1104q-79 0 -132.5 62t-53.5 155t54.5 156t131.5 63q78 0 133.5 -63t55.5 -156t-55 -155t-134 -62zM479 1442q-36 0 -60 -33.5t-24 -87.5t24.5 -85.5t59.5 -31.5q38 0 62 31.5t24 85.5q0 55 -24.5 88t-61.5 33zM840 999v-999h-158l-14 133q-171 -160 -334 -160
q-110 0 -166.5 70t-56.5 207v749h196v-692q-2 -93 18.5 -128.5t77.5 -35.5q50 0 105.5 31t136.5 100v725h195z" />
    <glyph glyph-name="Uhungarumlaut" unicode="&#x170;" horiz-adv-x="1103" 
d="M625 1804l-238 -329l-84 65l182 363zM920 1804l-240 -329l-80 65l180 363zM983 1413v-868q0 -311 -96 -441.5t-326 -130.5q-241 0 -339.5 130t-98.5 442v868h203v-868q0 -219 49 -304t178 -85q125 0 175 86t50 303v868h205z" />
    <glyph glyph-name="uhungarumlaut" unicode="&#x171;" 
d="M313 1116l-84 66l183 362l139 -98zM526 1182l181 362l139 -98l-240 -330zM645 999h195v-999h-158l-14 133q-171 -160 -334 -160q-110 0 -166.5 70t-56.5 207v749h196v-692q-2 -93 18.5 -128.5t77.5 -35.5q50 0 105.5 31t136.5 100v725z" />
    <glyph glyph-name="Uogonek" unicode="&#x172;" horiz-adv-x="1103" 
d="M983 1413v-868q0 -292 -84.5 -424.5t-282.5 -145.5q-71 -114 -106 -221q-24 -70 10.5 -93.5t104.5 7.5l24 -82q-115 -53 -182 -39t-90 68.5t-2 128.5q35 115 149 229q-218 9 -309.5 140.5t-91.5 431.5v868h203v-868q0 -219 49 -304t178 -85q125 0 175 86t50 303v868h205z
" />
    <glyph glyph-name="uogonek" unicode="&#x173;" 
d="M850 -313l24 -82q-115 -53 -182 -39.5t-90 68t-2 128.5q37 122 158 238h-76l-14 133q-171 -160 -334 -160q-110 0 -166.5 70t-56.5 207v749h196v-692q-2 -93 18.5 -128.5t77.5 -35.5q50 0 105.5 31t136.5 100v725h195v-999h6q-77 -122 -111 -227q-24 -70 10.5 -93.5
t104.5 7.5z" />
    <glyph glyph-name="Wcircumflex" unicode="&#x174;" horiz-adv-x="1587" 
d="M1083 1575l-67 -84l-213 197h-15l-215 -197l-63 84l215 264h143zM1536 1413l-193 -1354q-6 -27 -26 -43t-47 -16h-221q-29 0 -49.5 16.5t-26.5 44.5l-142 1039q-3 27 -11 80.5t-11 79.5h-31q-6 -30 -12.5 -85.5t-9.5 -74.5l-142 -1039q-4 -27 -25.5 -44t-49.5 -17h-222
q-28 0 -48.5 16.5t-26.5 42.5l-193 1354h217l129 -1077q9 -51 21 -180h35q8 90 24 180l137 1010q6 30 26 48.5t50 18.5h211q29 0 49.5 -18.5t26.5 -48.5l137 -1012q18 -106 23 -178h36q17 164 19 176l133 1081h213z" />
    <glyph glyph-name="wcircumflex" unicode="&#x175;" horiz-adv-x="1374" 
d="M977 1208l-68 -84l-213 197h-14l-215 -197l-64 84l215 265h144zM1341 999l-213 -944q-4 -26 -23 -40.5t-46 -14.5h-180q-28 0 -50.5 17.5t-25.5 45.5l-84 658q-13 117 -23 160h-18q-20 -129 -23 -160l-84 -658q-3 -29 -25 -46t-52 -17h-175q-60 0 -73 55l-213 944h200
l136 -720q16 -99 22 -154h21q4 25 13 77t13 77l86 659q3 28 22.5 44.5t47.5 16.5h188q28 0 47.5 -17t22.5 -46l84 -657q3 -18 13.5 -71t13.5 -83h22q5 71 21 154l135 720h200z" />
    <glyph glyph-name="Ycircumflex" unicode="&#x176;" horiz-adv-x="966" 
d="M260 1493l-63 84l215 264h143l215 -264l-68 -84l-213 197h-14zM584 487v-487h-201v487l-375 926h215l207 -579q23 -57 47 -162h15q26 116 45 162l208 579h211z" />
    <glyph glyph-name="ycircumflex" unicode="&#x177;" horiz-adv-x="894" 
d="M229 1124l-63 84l215 265h143l215 -265l-67 -84l-213 197h-15zM874 999l-296 -1046q-21 -72 -53.5 -133.5t-81 -117t-118 -88.5t-153.5 -34l-18 131q95 36 151 97t86 155l12 37h-43q-52 0 -67 51l-273 948h211l177 -727q20 -77 26 -122h23q7 24 18 67.5t14 54.5l175 727
h210z" />
    <glyph glyph-name="Ydieresis" unicode="&#x178;" horiz-adv-x="966" 
d="M369 1567h-66q-49 0 -49 55v111q0 55 49 55h66q51 0 51 -55v-111q0 -55 -51 -55zM662 1567h-64q-53 0 -53 55v111q0 25 13.5 40t39.5 15h64q25 0 39 -15t14 -40v-111q0 -55 -53 -55zM584 487v-487h-201v487l-375 926h215l207 -579q23 -57 47 -162h15q26 116 45 162
l208 579h211z" />
    <glyph glyph-name="Zacute" unicode="&#x179;" horiz-adv-x="944" 
d="M414 1487l-62 92l307 299l107 -152zM868 174v-174h-790v174l565 1065h-555v174h770v-174l-565 -1065h575z" />
    <glyph glyph-name="zacute" unicode="&#x17a;" horiz-adv-x="856" 
d="M369 1120l-62 92l307 299l107 -151zM778 162v-162h-700v162l479 676h-473v161h688v-161l-477 -676h483z" />
    <glyph glyph-name="Zdotaccent" unicode="&#x17b;" horiz-adv-x="944" 
d="M508 1546h-64q-25 0 -40 15.5t-15 44.5v114q0 27 15 42.5t40 15.5h64q55 0 55 -58v-114q0 -60 -55 -60zM868 174v-174h-790v174l565 1065h-555v174h770v-174l-565 -1065h575z" />
    <glyph glyph-name="zdotaccent" unicode="&#x17c;" horiz-adv-x="856" 
d="M463 1180h-64q-25 0 -40 15t-15 44v115q0 27 15 42t40 15h64q55 0 55 -57v-115q0 -59 -55 -59zM778 162v-162h-700v162l479 676h-473v161h688v-161l-477 -676h483z" />
    <glyph glyph-name="Zcaron" unicode="&#x17d;" horiz-adv-x="944" 
d="M434 1522l-241 264l63 84l215 -172h12l215 172l66 -84l-244 -264h-86zM868 174v-174h-790v174l565 1065h-555v174h770v-174l-565 -1065h575z" />
    <glyph glyph-name="zcaron" unicode="&#x17e;" horiz-adv-x="856" 
d="M389 1153l-242 264l64 84l215 -172h12l215 172l66 -84l-244 -264h-86zM778 162v-162h-700v162l479 676h-473v161h688v-161l-477 -676h483z" />
    <glyph glyph-name="florin" unicode="&#x192;" horiz-adv-x="765" 
d="M721 1270h-121q-63 0 -89 -31t-32 -123l-22 -295h217l-15 -155h-213l-51 -676q-11 -145 -73 -220t-191 -75q-121 0 -192 14l26 150h109q63 0 92 34.5t33 118.5l49 654h-166l8 147l170 8l25 318q9 142 78 219.5t194 77.5q119 0 191 -17z" />
    <glyph glyph-name="Scommaaccent" unicode="&#x218;" horiz-adv-x="937" 
d="M467 1438q205 0 356 -43l-14 -150q-230 10 -332 10q-41 0 -63 -1.5t-47.5 -7.5t-37.5 -18.5t-23 -34.5t-15 -54.5t-4 -79.5q0 -103 28.5 -146.5t96.5 -68.5l219 -78q129 -42 180 -138t51 -263q0 -123 -20.5 -198.5t-72 -118.5t-123 -58t-187.5 -15q-181 0 -363 41l13 152
q289 -10 356 -10q60 1 94 8.5t57.5 31t31 62.5t7.5 107q0 75 -14 118.5t-36.5 62.5t-67.5 36l-228 80q-123 42 -175 138.5t-52 262.5q0 82 9.5 141.5t31.5 101t50.5 67t75 39.5t96.5 19t122 5zM442 -119h52q36 0 48.5 -12.5t12.5 -48.5v-111q-3 -153 -66 -276l-83 22
q20 120 20 211q-51 0 -51 53v101q3 35 18 48t49 13z" />
    <glyph glyph-name="scommaaccent" unicode="&#x219;" horiz-adv-x="851" 
d="M399 1026q200 -4 357 -35l-15 -143q-260 10 -309 10h-46.5t-36.5 -1.5t-30 -4.5t-21.5 -8.5t-16.5 -13t-9 -19.5t-6.5 -27t-1.5 -36q0 -73 36 -99q15 -12 73 -33l217 -69q104 -34 148 -94.5t44 -186.5q0 -92 -20 -149t-68 -88t-111 -41.5t-165 -10.5q-174 0 -330 29
l12 148q87 -11 273 -11q131 0 175 24t44 99q0 32 -5.5 52.5t-24.5 34.5t-31 19t-47 17q-3 1 -5.5 2t-5.5 2l-211 70q-105 32 -146.5 96.5t-41.5 188.5q0 166 71 223t254 55zM406 -119h51q36 0 48.5 -12.5t12.5 -48.5v-111q-3 -155 -65 -276l-84 22q20 120 20 211
q-51 0 -51 53v101q3 35 18.5 48t49.5 13z" />
    <glyph glyph-name="uni021A" unicode="&#x21a;" horiz-adv-x="976" 
d="M940 1231h-348v-1231h-207v1231h-348v182h903v-182zM442 -119h52q36 0 48.5 -12.5t12.5 -48.5v-111q-3 -153 -66 -276l-83 22q20 120 20 211q-51 0 -51 53v101q3 35 18 48t49 13z" />
    <glyph glyph-name="uni021B" unicode="&#x21b;" horiz-adv-x="663" 
d="M381 846v-557q0 -72 20 -99.5t76 -27.5h111l22 -154q-79 -26 -207 -26q-105 0 -161 72.5t-56 207.5v584h-149v143l149 10v293h195v-293h235v-153h-235zM354 -119h52q36 0 48.5 -12.5t12.5 -48.5v-111q-3 -153 -66 -276l-84 22q21 126 21 211q-51 0 -51 53v101q3 35 18 48
t49 13z" />
    <glyph glyph-name="circumflex" unicode="&#x2c6;" horiz-adv-x="720" 
d="M649 1198l-67 -84l-213 197h-15l-215 -197l-63 84l215 264h143z" />
    <glyph glyph-name="caron" unicode="&#x2c7;" horiz-adv-x="718" 
d="M647 1407l-244 -264h-86l-241 264l63 84l215 -172h13l215 172z" />
    <glyph glyph-name="breve" unicode="&#x2d8;" horiz-adv-x="634" 
d="M483 1430l97 -15q9 -122 -62.5 -199t-198.5 -77q-128 0 -199.5 76.5t-62.5 199.5l97 15q0 -70 41.5 -108t123.5 -38q79 0 121.5 38.5t42.5 107.5z" />
    <glyph glyph-name="dotaccent" unicode="&#x2d9;" horiz-adv-x="378" 
d="M158 1407h63q55 0 55 -57v-115q0 -59 -55 -59h-63q-26 0 -41 15t-15 44v115q0 27 15.5 42t40.5 15z" />
    <glyph glyph-name="ring" unicode="&#x2da;" horiz-adv-x="505" 
d="M252 1522q77 0 132.5 -63t55.5 -156t-54.5 -155.5t-133.5 -62.5q-78 0 -132 62.5t-54 155.5t54.5 156t131.5 63zM252 1423q-36 0 -60 -33t-24 -87t24.5 -85.5t59.5 -31.5q38 0 62 31.5t24 85.5q0 55 -24.5 87.5t-61.5 32.5z" />
    <glyph glyph-name="ogonek" unicode="&#x2db;" horiz-adv-x="417" 
d="M236 4l83 -4q-75 -119 -110 -227q-24 -70 10.5 -93.5t104.5 7.5l24 -82q-115 -53 -182 -39.5t-90 68t-2 128.5q36 121 162 242z" />
    <glyph glyph-name="tilde" unicode="&#x2dc;" horiz-adv-x="710" 
d="M215 1438q54 -5 133 -54t123 -55q42 -7 57 15.5t15 82.5h86q15 -118 -24 -181.5t-109 -57.5q-47 4 -94.5 29.5t-89.5 51.5t-74 31q-41 6 -54.5 -19t-13.5 -89h-88q-13 123 26.5 187.5t106.5 58.5z" />
    <glyph glyph-name="hungarumlaut" unicode="&#x2dd;" horiz-adv-x="794" 
d="M406 1413l-238 -330l-84 66l182 362zM700 1413l-239 -330l-80 66l180 362z" />
    <glyph glyph-name="Delta" unicode="&#x394;" horiz-adv-x="1046" 
d="M1016 82v-82h-985v82l393 1331h201zM524 1214q-30 -138 -37 -165l-221 -883h510l-215 885q-8 24 -14 51t-12.5 61t-10.5 51z" />
    <glyph glyph-name="Omega" unicode="&#x3a9;" horiz-adv-x="1189" 
d="M596 1440q253 0 365 -165t112 -509q0 -220 -51 -353t-174 -249q57 16 113 16h145l2 -180h-436l-2 172q107 104 149.5 232.5t42.5 336.5q0 279 -61 399t-207 120q-149 0 -208.5 -119.5t-59.5 -403.5q0 -148 21 -249.5t60.5 -171t110.5 -144.5v-172h-434v180h145
q56 0 111 -16q-122 116 -173.5 252.5t-51.5 351.5q0 342 112.5 507t368.5 165z" />
    <glyph glyph-name="mu" unicode="&#x3bc;" horiz-adv-x="999" 
d="M864 999v-999h-153l-19 139q-134 -166 -297 -166q-50 0 -104 21q10 -65 10 -119v-283h-172v1407h199v-692q-2 -75 25 -110t87 -35q52 0 103 24.5t125 81.5v731h196z" />
    <glyph glyph-name="pi" unicode="&#x3c0;" horiz-adv-x="1069" 
d="M1024 840h-139v-840h-197v840h-309v-840h-197v840h-139v159h983z" />
    <glyph glyph-name="uni0401" unicode="&#x401;" horiz-adv-x="937" 
d="M397 1608h-65q-49 0 -49 53v113q0 53 49 53h65q52 0 52 -53v-113q0 -53 -52 -53zM690 1608h-63q-54 0 -54 53v113q0 53 54 53h63q25 0 39 -14t14 -39v-113q0 -53 -53 -53zM850 170l10 -158q-150 -16 -493 -16q-116 0 -181 68t-65 186v913q0 118 65.5 186t180.5 68
q343 0 493 -16l-10 -160h-449q-46 0 -61.5 -28.5t-15.5 -102.5v-283h464v-165h-464v-361q0 -74 15.5 -102.5t61.5 -28.5h449z" />
    <glyph glyph-name="uni0402" unicode="&#x402;" horiz-adv-x="1249" 
d="M899 909q48 0 87 -10t78.5 -38t66 -74.5t43 -125t16.5 -182.5q0 -271 -110.5 -385t-317.5 -104l-19 149q91 8 141.5 36t77.5 95.5t27 188.5q0 119 -17.5 179t-48.5 77.5t-92 17.5q-104 0 -239 -94v-639h-207v1231h-348v182h903v-182h-348v-424q143 102 307 102z" />
    <glyph glyph-name="uni0403" unicode="&#x403;" horiz-adv-x="862" 
d="M776 1726l-352 -239l-62 92l308 299zM356 1417q333 0 478 -18l-11 -158h-397q-57 0 -76.5 -30t-19.5 -111v-1100h-205v1139q0 123 65 200.5t166 77.5z" />
    <glyph glyph-name="uni0404" unicode="&#x404;" horiz-adv-x="960" 
d="M879 180l18 -155q-137 -50 -338 -50q-175 0 -277 71.5t-148 229.5t-46 431q0 205 24.5 342t81.5 225t145 126t220 38q110 0 181 -9t149 -32l-19 -160q-139 16 -313 16q-133 0 -191 -94t-67 -330l471 -2v-159h-473q2 -194 27.5 -303t80.5 -157t152 -48q207 0 322 20z" />
    <glyph glyph-name="uni0405" unicode="&#x405;" horiz-adv-x="937" 
d="M467 1438q205 0 356 -43l-14 -150q-230 10 -332 10q-41 0 -63 -1.5t-47.5 -7.5t-37.5 -18.5t-23 -34.5t-15 -54.5t-4 -79.5q0 -103 28.5 -146.5t96.5 -68.5l219 -78q129 -42 180 -138t51 -263q0 -123 -20.5 -198.5t-72 -118.5t-123 -58t-187.5 -15q-181 0 -363 41l13 152
q289 -10 356 -10q60 1 94 8.5t57.5 31t31 62.5t7.5 107q0 75 -14 118.5t-36.5 62.5t-67.5 36l-228 80q-123 42 -175 138.5t-52 262.5q0 82 9.5 141.5t31.5 101t50.5 67t75 39.5t96.5 19t122 5z" />
    <glyph glyph-name="uni0406" unicode="&#x406;" horiz-adv-x="462" 
d="M334 0h-203v1413h203v-1413z" />
    <glyph glyph-name="uni0407" unicode="&#x407;" horiz-adv-x="460" 
d="M53 1786h66q49 0 49 -55v-111q0 -55 -49 -55h-66q-51 0 -51 55v111q0 55 51 55zM346 1786h64q25 0 39 -14.5t14 -40.5v-111q0 -55 -53 -55h-64q-51 0 -51 55v111q0 55 51 55zM334 0h-203v1413h203v-1413z" />
    <glyph glyph-name="uni0408" unicode="&#x408;" horiz-adv-x="577" 
d="M453 1413v-1104q0 -160 -60.5 -243.5t-171.5 -83.5q-110 0 -180 26l22 148h76q111 0 111 143v1114h203z" />
    <glyph glyph-name="uni0409" unicode="&#x409;" horiz-adv-x="1611" 
d="M954 854h197q221 0 308 -96t87 -340q0 -129 -19.5 -212.5t-65 -133t-110.5 -69t-165 -19.5q-280 0 -432 16l2 14v1233h-181q-48 0 -67.5 -34t-24.5 -105q-23 -306 -31 -404t-26.5 -219t-48.5 -211q-45 -143 -121.5 -206.5t-208.5 -71.5l-14 141q48 21 86 64t71 129
q45 123 61.5 274.5t32.5 468.5q0 14 0.5 22t1 20.5t1.5 23.5q12 274 270 274h397v-559zM954 162h197q120 0 155 50t35 208q0 78 -6.5 123.5t-26.5 80t-57.5 47.5t-99.5 13h-197v-522z" />
    <glyph glyph-name="uni040A" unicode="&#x40a;" horiz-adv-x="1615" 
d="M961 852h196q222 0 308.5 -95.5t86.5 -342.5q0 -169 -37.5 -262.5t-113 -130.5t-209.5 -37q-282 0 -432 16v684h-426v-684h-203v1413h203v-561h426v561h201v-561zM961 162h196q121 0 156 49.5t35 206.5q0 78 -6.5 124t-27 80.5t-58 48t-99.5 13.5h-196v-522z" />
    <glyph glyph-name="uni040B" unicode="&#x40b;" horiz-adv-x="1271" 
d="M920 909q140 0 206 -78.5t66 -244.5v-586h-201v545q0 104 -30.5 144t-112.5 40q-67 0 -124.5 -21t-131.5 -73v-635h-207v1231h-348v182h903v-182h-348v-428q81 52 169.5 79t158.5 27z" />
    <glyph glyph-name="uni040C" unicode="&#x40c;" horiz-adv-x="1019" 
d="M461 1487l-62 92l308 299l106 -152zM586 741v-8q33 -4 61 -15.5t50.5 -26.5t44 -42t37.5 -52.5t34 -68t30.5 -78.5t30.5 -94.5t31.5 -104.5t35 -120t38.5 -131h-215q-14 51 -40 145q-28 107 -42 155.5t-38 121.5t-42.5 104t-46 66.5t-59.5 48t-72 12.5h-105
q15 -73 15 -145v-508h-203v1413h203v-434q0 -64 -15 -160h99q49 0 88.5 25.5t67.5 67.5t54.5 111.5t47.5 142t48 174.5q12 48 19 73h205q-13 -46 -34.5 -123.5t-32.5 -116t-30 -100t-32 -93t-33 -75t-39 -66t-44 -46.5t-54 -36t-63 -16z" />
    <glyph glyph-name="uni040D" unicode="&#x40d;" horiz-adv-x="1159" 
d="M692 1579l-61 -92l-352 239l106 152zM1028 0h-197v954q0 103 11 187h-11q-24 -89 -59 -178l-393 -963h-248v1413h195v-946q0 -73 -11 -188h11q31 106 61 176l391 958h250v-1413z" />
    <glyph glyph-name="uni040E" unicode="&#x40e;" 
d="M477 1524q-128 0 -199.5 76.5t-62.5 199.5l96 15q0 -70 42 -108t124 -38q79 0 121.5 38.5t42.5 107.5l96 -15q9 -122 -62 -199t-198 -77zM946 1413l-295 -1063q-26 -82 -49.5 -139t-56.5 -110t-76.5 -81.5t-97.5 -33.5q-46 -4 -117 5.5t-117 24.5l23 150q48 -4 74 -6
t56 0t43.5 4t31 14.5t24.5 22.5t18.5 36t18 47.5t18.5 65.5l21 60h-62q-55 0 -84 23.5t-47 78.5l-252 901h209l207 -801q7 -30 27 -30h55l219 831h209z" />
    <glyph glyph-name="uni040F" unicode="&#x40f;" horiz-adv-x="1126" 
d="M995 1413v-1413h-348l-8 -309h-139l-11 309h-358v1413h203v-1247h457v1247h204z" />
    <glyph glyph-name="uni0410" unicode="&#x410;" horiz-adv-x="1048" 
d="M733 426h-420l-96 -426h-209l344 1358q6 25 26 40t46 15h201q25 0 44 -14.5t25 -40.5l344 -1358h-209zM692 604l-121 537q-2 11 -8 35.5t-10 43t-6 35.5h-45q-4 -22 -14 -66t-11 -48l-123 -537h338z" />
    <glyph glyph-name="uni0411" unicode="&#x411;" horiz-adv-x="997" 
d="M336 813h196q220 0 307 -92t87 -328q0 -80 -9.5 -141.5t-26 -105t-46 -73.5t-61.5 -48t-81 -27.5t-95.5 -12.5t-114.5 -3q-186 0 -357 18h-4v1413q215 14 369 14q152 0 360 -14l-16 -172h-508v-428zM334 158h198q120 0 154.5 46t34.5 199q0 75 -6.5 118.5t-26.5 75.5
t-57 44t-99 12h-198v-495z" />
    <glyph glyph-name="uni0412" unicode="&#x412;" horiz-adv-x="1034" 
d="M723 737v-8q124 -13 175.5 -106.5t51.5 -270.5q0 -110 -20 -180.5t-66 -112.5t-113 -58.5t-171 -16.5q-295 0 -449 16v1413q147 17 397 17q111 0 182.5 -16.5t119.5 -59t68 -113t20 -180.5q0 -154 -46.5 -233t-148.5 -91zM520 1255h-190v-444h207q106 0 146 46t40 179
q0 130 -43.5 174.5t-159.5 44.5zM330 160l215 -2q119 0 161 46t42 183q0 106 -20 162.5t-63.5 79.5t-125.5 24h-209v-493z" />
    <glyph glyph-name="uni0413" unicode="&#x413;" horiz-adv-x="862" 
d="M356 1417q333 0 478 -18l-11 -158h-397q-57 0 -76.5 -30t-19.5 -111v-1100h-205v1139q0 123 65 200.5t166 77.5z" />
    <glyph glyph-name="uni0414" unicode="&#x414;" horiz-adv-x="1181" 
d="M1135 166v-475h-140l-16 309h-786l-19 -309h-139v475h104q135 366 164 973q8 128 78.5 201t191.5 73h416v-1247h146zM788 166v1081h-178q-59 0 -81.5 -30t-28.5 -109q-20 -316 -57 -535t-111 -407h456z" />
    <glyph glyph-name="uni0415" unicode="&#x415;" horiz-adv-x="937" 
d="M850 170l10 -158q-150 -16 -493 -16q-116 0 -181 68t-65 186v913q0 118 65.5 186t180.5 68q343 0 493 -16l-10 -160h-449q-46 0 -61.5 -28.5t-15.5 -102.5v-283h464v-165h-464v-361q0 -74 15.5 -102.5t61.5 -28.5h449z" />
    <glyph glyph-name="uni0416" unicode="&#x416;" horiz-adv-x="1529" 
d="M1096 741v-8q49 -6 87.5 -24t71 -61.5t54.5 -80t50 -120t44 -138t49 -175.5q24 -87 37 -134h-213q-15 51 -41 144q-30 107 -44.5 156t-38.5 121.5t-41.5 103.5t-42.5 67t-53 48.5t-63 12.5h-100q12 -74 12 -145v-508h-194v508q0 59 14 145h-106q-34 0 -62.5 -15
t-50.5 -41t-43.5 -69.5t-39.5 -94t-39.5 -123t-43.5 -147.5q-9 -34 -15 -53.5t-15 -51t-17 -58.5h-211q12 42 33 121q33 123 49.5 179.5t44.5 141.5t50 122.5t55 81.5t71.5 62.5t87.5 24.5v8q-45 6 -81 25.5t-64.5 54.5t-51 77t-43.5 103.5t-39 122.5t-41 144
q-26 94 -40 145h204q10 -34 28 -99q16 -59 24.5 -87t23 -77.5t23 -74t22.5 -63t25 -58t25.5 -46t28.5 -39.5t30.5 -26.5t35 -18.5t38.5 -5h104q-14 71 -14 160v434h194v-434q0 -83 -12 -160h94q34 0 62.5 15t52 46t43.5 70t39.5 96t37 115t39.5 136q21 76 33 116h207
q-13 -44 -31.5 -112t-29 -105.5t-27.5 -93t-28.5 -87t-28.5 -73.5t-32.5 -65.5t-36.5 -51t-43 -42.5t-49 -26.5t-58 -15.5z" />
    <glyph glyph-name="uni0417" unicode="&#x417;" horiz-adv-x="915" 
d="M416 1430q110 0 179.5 -16.5t116.5 -59t66 -113t19 -180.5q0 -154 -45.5 -233t-145.5 -91v-8q121 -13 173 -107t52 -270q0 -109 -20 -180t-66 -113t-111.5 -58.5t-166.5 -16.5q-245 0 -414 49l17 147q212 -28 358 -28q113 0 154 46.5t41 188.5q0 154 -43 209t-160 55
h-205v162h205q100 0 137 46.5t37 176.5q0 135 -40.5 181.5t-150.5 46.5q-42 0 -88.5 -3t-73 -5.5t-77.5 -8.5t-66 -8l-14 158q146 33 332 33z" />
    <glyph glyph-name="uni0418" unicode="&#x418;" horiz-adv-x="1159" 
d="M1028 0h-197v954q0 103 11 187h-11q-24 -89 -59 -178l-393 -963h-248v1413h195v-946q0 -73 -11 -188h11q31 106 61 176l391 958h250v-1413z" />
    <glyph glyph-name="uni0419" unicode="&#x419;" horiz-adv-x="1159" 
d="M717 1810h145q9 -124 -62 -205t-198 -81t-199 81t-63 205h145q0 -178 117 -178q115 0 115 178zM1028 0h-197v954q0 103 11 187h-11q-24 -89 -59 -178l-393 -963h-248v1413h195v-946q0 -73 -11 -188h11q31 106 61 176l391 958h250v-1413z" />
    <glyph glyph-name="uni041A" unicode="&#x41a;" horiz-adv-x="1019" 
d="M586 741v-8q33 -4 61 -15.5t50.5 -26.5t44 -42t37.5 -52.5t34 -68t30.5 -78.5t30.5 -94.5t31.5 -104.5t35 -120t38.5 -131h-215q-14 51 -40 145q-28 107 -42 155.5t-38 121.5t-42.5 104t-46 66.5t-59.5 48t-72 12.5h-105q15 -73 15 -145v-508h-203v1413h203v-434
q0 -64 -15 -160h99q49 0 88.5 25.5t67.5 67.5t54.5 111.5t47.5 142t48 174.5q12 48 19 73h205q-13 -46 -34.5 -123.5t-32.5 -116t-30 -100t-32 -93t-33 -75t-39 -66t-44 -46.5t-54 -36t-63 -16z" />
    <glyph glyph-name="uni041B" unicode="&#x41b;" horiz-adv-x="1095" 
d="M965 1413v-1413h-203v1247h-178q-52 0 -78 -34t-31 -105q-16 -231 -21.5 -308.5t-18.5 -203t-28.5 -191.5t-39.5 -133q-97 -282 -338 -276l-15 160q64 20 103.5 59.5t60.5 112.5q36 131 55.5 294t40.5 523q7 132 73 200t183 68h435z" />
    <glyph glyph-name="uni041C" unicode="&#x41c;" horiz-adv-x="1470" 
d="M1024 1413h213q79 0 82 -84l47 -1329h-205l-37 1243h-30l-189 -1005q-18 -70 -86 -70h-166q-69 0 -90 70l-190 1005h-27l-35 -1243h-205l44 1329q3 84 79 84h222q62 0 81 -70l156 -827q3 -14 16 -83.5t19 -106.5h22l35 192l156 825q19 70 88 70z" />
    <glyph glyph-name="uni041D" unicode="&#x41d;" horiz-adv-x="1118" 
d="M989 1413v-1413h-205v666h-450v-666h-203v1413h203v-571h450v571h205z" />
    <glyph glyph-name="uni041E" unicode="&#x41e;" horiz-adv-x="1112" 
d="M557 1440q132 0 218.5 -36t143.5 -123t81 -225t24 -349q0 -280 -46 -438.5t-145.5 -227t-275.5 -68.5q-177 0 -277 68.5t-146 227t-46 438.5t46 438t146 226.5t277 68.5zM557 1257q-99 0 -153 -51.5t-77.5 -168.5t-23.5 -330q0 -128 8 -218t25 -156t47.5 -104t72 -55.5
t101.5 -17.5q98 0 152 51.5t77 169t23 330.5t-23 330t-77 168.5t-152 51.5z" />
    <glyph glyph-name="uni041F" unicode="&#x41f;" horiz-adv-x="1118" 
d="M987 1413v-1413h-203v1247h-450v-1247h-203v1413h856z" />
    <glyph glyph-name="uni0420" unicode="&#x420;" horiz-adv-x="987" 
d="M539 1432q112 0 183.5 -20.5t118 -73t65 -136.5t18.5 -217t-18.5 -218.5t-63 -137t-110.5 -72t-169 -20.5q-108 0 -227 14v-551h-205v1413q153 19 408 19zM336 713h199q107 0 146.5 56.5t39.5 215.5t-39.5 214.5t-146.5 55.5l-199 -2v-540z" />
    <glyph glyph-name="uni0421" unicode="&#x421;" 
d="M549 1438q112 0 181.5 -9t146.5 -32l-21 -158q-136 16 -307 16q-95 0 -147.5 -51t-75.5 -168.5t-23 -328.5q0 -212 23 -329t75.5 -168.5t147.5 -51.5q215 0 330 22l20 -155q-143 -50 -350 -50q-171 0 -270.5 71.5t-145 229.5t-45.5 431t45.5 431t145 229t270.5 71z" />
    <glyph glyph-name="uni0422" unicode="&#x422;" horiz-adv-x="976" 
d="M940 1231h-348v-1231h-207v1231h-348v182h903v-182z" />
    <glyph glyph-name="uni0423" unicode="&#x423;" 
d="M946 1413l-295 -1063q-26 -82 -49.5 -139t-56.5 -110t-76.5 -81.5t-97.5 -33.5q-46 -4 -117 5.5t-117 24.5l23 150q48 -4 74 -6t56 0t43.5 4t31 14.5t24.5 22.5t18.5 36t18 47.5t18.5 65.5l21 60h-62q-55 0 -84 23.5t-47 78.5l-252 901h209l207 -801q7 -30 27 -30h55
l219 831h209z" />
    <glyph glyph-name="uni0424" unicode="&#x424;" horiz-adv-x="1359" 
d="M1298 721q0 -312 -116 -445.5t-400 -150.5v-197h-204v197q-286 17 -401.5 150t-115.5 446q0 320 115 454.5t402 151.5v197h202l2 -197q285 -17 400.5 -152t115.5 -454zM270 721q0 -229 66.5 -320t249.5 -104v860q-183 -13 -249.5 -107t-66.5 -329zM774 1155v-856
q182 13 249 104t67 318q0 234 -67 327.5t-249 106.5z" />
    <glyph glyph-name="uni0425" unicode="&#x425;" horiz-adv-x="1024" 
d="M522 655h-20l-256 -655h-219l299 731l-277 682h215l238 -602h22l234 602h219l-281 -682l301 -731h-219z" />
    <glyph glyph-name="uni0426" unicode="&#x426;" horiz-adv-x="1163" 
d="M1116 166v-475h-139l-19 309h-827v1413h203v-1247h434v1247h205v-1247h143z" />
    <glyph glyph-name="uni0427" unicode="&#x427;" horiz-adv-x="1056" 
d="M926 1413v-1413h-203v629q-88 -61 -187.5 -91t-175.5 -30q-138 0 -204 79.5t-66 243.5v582h203v-541q-2 -96 31 -139t110 -43q73 0 137.5 21.5t151.5 74.5v627h203z" />
    <glyph glyph-name="uni0428" unicode="&#x428;" horiz-adv-x="1566" 
d="M1436 1413v-1413h-1305v1413h199v-1247h354v1247h199v-1247h356v1247h197z" />
    <glyph glyph-name="uni0429" unicode="&#x429;" horiz-adv-x="1615" 
d="M1569 166v-475h-137l-19 309h-1282v1413h199v-1247h350v1247h199v-1247h352v1247h196v-1247h142z" />
    <glyph glyph-name="uni042A" unicode="&#x42a;" horiz-adv-x="1241" 
d="M592 854h190q221 0 307.5 -96.5t86.5 -343.5q0 -169 -37 -262.5t-112.5 -130.5t-209.5 -37q-280 0 -430 16v1231h-350v182h555v-559zM592 162h190q62 0 98 10.5t57 41.5t27.5 76.5t6.5 127.5q0 78 -6.5 124t-26.5 80.5t-57 48t-99 13.5h-190v-522z" />
    <glyph glyph-name="uni042B" unicode="&#x42b;" horiz-adv-x="1437" 
d="M334 854h196q221 0 307.5 -96.5t86.5 -343.5q0 -169 -37 -262.5t-112.5 -130.5t-209.5 -37q-280 0 -430 16h-4v1413h203v-559zM1307 1413v-1413h-201v1413h201zM334 162h196q62 0 98 10.5t57 41.5t27.5 76.5t6.5 127.5q0 78 -6.5 124t-26.5 80.5t-57 48t-99 13.5h-196
v-522z" />
    <glyph glyph-name="uni042C" unicode="&#x42c;" horiz-adv-x="989" 
d="M334 854h196q221 0 307.5 -96.5t86.5 -343.5q0 -169 -37 -262.5t-112.5 -130.5t-209.5 -37q-280 0 -430 16h-4v1413h203v-559zM334 162h196q62 0 98 10.5t57 41.5t27.5 76.5t6.5 127.5q0 78 -6.5 124t-26.5 80.5t-57 48t-99 13.5h-196v-522z" />
    <glyph glyph-name="uni042D" unicode="&#x42d;" horiz-adv-x="960" 
d="M401 1438q132 0 220.5 -38t145 -126t81 -225t24.5 -342q0 -273 -46 -431t-147.5 -229.5t-277.5 -71.5q-201 0 -338 50l19 155q118 -20 321 -20q97 0 152 48t81 157t28 303h-471v159l469 2q-9 236 -67.5 330t-191.5 94q-174 0 -313 -16l-18 160q78 23 148.5 32t180.5 9z
" />
    <glyph glyph-name="uni042E" unicode="&#x42e;" horiz-adv-x="1564" 
d="M1004 1440q178 0 278.5 -68.5t146.5 -226.5t46 -438t-46 -438.5t-146.5 -227t-278.5 -68.5q-160 0 -253 63.5t-138.5 210t-49.5 404.5h-229v-651h-203v1413h203v-596h231q7 235 54.5 371t139 194t245.5 58zM1004 156q99 0 153.5 51.5t78.5 169t24 330.5t-24 330
t-78.5 168.5t-153.5 51.5q-94 0 -145 -51.5t-73 -168.5t-22 -330t22 -330t73 -169t145 -52z" />
    <glyph glyph-name="uni042F" unicode="&#x42f;" horiz-adv-x="1026" 
d="M483 1432q258 0 414 -19v-1413h-205v567l-198 -2q-54 0 -85.5 -33t-46.5 -108l-86 -424h-215l95 432q20 87 67 136t103 65l-2 10q-118 20 -169 111.5t-51 263.5q0 224 87.5 319t291.5 95zM692 741v512l-205 2q-105 0 -142.5 -51t-37.5 -198q0 -139 41.5 -202t143.5 -63
h200z" />
    <glyph glyph-name="uni0430" unicode="&#x430;" horiz-adv-x="927" 
d="M508 1026q160 0 233.5 -73.5t73.5 -256.5v-696h-153l-21 145q-51 -68 -129.5 -115.5t-177.5 -47.5q-116 0 -187 74.5t-71 207.5v105q0 120 62.5 184.5t178.5 64.5h301v78q-2 93 -33.5 127.5t-119.5 34.5q-80 0 -334 -24l-16 145q86 19 204 33t189 14zM379 150
q49 0 113 32t126 97v190h-262q-48 -3 -64 -33.5t-16 -93.5v-53q0 -74 24 -106.5t79 -32.5z" />
    <glyph glyph-name="uni0431" unicode="&#x431;" horiz-adv-x="964" 
d="M799 1511l47 -155q-63 -46 -122 -67t-133.5 -34.5t-125.5 -31.5q-161 -58 -199 -310q-13 -87 -18 -147h4q16 35 30.5 59.5t40 53.5t55.5 47t75.5 30.5t101.5 12.5q178 0 253 -112t75 -368q0 -126 -18.5 -216t-61.5 -159.5t-120 -104t-189 -34.5q-61 0 -111 10.5
t-87.5 27.5t-67 46t-50 59.5t-34.5 76t-22.5 86.5t-12.5 99t-5.5 106t-1.5 116q0 138 6.5 236t24.5 191t50.5 155.5t86 112t129.5 77.5q52 19 130.5 34t143.5 36.5t126 66.5zM500 801q-115 0 -153 -73t-38 -241q0 -197 40 -271.5t143 -74.5t143.5 74.5t40.5 269.5
q0 184 -37 250t-139 66z" />
    <glyph glyph-name="uni0432" unicode="&#x432;" horiz-adv-x="921" 
d="M641 516v-6q109 -10 157 -75t48 -187q0 -151 -75 -206.5t-255 -55.5q-256 0 -399 12v999q138 13 354 13q194 0 269 -55.5t75 -211.5q0 -108 -41 -163t-133 -64zM461 856l-160 2v-272h176q88 0 122 28.5t34 110.5q0 76 -38 103.5t-134 27.5zM301 141h182q94 0 129 30
t35 118t-37 121.5t-133 33.5h-176v-303z" />
    <glyph glyph-name="uni0433" unicode="&#x433;" horiz-adv-x="788" 
d="M307 1006q311 0 453 -19l-8 -139h-359q-44 0 -64 -27.5t-20 -89.5v-731h-196v784q0 222 194 222z" />
    <glyph glyph-name="uni0434" unicode="&#x434;" horiz-adv-x="1005" 
d="M956 160v-455h-125l-16 295h-627l-14 -295h-129v455h90q97 261 117 602q12 237 233 237h351v-839h120zM647 160v686h-129q-84 0 -90 -117q-24 -343 -121 -569h340z" />
    <glyph glyph-name="uni0435" unicode="&#x435;" horiz-adv-x="905" 
d="M831 690q0 -137 -51 -212t-151 -75h-342q7 -107 32.5 -164.5t68 -77.5t118.5 -20q89 0 289 25l16 -131q-60 -30 -153 -45t-177 -15q-219 0 -310 119.5t-91 407.5q0 197 42 312t124.5 163.5t220.5 48.5q192 0 279 -84t85 -252zM285 557h286q21 0 34.5 11.5t19.5 33t8 41
t2 47.5q0 93 -33.5 130.5t-126.5 37.5q-107 0 -147 -62t-43 -239z" />
    <glyph glyph-name="uni0436" unicode="&#x436;" horiz-adv-x="1335" 
d="M975 524v-6q121 -17 172.5 -110.5t132.5 -379.5q5 -18 8 -28h-198q-9 28 -25 80q-68 221 -106 292t-111 72h-103q11 -60 11 -94v-350h-172v350q0 39 10 94h-109q-69 -1 -106.5 -71t-103.5 -280q-18 -60 -29 -93h-199q74 260 102 330q48 118 117 158q39 22 94 30v6
q-107 14 -153 93t-109 294q-17 57 -26 88h194q69 -224 89 -273q44 -105 100 -125q18 -7 39 -7h98q-8 49 -8 115v290h172v-290q0 -64 -11 -115h95q31 0 56 14.5t44 41t37 71t34.5 96t38.5 124.5q11 38 17 58h197q-9 -30 -25 -84q-14 -49 -21 -72t-19.5 -62t-19.5 -57
t-19.5 -47.5t-22 -43.5t-23.5 -34t-27.5 -29.5t-31 -20.5t-37.5 -16.5t-43 -8.5z" />
    <glyph glyph-name="uni0437" unicode="&#x437;" horiz-adv-x="843" 
d="M354 1018q86 0 144.5 -7t106 -24t74 -47.5t40.5 -76.5t14 -113q0 -111 -39.5 -167.5t-128.5 -66.5v-6q105 -10 153 -73t48 -189q0 -82 -20.5 -134t-67.5 -81t-110.5 -40t-161.5 -11q-215 0 -351 32l15 150q195 -17 321 -17q102 0 137 28t35 114t-36.5 116.5t-135.5 30.5
h-215v146h213q88 0 120 29.5t32 113.5q0 75 -37.5 100t-143.5 25q-146 0 -258 -16l-14 149q108 35 266 35z" />
    <glyph glyph-name="uni0438" unicode="&#x438;" horiz-adv-x="974" 
d="M858 0h-176v598q0 38 8 156h-6q-11 -35 -59 -140l-318 -614h-190v999h176v-600q0 -85 -8 -153h6q11 36 57 137l320 616h190v-999z" />
    <glyph glyph-name="uni0439" unicode="&#x439;" horiz-adv-x="974" 
d="M604 1442h146q9 -124 -62.5 -205.5t-198.5 -81.5t-199 81.5t-63 205.5h146q0 -178 116 -178q115 0 115 178zM858 0h-176v598q0 38 8 156h-6q-11 -35 -59 -140l-318 -614h-190v999h176v-600q0 -85 -8 -153h6q11 36 57 137l320 616h190v-999z" />
    <glyph glyph-name="uni043A" unicode="&#x43a;" horiz-adv-x="907" 
d="M541 522v-4q44 -6 76.5 -19.5t59.5 -41.5t46 -59t40.5 -88.5t38 -111.5t43.5 -146q3 -11 5 -17.5t5 -16.5t5 -18h-205q-73 247 -98 306q-41 98 -96 123q-28 12 -64 13h-94q10 -55 10 -92v-350h-196v999h196v-288q0 -66 -10 -115h82q88 0 138 79q37 59 88 241q5 15 13 46
q7 24 11 37h199q-70 -234 -86 -277q-46 -121 -109 -164q-41 -27 -98 -36z" />
    <glyph glyph-name="uni043B" unicode="&#x43b;" horiz-adv-x="952" 
d="M836 999v-999h-199v846h-133q-47 0 -66.5 -26.5t-25.5 -96.5q-39 -381 -70 -506q-55 -233 -293 -227l-20 151q67 18 95 46t42 85q30 117 61 486q11 122 66.5 181.5t167.5 59.5h375z" />
    <glyph glyph-name="uni043C" unicode="&#x43c;" horiz-adv-x="1261" 
d="M864 999h197q69 0 69 -73l31 -926h-180l-27 850h-26l-156 -674q-15 -63 -74 -63h-139q-58 0 -76 63l-153 674h-27l-24 -850h-179l29 926q0 73 72 73h192q30 0 47.5 -15.5t28.5 -47.5l123 -551q20 -94 26 -143h23q11 73 27 143l123 551q18 63 73 63z" />
    <glyph glyph-name="uni043D" unicode="&#x43d;" horiz-adv-x="978" 
d="M860 999v-999h-192v455h-357v-455h-194v999h194v-393h357v393h192z" />
    <glyph glyph-name="uni043E" unicode="&#x43e;" 
d="M479 1026q215 0 305 -120.5t90 -407.5q0 -286 -90 -405.5t-305 -119.5q-217 0 -308 119.5t-91 405.5q0 287 91 407.5t308 120.5zM479 858q-77 0 -117.5 -32.5t-57.5 -108t-17 -219.5q0 -208 40 -283.5t152 -75.5q111 0 152 76.5t41 282.5q0 143 -18 219.5t-59 108.5
t-116 32z" />
    <glyph glyph-name="uni043F" unicode="&#x43f;" horiz-adv-x="962" 
d="M844 999v-999h-193v840h-342v-840h-192v999h727z" />
    <glyph glyph-name="uni0440" unicode="&#x440;" horiz-adv-x="985" 
d="M631 1026q141 0 206.5 -134.5t65.5 -397.5q0 -281 -77.5 -400t-237.5 -119t-281 97q9 -100 6 -199v-281h-196v1407h164l14 -149q56 77 151.5 126.5t184.5 49.5zM535 147q63 0 97 28t51 103.5t17 217.5q0 199 -31.5 278.5t-107.5 79.5q-57 0 -113.5 -34.5t-134.5 -110.5
v-508q7 -2 26.5 -9t26.5 -9.5t23.5 -8t24.5 -8t23 -6.5t24.5 -5.5t23 -4t25.5 -3t25 -0.5z" />
    <glyph glyph-name="uni0441" unicode="&#x441;" horiz-adv-x="825" 
d="M475 1026q169 0 281 -51l-25 -127q-133 10 -223 10q-126 0 -173.5 -75.5t-47.5 -282.5t47.5 -283t173.5 -76q130 0 242 23l16 -133q-124 -56 -293 -56q-215 0 -304 118.5t-89 406.5q0 289 89.5 407.5t305.5 118.5z" />
    <glyph glyph-name="uni0442" unicode="&#x442;" horiz-adv-x="831" 
d="M791 838h-277v-838h-195v838h-278v161h750v-161z" />
    <glyph glyph-name="uni0443" unicode="&#x443;" horiz-adv-x="903" 
d="M879 999l-299 -1046q-61 -209 -158 -295q-67 -58 -157 -73t-189 5l18 140q134 -11 193 41q62 54 108 192l13 37h-43q-53 0 -68 51l-272 948h211l174 -727q20 -65 28 -122h21q10 28 35 122l174 727h211z" />
    <glyph glyph-name="uni0444" unicode="&#x444;" horiz-adv-x="1208" 
d="M1130 498q0 -262 -100.5 -383t-335.5 -138v-385h-180v388q-235 17 -335.5 137t-100.5 381q0 264 100.5 385.5t335.5 138.5v412h180v-410q235 -17 335.5 -139t100.5 -387zM266 498q0 -184 56 -262t200 -91v709q-144 -13 -200 -92t-56 -264zM688 854v-709
q143 13 198.5 91.5t55.5 261.5q0 186 -55 264.5t-199 91.5z" />
    <glyph glyph-name="uni0445" unicode="&#x445;" horiz-adv-x="905" 
d="M459 442h-10l-207 -442h-211l252 516l-234 483h209l188 -403h15l184 403h211l-233 -483l251 -516h-208z" />
    <glyph glyph-name="uni0446" unicode="&#x446;" horiz-adv-x="1009" 
d="M961 160v-455h-130l-18 295h-696v999h194v-839h332v839h195l-2 -839h125z" />
    <glyph glyph-name="uni0447" unicode="&#x447;" horiz-adv-x="905" 
d="M786 999l-2 -999h-194v406q-72 -30 -154.5 -48t-132.5 -18q-221 0 -221 221v438h192v-370q0 -70 21 -98.5t74 -28.5q112 0 221 61v436h196z" />
    <glyph glyph-name="uni0448" unicode="&#x448;" horiz-adv-x="1355" 
d="M1237 999v-999h-1120v999h190v-839h283v839h174v-839h285v839h188z" />
    <glyph glyph-name="uni0449" unicode="&#x449;" horiz-adv-x="1411" 
d="M1362 160v-455h-129l-19 295h-1097v999h190v-839h283v839h174v-839h285v839h188v-839h125z" />
    <glyph glyph-name="uni044A" unicode="&#x44a;" horiz-adv-x="1054" 
d="M502 623h147q196 0 270 -69t74 -251q0 -181 -71.5 -248t-241.5 -67q-236 0 -369 12v844h-272v155h463v-376zM502 143h147q84 0 114 33.5t30 134.5q0 95 -29.5 130.5t-114.5 35.5h-147v-334z" />
    <glyph glyph-name="uni044B" unicode="&#x44b;" horiz-adv-x="1236" 
d="M307 623h152q199 0 273.5 -69t74.5 -251q0 -181 -71.5 -248t-241.5 -67q-238 0 -371 12h-6v999h190v-376zM1120 999v-999h-198v999h198zM307 143h152q87 0 118 33.5t31 134.5q0 95 -30.5 130.5t-118.5 35.5h-152v-334z" />
    <glyph glyph-name="uni044C" unicode="&#x44c;" horiz-adv-x="864" 
d="M307 623h152q197 0 270.5 -69t73.5 -251q0 -93 -17 -154t-56.5 -96.5t-95 -50t-140.5 -14.5q-238 0 -371 12h-6v999h190v-376zM307 143h152q84 0 114.5 33.5t30.5 134.5q0 95 -30 130.5t-115 35.5h-152v-334z" />
    <glyph glyph-name="uni044D" unicode="&#x44d;" horiz-adv-x="860" 
d="M365 1014q230 0 322.5 -115.5t92.5 -404.5q0 -284 -93 -400.5t-322 -116.5q-183 0 -302 43l17 140q137 -13 285 -13q118 0 164.5 60t52.5 227h-406v150h404q-9 151 -56 207.5t-159 56.5q-162 0 -277 -10l-16 137q65 23 127 31t166 8z" />
    <glyph glyph-name="uni044E" unicode="&#x44e;" horiz-adv-x="1343" 
d="M866 1026q113 0 185.5 -24t121 -85t69 -160.5t20.5 -254.5q0 -152 -20.5 -250.5t-69 -159.5t-121.5 -85.5t-185 -24.5q-136 0 -214.5 41.5t-118.5 140t-46 274.5h-174v-438h-196v999h196v-407h176q7 168 48 262.5t118.5 133t210.5 38.5zM862 147q112 0 154.5 76t42.5 279
q0 205 -42 280.5t-155 75.5q-110 0 -149 -75t-39 -281q0 -204 39.5 -279.5t148.5 -75.5z" />
    <glyph glyph-name="uni044F" unicode="&#x44f;" horiz-adv-x="915" 
d="M426 1012q248 0 375 -15v-997h-193v365h-192q-43 0 -70 -25.5t-35 -71.5l-59 -268h-201l72 301q13 59 59 89t97 38v8q-96 18 -136.5 85.5t-40.5 191.5q0 76 15 129.5t51.5 92.5t100 58t157.5 19zM608 512v340h-178q-47 0 -73 -7.5t-40.5 -29t-18 -49.5t-3.5 -82
q0 -101 23 -136.5t108 -35.5h182z" />
    <glyph glyph-name="uni0451" unicode="&#x451;" horiz-adv-x="905" 
d="M354 1200h-63q-51 0 -51 53v111q0 55 51 55h63q52 0 52 -55v-111q0 -53 -52 -53zM647 1200h-63q-52 0 -52 53v111q0 55 52 55h63q25 0 39 -14.5t14 -40.5v-111q0 -53 -53 -53zM831 690q0 -137 -51 -212t-151 -75h-342q7 -107 32.5 -164.5t68 -77.5t118.5 -20q89 0 289 25
l16 -131q-60 -30 -153 -45t-177 -15q-219 0 -310 119.5t-91 407.5q0 197 42 312t124.5 163.5t220.5 48.5q192 0 279 -84t85 -252zM285 557h286q21 0 34.5 11.5t19.5 33t8 41t2 47.5q0 93 -33.5 130.5t-126.5 37.5q-107 0 -147 -62t-43 -239z" />
    <glyph glyph-name="uni0452" unicode="&#x452;" horiz-adv-x="985" 
d="M682 827q222 0 225 -274v-563q0 -124 -48 -231t-132 -173l-111 86q50 73 71.5 146.5t21.5 169.5v508q0 86 -25 120.5t-92 34.5q-52 0 -106.5 -27t-131.5 -89v-535h-196v1006h-119v112h119v316h196l2 -316h277v-112h-277v-156q0 -86 -10 -168q171 145 336 145z" />
    <glyph glyph-name="uni0453" unicode="&#x453;" horiz-adv-x="788" 
d="M741 1360l-352 -240l-61 92l307 299zM307 1006q311 0 453 -19l-8 -139h-359q-44 0 -64 -27.5t-20 -89.5v-731h-196v784q0 222 194 222z" />
    <glyph glyph-name="uni0454" unicode="&#x454;" horiz-adv-x="860" 
d="M780 160l19 -140q-122 -43 -303 -43q-229 0 -322.5 116.5t-93.5 400.5q0 289 93 404.5t323 115.5q104 0 166.5 -8t125.5 -31l-16 -137q-115 10 -276 10q-111 2 -158.5 -55.5t-54.5 -208.5h403v-150h-405q6 -166 52.5 -226.5t162.5 -60.5q144 0 284 13z" />
    <glyph glyph-name="uni0455" unicode="&#x455;" horiz-adv-x="858" 
d="M403 1026q200 -4 357 -35l-17 -143q-255 10 -307 10h-46.5t-36.5 -1.5t-30 -4.5t-21.5 -8.5t-16.5 -13t-9 -19.5t-6.5 -27t-1.5 -36q0 -35 5 -56.5t22.5 -36t31 -20.5t50.5 -19l215 -69q105 -33 148.5 -93.5t43.5 -187.5q0 -74 -14 -124.5t-39.5 -83t-72 -50.5
t-101 -24.5t-135.5 -6.5q-176 0 -330 29l10 148q91 -11 275 -11q131 0 174 23.5t43 99.5q0 32 -6.5 53t-22 33.5t-32.5 20t-46 17.5q-7 2 -10 3l-213 70q-104 32 -145 96t-41 189q0 166 71 223t254 55z" />
    <glyph glyph-name="uni0456" unicode="&#x456;" horiz-adv-x="446" 
d="M176 1425h94q56 0 56 -57v-115q0 -59 -56 -59h-94q-55 0 -55 59v115q0 57 55 57zM322 0h-197v999h197v-999z" />
    <glyph glyph-name="uni0457" unicode="&#x457;" horiz-adv-x="444" 
d="M45 1419h64q51 0 51 -55v-111q0 -53 -51 -53h-64q-51 0 -51 53v111q0 55 51 55zM338 1419h63q25 0 39.5 -14.5t14.5 -40.5v-111q0 -53 -54 -53h-63q-51 0 -51 53v111q0 55 51 55zM322 0h-197v999h197v-999z" />
    <glyph glyph-name="uni0458" unicode="&#x458;" horiz-adv-x="446" 
d="M178 1425h94q54 0 54 -57v-115q0 -59 -54 -59h-94q-55 0 -55 59v115q0 57 55 57zM322 999v-1009q0 -125 -47.5 -231.5t-133.5 -172.5l-108 86q50 72 71 146.5t21 171.5v1009h197z" />
    <glyph glyph-name="uni0459" unicode="&#x459;" horiz-adv-x="1359" 
d="M797 625h155q199 0 272.5 -69t73.5 -251q0 -96 -16.5 -157t-55.5 -96.5t-94.5 -49.5t-142.5 -14q-241 0 -379 12v850h-94q-45 0 -64 -20.5t-24 -73.5q-19 -233 -34 -347t-42 -204q-32 -113 -115 -165.5t-182 -45.5l-12 135q23 10 35.5 16.5t33 21t36 37t26.5 52.5
q29 80 43 185.5t33 351.5q9 101 62 153.5t145 52.5h340v-374zM797 143h161q82 0 112 33t30 137q0 96 -30.5 132t-117.5 36h-155v-338z" />
    <glyph glyph-name="uni045A" unicode="&#x45a;" horiz-adv-x="1366" 
d="M801 623h155q199 0 274 -68t75 -250q0 -94 -17.5 -155t-57.5 -97t-97 -50.5t-144 -14.5q-237 0 -373 12v479h-319v-479h-180v999h180v-376h319v376h185v-376zM801 143h155q87 0 118.5 34t31.5 136q0 95 -31 130.5t-119 35.5h-155v-336z" />
    <glyph glyph-name="uni045B" unicode="&#x45b;" horiz-adv-x="985" 
d="M682 827q110 0 167.5 -69.5t57.5 -204.5v-553h-198v496q0 87 -25 121t-92 34q-52 0 -106.5 -27t-131.5 -89v-535h-196v1006h-119v112h119v316h196l2 -316h277v-112h-277v-156q0 -86 -10 -168q171 145 336 145z" />
    <glyph glyph-name="uni045C" unicode="&#x45c;" horiz-adv-x="907" 
d="M403 1120l-61 92l307 299l107 -151zM541 522v-4q44 -6 76.5 -19.5t59.5 -41.5t46 -59t40.5 -88.5t38 -111.5t43.5 -146q3 -11 5 -17.5t5 -16.5t5 -18h-205q-73 247 -98 306q-41 98 -96 123q-28 12 -64 13h-94q10 -55 10 -92v-350h-196v999h196v-288q0 -66 -10 -115h82
q88 0 138 79q37 59 88 241q5 15 13 46q7 24 11 37h199q-70 -234 -86 -277q-46 -121 -109 -164q-41 -27 -98 -36z" />
    <glyph glyph-name="uni045D" unicode="&#x45d;" horiz-adv-x="974" 
d="M582 1212l-62 -92l-352 240l106 151zM858 0h-176v598q0 38 8 156h-6q-11 -35 -59 -140l-318 -614h-190v999h176v-600q0 -85 -8 -153h6q11 36 57 137l320 616h190v-999z" />
    <glyph glyph-name="uni045E" unicode="&#x45e;" horiz-adv-x="903" 
d="M446 1155q-127 0 -199 82.5t-63 206.5h146q0 -180 116 -180q115 0 115 180h146q9 -124 -62.5 -206.5t-198.5 -82.5zM879 999l-299 -1046q-61 -209 -158 -295q-67 -58 -157 -73t-189 5l18 140q134 -11 193 41q62 54 108 192l13 37h-43q-53 0 -68 51l-272 948h211l174 -727
q20 -65 28 -122h21q10 28 35 122l174 727h211z" />
    <glyph glyph-name="uni045F" unicode="&#x45f;" horiz-adv-x="972" 
d="M854 999v-999h-289l-14 -338h-131l-17 338h-286v999h192l6 -839h344v839h195z" />
    <glyph glyph-name="uni0490" unicode="&#x490;" horiz-adv-x="876" 
d="M846 1724v-342l-10 -141h-410q-57 0 -76.5 -30t-19.5 -111v-1100h-205v1139q0 123 65 200.5t166 77.5q227 0 338 -10l19 317h133z" />
    <glyph glyph-name="uni0491" unicode="&#x491;" horiz-adv-x="794" 
d="M764 987l-12 -139h-359q-43 0 -62.5 -28t-19.5 -89v-731h-196v784q0 109 48.5 165.5t143.5 56.5q190 0 307 -7l19 299h129z" />
    <glyph glyph-name="uni04B0" unicode="&#x4b0;" horiz-adv-x="983" 
d="M834 449h-240v-449h-201v449h-237v120h206l-344 844h215l209 -579q11 -29 47 -164h13q26 114 45 161l209 582h211l-340 -844h204z" />
    <glyph glyph-name="uni04B1" unicode="&#x4b1;" horiz-adv-x="987" 
d="M627 160h204v-125h-237v-443h-201v443h-239v125h206l-342 839h213l209 -573q12 -29 47 -162h15q18 96 45 162l207 573h213z" />
    <glyph glyph-name="uni04B6" unicode="&#x4b6;" horiz-adv-x="1112" 
d="M1067 141v-450h-139l-19 309h-184v616q-88 -54 -186.5 -81t-173.5 -27q-141 0 -208 79t-67 244v582h205v-541q-3 -99 30.5 -142.5t112.5 -43.5q73 0 137.5 21.5t149.5 76.5v629h205v-1272h137z" />
    <glyph glyph-name="uni04B7" unicode="&#x4b7;" horiz-adv-x="958" 
d="M909 160v-455h-129l-18 295h-172v406q-72 -30 -154.5 -48t-132.5 -18q-221 0 -221 221v438h192v-370q0 -70 21 -98.5t74 -28.5q112 0 221 61v436h196l-2 -839h125z" />
    <glyph glyph-name="uni04BA" unicode="&#x4ba;" horiz-adv-x="1058" 
d="M692 905q141 0 209 -79.5t68 -243.5v-582h-203v541q0 99 -33 142.5t-112 43.5q-142 0 -287 -96v-631h-203v1413h203v-612q86 51 187 77.5t171 26.5z" />
    <glyph glyph-name="uni04C0" unicode="&#x4c0;" horiz-adv-x="466" 
d="M336 0h-205v1413h205v-1413z" />
    <glyph glyph-name="Wgrave" unicode="&#x1e80;" horiz-adv-x="1587" 
d="M887 1577l-62 -92l-352 239l107 152zM1536 1413l-193 -1354q-6 -27 -26 -43t-47 -16h-221q-29 0 -49.5 16.5t-26.5 44.5l-142 1039q-3 27 -11 80.5t-11 79.5h-31q-6 -30 -12.5 -85.5t-9.5 -74.5l-142 -1039q-4 -27 -25.5 -44t-49.5 -17h-222q-28 0 -48.5 16.5t-26.5 42.5
l-193 1354h217l129 -1077q9 -51 21 -180h35q8 90 24 180l137 1010q6 30 26 48.5t50 18.5h211q29 0 49.5 -18.5t26.5 -48.5l137 -1012q18 -106 23 -178h36q17 164 19 176l133 1081h213z" />
    <glyph glyph-name="wgrave" unicode="&#x1e81;" horiz-adv-x="1374" 
d="M780 1212l-61 -92l-352 240l106 151zM1341 999l-213 -944q-4 -26 -23 -40.5t-46 -14.5h-180q-28 0 -50.5 17.5t-25.5 45.5l-84 658q-13 117 -23 160h-18q-20 -129 -23 -160l-84 -658q-3 -29 -25 -46t-52 -17h-175q-60 0 -73 55l-213 944h200l136 -720q16 -99 22 -154h21
q4 25 13 77t13 77l86 659q3 28 22.5 44.5t47.5 16.5h188q28 0 47.5 -17t22.5 -46l84 -657q3 -18 13.5 -71t13.5 -83h22q5 71 21 154l135 720h200z" />
    <glyph glyph-name="Wacute" unicode="&#x1e82;" horiz-adv-x="1587" 
d="M1083 1724l-352 -239l-61 92l307 299zM1536 1413l-193 -1354q-6 -27 -26 -43t-47 -16h-221q-29 0 -49.5 16.5t-26.5 44.5l-142 1039q-3 27 -11 80.5t-11 79.5h-31q-6 -30 -12.5 -85.5t-9.5 -74.5l-142 -1039q-4 -27 -25.5 -44t-49.5 -17h-222q-28 0 -48.5 16.5
t-26.5 42.5l-193 1354h217l129 -1077q9 -51 21 -180h35q8 90 24 180l137 1010q6 30 26 48.5t50 18.5h211q29 0 49.5 -18.5t26.5 -48.5l137 -1012q18 -106 23 -178h36q17 164 19 176l133 1081h213z" />
    <glyph glyph-name="wacute" unicode="&#x1e83;" horiz-adv-x="1374" 
d="M979 1360l-352 -240l-62 92l307 299zM1341 999l-213 -944q-4 -26 -23 -40.5t-46 -14.5h-180q-28 0 -50.5 17.5t-25.5 45.5l-84 658q-13 117 -23 160h-18q-20 -129 -23 -160l-84 -658q-3 -29 -25 -46t-52 -17h-175q-60 0 -73 55l-213 944h200l136 -720q16 -99 22 -154h21
q4 25 13 77t13 77l86 659q3 28 22.5 44.5t47.5 16.5h188q28 0 47.5 -17t22.5 -46l84 -657q3 -18 13.5 -71t13.5 -83h22q5 71 21 154l135 720h200z" />
    <glyph glyph-name="Wdieresis" unicode="&#x1e84;" horiz-adv-x="1587" 
d="M614 1786h66q51 0 51 -55v-111q0 -55 -51 -55h-66q-49 0 -49 55v111q0 55 49 55zM909 1786h64q25 0 39 -15t14 -40v-111q0 -55 -53 -55h-64q-53 0 -53 55v111q0 25 13.5 40t39.5 15zM1536 1413l-193 -1354q-6 -27 -26 -43t-47 -16h-221q-29 0 -49.5 16.5t-26.5 44.5
l-142 1039q-3 27 -11 80.5t-11 79.5h-31q-6 -30 -12.5 -85.5t-9.5 -74.5l-142 -1039q-4 -27 -25.5 -44t-49.5 -17h-222q-28 0 -48.5 16.5t-26.5 42.5l-193 1354h217l129 -1077q9 -51 21 -180h35q8 90 24 180l137 1010q6 30 26 48.5t50 18.5h211q29 0 49.5 -18.5t26.5 -48.5
l137 -1012q18 -106 23 -178h36q17 164 19 176l133 1081h213z" />
    <glyph glyph-name="wdieresis" unicode="&#x1e85;" horiz-adv-x="1374" 
d="M510 1421h65q52 0 52 -55v-111q0 -55 -52 -55h-65q-49 0 -49 55v111q0 55 49 55zM805 1421h63q25 0 39.5 -15t14.5 -40v-111q0 -55 -54 -55h-63q-53 0 -53 55v111q0 25 13.5 40t39.5 15zM1341 999l-213 -944q-4 -26 -23 -40.5t-46 -14.5h-180q-28 0 -50.5 17.5
t-25.5 45.5l-84 658q-13 117 -23 160h-18q-20 -129 -23 -160l-84 -658q-3 -29 -25 -46t-52 -17h-175q-60 0 -73 55l-213 944h200l136 -720q16 -99 22 -154h21q4 25 13 77t13 77l86 659q3 28 22.5 44.5t47.5 16.5h188q28 0 47.5 -17t22.5 -46l84 -657q3 -18 13.5 -71
t13.5 -83h22q5 71 21 154l135 720h200z" />
    <glyph glyph-name="Ygrave" unicode="&#x1ef2;" horiz-adv-x="966" 
d="M512 1487l-352 239l106 152l307 -299zM584 487v-487h-201v487l-375 926h215l207 -579q23 -57 47 -162h15q26 116 45 162l208 579h211z" />
    <glyph glyph-name="ygrave" unicode="&#x1ef3;" horiz-adv-x="894" 
d="M481 1120l-352 240l107 151l307 -299zM874 999l-296 -1046q-21 -72 -53.5 -133.5t-81 -117t-118 -88.5t-153.5 -34l-18 131q95 36 151 97t86 155l12 37h-43q-52 0 -67 51l-273 948h211l177 -727q20 -77 26 -122h23q7 24 18 67.5t14 54.5l175 727h210z" />
    <glyph glyph-name="endash" unicode="&#x2013;" horiz-adv-x="952" 
d="M846 442h-740v152h740v-152z" />
    <glyph glyph-name="emdash" unicode="&#x2014;" horiz-adv-x="1449" 
d="M1343 442h-1237v152h1237v-152z" />
    <glyph glyph-name="quoteleft" unicode="&#x2018;" horiz-adv-x="376" 
d="M219 1006h-55q-40 0 -54.5 14.5t-13.5 52.5l-2 119q3 163 72 301l94 -25q-22 -119 -22 -229q28 0 42.5 -15.5t12.5 -41.5v-109q-1 -38 -18 -52.5t-56 -14.5z" />
    <glyph glyph-name="quoteright" unicode="&#x2019;" horiz-adv-x="372" 
d="M156 1479h57q39 0 53.5 -14.5t12.5 -51.5l2 -121q-3 -159 -72 -301l-94 25q22 123 22 229q-26 0 -40.5 15.5t-14.5 42.5v110q3 36 20 51t54 15z" />
    <glyph glyph-name="quotesinglbase" unicode="&#x201a;" horiz-adv-x="397" 
d="M172 236h55q41 0 55.5 -14.5t12.5 -51.5l2 -121q-3 -163 -72 -301l-94 25q23 128 23 229q-28 0 -43 15t-15 42v111q3 36 20 51t56 15z" />
    <glyph glyph-name="quotedblleft" unicode="&#x201c;" horiz-adv-x="665" 
d="M221 1006h-59q-39 0 -53.5 14.5t-12.5 50.5l-2 121q3 163 72 301l96 -25q-22 -104 -22 -229q26 0 40.5 -15.5t14.5 -41.5v-111q-3 -35 -20 -50t-54 -15zM508 1006h-57q-41 0 -55.5 14.5t-12.5 50.5l-2 121q3 163 72 301l96 -25q-23 -125 -23 -229q26 0 41 -15.5t15 -41.5
v-111q-3 -35 -20 -50t-54 -15z" />
    <glyph glyph-name="quotedblright" unicode="&#x201d;" horiz-adv-x="659" 
d="M156 1479h57q39 0 53.5 -14.5t12.5 -51.5l2 -121q-3 -159 -72 -301l-94 25q22 123 22 229q-26 0 -40.5 15.5t-14.5 42.5v110q3 36 20 51t54 15zM444 1479h56q39 0 53 -14.5t14 -51.5v-121q-3 -168 -71 -301l-95 25q23 112 23 229q-26 0 -40.5 15.5t-14.5 42.5v110
q3 37 20 51.5t55 14.5z" />
    <glyph glyph-name="quotedblbase" unicode="&#x201e;" horiz-adv-x="684" 
d="M170 236h55q40 0 55 -14.5t13 -51.5l2 -121q-3 -163 -72 -301l-94 25q23 128 23 229q-26 0 -41 15.5t-15 41.5v111q1 36 18 51t56 15zM457 236h55q41 0 55.5 -14.5t12.5 -51.5l2 -121q-3 -163 -72 -301l-94 25q22 123 22 229q-26 0 -40.5 15.5t-14.5 41.5v111q3 36 20 51
t54 15z" />
    <glyph glyph-name="dagger" unicode="&#x2020;" horiz-adv-x="770" 
d="M473 -225h-176l10 1102v114l-10 424h178l-10 -424v-114zM59 827v172h213v-149zM711 999v-172l-213 23v149h213z" />
    <glyph glyph-name="daggerdbl" unicode="&#x2021;" horiz-adv-x="831" 
d="M496 995v-805l8 -415h-176l10 415v805l-10 420h176zM301 850l-211 -23v172h211v-149zM741 827l-213 23v149h213v-172zM301 340v-150h-211v172zM741 190h-213v150l213 22v-172z" />
    <glyph glyph-name="bullet" unicode="&#x2022;" horiz-adv-x="612" 
d="M299 741h20q88 0 122 -39t34 -137v-26q0 -104 -34 -144.5t-122 -40.5h-20q-92 0 -128 40.5t-36 144.5v26q0 98 36 137t128 39z" />
    <glyph glyph-name="ellipsis" unicode="&#x2026;" horiz-adv-x="1470" 
d="M168 254h63q40 0 56 -16t16 -56v-108q0 -41 -16 -57.5t-56 -16.5h-63q-40 0 -55 16.5t-15 57.5v108q0 40 15.5 56t54.5 16zM705 254h61q40 0 56 -16t16 -56v-108q0 -41 -16 -57.5t-56 -16.5h-61q-41 0 -56.5 16t-15.5 58v108q0 40 15.5 56t56.5 16zM1239 254h64
q38 0 53.5 -16t15.5 -56v-108q0 -41 -15.5 -57.5t-53.5 -16.5h-64q-41 0 -56.5 16t-15.5 58v108q0 40 15.5 56t56.5 16z" />
    <glyph glyph-name="perthousand" unicode="&#x2030;" horiz-adv-x="2119" 
d="M340 1440q154 0 215 -95t61 -325q0 -229 -61.5 -324.5t-214.5 -95.5q-151 0 -212.5 96t-61.5 324q0 229 61.5 324.5t212.5 95.5zM455 0h-133l710 1413h133zM338 1317q-72 0 -98.5 -64t-26.5 -233q0 -170 26.5 -233.5t98.5 -63.5q76 0 103.5 63t27.5 234
q0 170 -27.5 233.5t-103.5 63.5zM1149 819q152 0 213 -96t61 -324q0 -229 -61 -324t-213 -95q-153 0 -214 95t-61 324q0 228 61.5 324t213.5 96zM1778 819q151 0 212.5 -96t61.5 -324q0 -229 -61.5 -324t-212.5 -95q-153 0 -214 95t-61 324q0 228 61.5 324t213.5 96z
M1147 694q-73 0 -100 -63t-27 -232t27 -233t100 -64q75 0 103 64.5t28 232.5q0 169 -28 232t-103 63zM1776 694q-72 0 -99.5 -63.5t-27.5 -231.5t27.5 -232.5t99.5 -64.5q76 0 103.5 64t27.5 233q0 170 -27.5 232.5t-103.5 62.5z" />
    <glyph glyph-name="guilsinglleft" unicode="&#x2039;" horiz-adv-x="526" 
d="M440 874l-188 -360l190 -367l-102 -69l-266 414v45l264 405z" />
    <glyph glyph-name="guilsinglright" unicode="&#x203a;" horiz-adv-x="530" 
d="M453 537v-45l-265 -414l-104 69l190 367l-188 360l102 68z" />
    <glyph glyph-name="fraction" unicode="&#x2044;" horiz-adv-x="264" 
d="M-156 0h-135l711 1413h135z" />
    <glyph glyph-name="Euro" unicode="&#x20ac;" horiz-adv-x="1048" 
d="M954 182l19 -157q-126 -50 -301 -50q-226 0 -336.5 135.5t-132.5 417.5h-129v121h123v58q0 57 2 86h-125v120h131q27 267 137 396t330 129q152 0 280 -41l-20 -162q-47 11 -125.5 16.5t-147.5 1.5q-108 -7 -165 -89t-74 -251h391l-12 -120h-387l-2 -91v-53h346l-11 -121
h-329q15 -186 72 -275t171 -93q168 -7 295 22z" />
    <glyph glyph-name="trademark" unicode="&#x2122;" horiz-adv-x="1613" 
d="M653 1425v-116h-207v-662h-139v662h-205v116h551zM1503 647h-127l-26 670h-17l-116 -529q-16 -45 -58 -45h-94q-41 0 -57 45l-117 529h-17l-24 -670h-125l25 723q3 55 49 55h135q22 0 34.5 -11t20.5 -34l94 -432q11 -48 21 -110h16q3 14 9 52.5t12 59.5l94 430
q12 45 53 45h139q52 0 52 -55z" />
    <glyph glyph-name="partialdiff" unicode="&#x2202;" horiz-adv-x="952" 
d="M203 1288v152q131 2 223.5 -9t172.5 -41t129.5 -83t84 -137.5t46.5 -201.5t7 -278q-12 -352 -114 -533.5t-312 -181.5q-87 0 -153.5 28.5t-106.5 74.5t-65 111.5t-33.5 133t-5.5 144.5q5 132 42 232.5t115.5 163t192.5 61.5q150 -3 244 -127q2 101 -5 171.5t-27 128
t-52.5 92t-86.5 58t-125 32.5t-171 9zM444 152q49 0 85.5 26t60 68.5t39.5 111.5t24 141t13 169q-93 88 -193 88q-103 0 -149.5 -74.5t-51.5 -214.5q-5 -144 38 -229.5t134 -85.5z" />
    <glyph glyph-name="emptyset" unicode="&#x2205;" horiz-adv-x="1402" 
d="M702 1296q122 0 232.5 -47.5t190.5 -127.5t127.5 -190.5t47.5 -232.5t-47.5 -233.5t-127.5 -191.5t-190.5 -127.5t-232.5 -47.5t-233.5 47.5t-191.5 127.5t-127.5 191.5t-47.5 233.5t47.5 232.5t127.5 190.5t191.5 127.5t233.5 47.5zM702 1116q-39 0 -68.5 -1t-56 -3.5
t-39.5 -4.5t-42.5 -6.5t-42.5 -6.5l6 -93q130 19 243 19q64 0 100 -25t36 -69q0 -36 -20.5 -72.5t-50 -70.5t-58.5 -72.5t-49.5 -95t-20.5 -121.5h111q0 59 20 108.5t48 84t56 68t48 77t20 94.5q0 190 -240 190zM735 350h-80q-14 0 -14 -16v-76q0 -14 14 -14h80q17 0 17 14
v76q0 16 -17 16z" />
    <glyph glyph-name="product" unicode="&#x220f;" horiz-adv-x="1187" 
d="M1130 1245h-155v-1454h-197v1454h-366v-1454h-197v1454h-158v168h1073v-168z" />
    <glyph glyph-name="summation" unicode="&#x2211;" horiz-adv-x="987" 
d="M891 1247h-574l254 -540l-276 -775h612v-165h-831v165l276 775l-256 540v166h795v-166z" />
    <glyph glyph-name="minus" unicode="&#x2212;" horiz-adv-x="966" 
d="M856 530h-745v148h745v-148z" />
    <glyph glyph-name="radical" unicode="&#x221a;" horiz-adv-x="948" 
d="M922 1794l-396 -1778q-6 -16 -22 -16h-232q-17 0 -20 16l-209 983h162l172 -866h22l361 1661h162z" />
    <glyph glyph-name="infinity" unicode="&#x221e;" horiz-adv-x="1282" 
d="M958 918q102 0 169 -72t67 -211q0 -143 -73 -223t-183 -80q-156 0 -295 174q-148 -174 -303 -174q-107 0 -180.5 80.5t-73.5 222.5q0 139 70.5 211t179.5 72q166 0 307 -185q63 77 144.5 131t170.5 54zM375 477q56 0 96.5 35t91.5 109q-26 41 -41 62t-39 45t-52 34
t-64 10q-113 0 -113 -141q0 -154 121 -154zM911 477q56 0 86.5 39t30.5 115q0 141 -110 141q-29 0 -55 -10.5t-41.5 -21t-38.5 -39.5t-30.5 -40t-31.5 -49q36 -60 80 -97.5t110 -37.5z" />
    <glyph glyph-name="integral" unicode="&#x222b;" horiz-adv-x="598" 
d="M369 1462q114 0 184 -8l-14 -141h-105q-50 0 -70.5 -35t-17.5 -123l78 -1337q8 -140 -39 -206.5t-166 -66.5t-172 9l12 141h103q50 0 70.5 37t17.5 125l-76 1333q-7 133 44.5 202.5t150.5 69.5z" />
    <glyph glyph-name="approxequal" unicode="&#x2248;" horiz-adv-x="968" 
d="M295 922q51 -3 182 -58.5t182 -58.5q38 -1 50 19.5t12 86.5h131q20 -129 -25 -193.5t-153 -62.5q-57 1 -188 58.5t-177 60.5q-38 1 -49.5 -21t-11.5 -89h-129q-22 135 27.5 198t148.5 60zM295 530q51 -3 182 -59t182 -59q38 -1 50 20t12 86h131q20 -128 -25 -192
t-153 -62q-57 1 -188 57.5t-177 59.5q-38 1 -49.5 -20.5t-11.5 -90.5h-129q-22 137 27.5 200t148.5 60z" />
    <glyph glyph-name="notequal" unicode="&#x2260;" horiz-adv-x="966" 
d="M567 743l-143 -284h432v-148h-508l-127 -252l-51 29l113 223h-172v148h245l144 284h-389v148h462l113 223l53 -31l-98 -192h215v-148h-289z" />
    <glyph glyph-name="lessequal" unicode="&#x2264;" horiz-adv-x="917" 
d="M807 948l-522 -203l522 -186v-158l-692 265v157l692 283v-158zM817 152h-721v145h721v-145z" />
    <glyph glyph-name="greaterequal" unicode="&#x2265;" horiz-adv-x="917" 
d="M803 823v-157l-692 -265v158l524 186l-524 203v158zM821 152h-721v145h721v-145z" />
    <glyph glyph-name="lozenge" unicode="&#x25ca;" horiz-adv-x="937" 
d="M485 1415l406 -688q11 -19 0 -37l-406 -692q-17 -23 -30 0l-410 692q-8 18 0 37l410 688q13 23 30 0zM203 709l268 -514l264 514l-264 510z" />
    <glyph glyph-name="c_t" horiz-adv-x="1415" 
d="M1133 846v-557q0 -71 20.5 -99t75.5 -28h110l21 -154q-79 -26 -203 -26q-107 0 -164 72.5t-57 207.5v584h-432q-125 0 -173 -73t-48 -273q0 -207 48.5 -283t174.5 -76q122 0 227 23l19 -133q-121 -56 -281 -56q-217 0 -306 118t-89 407q0 268 97 383.5t298 115.5h465v293
h197v-293h237v-153h-237z" />
    <glyph glyph-name="f_f_y" horiz-adv-x="2064" 
d="M2044 999l-299 -1046q-21 -72 -54 -134t-81.5 -117t-118 -88t-152.5 -34l-16 131q96 36 152 97t86 155l14 37h-45q-53 0 -68 51l-198 711q-18 84 -82 84h-226v-846h-196v846h-377v-846h-195v846h-147v143l147 10v152q0 140 63.5 217.5t186.5 77.5q128 0 205 -14l-16 -148
h-121q-70 0 -96.5 -32t-26.5 -124v-129h377v175q0 146 58.5 220t191.5 74q164 0 243 -14l-16 -147h-158q-68 0 -95.5 -35.5t-27.5 -120.5v-152h265q90 0 146.5 -47.5t84.5 -146.5l123 -533q22 -71 29 -122h24q6 23 31 122l174 727h211z" />
    <glyph glyph-name="f_t" horiz-adv-x="1230" 
d="M946 846v-557q0 -71 21 -99t77 -28h109l23 -154q-79 -26 -205 -26q-106 0 -162.5 72.5t-56.5 207.5v584h-369v-846h-195v846h-147v143l147 10v175q0 146 58 220t192 74q152 0 226 -14l-17 -147h-141q-68 0 -95.5 -35.5t-27.5 -120.5v-152h369v293h194v-293h238v-153h-238
z" />
    <glyph glyph-name="f_y" horiz-adv-x="1490" 
d="M1470 999l-299 -1046q-21 -72 -53.5 -133.5t-80.5 -117t-117.5 -88.5t-153.5 -34l-16 131q95 36 151 97t86 155l14 37h-45q-52 0 -67 51l-199 711q-18 84 -82 84h-225v-846h-195v846h-147v143l147 10v175q0 146 58 220t192 74q165 0 242 -14l-16 -147h-158
q-68 0 -95.5 -35.5t-27.5 -120.5v-152h264q92 0 149 -47.5t83 -146.5l122 -533q22 -71 29 -122h25l35 116l170 733h210z" />
    <glyph glyph-name="s_t" horiz-adv-x="1447" 
d="M1163 846v-557q0 -72 20.5 -99.5t78.5 -27.5h108l23 -154q-79 -26 -205 -26q-107 0 -163 72t-56 208v584h-537q-40 0 -59.5 -0.5t-42.5 -3.5t-32.5 -9t-19 -17t-12 -27t-2.5 -41q0 -73 36 -99q15 -12 73 -33l217 -69q104 -34 148 -94.5t44 -186.5q0 -92 -20 -149t-68 -88
t-111 -41.5t-165 -10.5q-174 0 -330 29l12 148q87 -11 273 -11q131 0 175 24t44 99q0 32 -5.5 52.5t-24.5 34.5t-31 19t-47 17q-3 1 -5.5 2t-5.5 2l-211 70q-105 32 -146.5 96.5t-41.5 188.5q0 150 71 201.5t254 49.5h570v293h194v-293h238v-153h-238z" />
    <glyph glyph-name="t_t" horiz-adv-x="1263" 
d="M981 846v-557q0 -71 20.5 -99t75.5 -28h111l20 -154q-79 -26 -202 -26q-108 0 -165 72t-57 208v584h-403v-557q0 -72 20 -99.5t76 -27.5h111l22 -154q-79 -26 -207 -26q-105 0 -161 72.5t-56 207.5v584h-149v143l149 10v293h195v-293h403v293h197v-293h238v-153h-238z
" />
    <glyph glyph-name="t_y" horiz-adv-x="1523" 
d="M1503 999l-301 -1046q-21 -72 -53 -134t-80.5 -117t-118 -88t-153.5 -34l-17 131q96 36 153 97.5t85 154.5l12 37h-43q-53 0 -65 51l-201 711q-18 84 -82 84h-258v-557q0 -72 20 -99.5t76 -27.5h111l22 -154q-79 -26 -207 -26q-105 0 -161 72.5t-56 207.5v584h-149v143
l149 10v293h195v-293h297q179 0 231 -192l123 -535q22 -71 29 -122h20q6 21 19.5 62.5t17.5 57.5l172 729h213z" />
    <glyph glyph-name="brevecy" horiz-adv-x="634" 
d="M434 1425h146q9 -124 -62.5 -205t-198.5 -81t-199 81t-63 205h146q0 -178 116 -178q115 0 115 178z" />
    </font>
</defs>
</svg>
